Resultados 1 al 25 de 54

Tema: Dracula III: Legacy (2005) 1080p BDRip Dual Latino-Inglés [Subt. Esp] (Terror)

Ver modo hilado

Mensaje anterior Mensaje anterior   Próximo mensaje Próximo mensaje
  1. #1
    Uploader
    Avatar de Dante Inferno
    Fecha de ingreso
    24 may, 16
    Mensajes
    247
    Última Actividad
    20/11/2017 @ 20:01
    Nacionalidad
    Argentina

    Sexo
    Hombre

    Poder de reputación
    23

    Cool Dracula III: Legacy (2005) 1080p BDRip Dual Latino-Inglés [Subt. Esp] (Terror)





    Título original: Dracula III: Legacy
    Año: 2005
    Duración: 86 min.
    País: Estados Unidos
    Director: Patrick Lussier
    Guión: Joel Soisson, Patrick Lussier
    Música: Kevin Kliesch, Ceiri Torjussen
    Fotografía: Douglas Milsome
    Reparto: Jason Scott Lee, Jason London, Rutger Hauer, Roy Scheider, Stephen Billington, Diane Neal, Tom Kane, Alexandra Wescourt, Ilinca Goia, George Grigore, Gary J. Tunnicliffe
    Productora: Coproducción EEUU-Rumanía; Dimension Films / Neo Art, Logic / Castel Film Romania
    Género: Terror | Vampiros. Secuela







    El Padre Uffizi y Luke van en busca de Elizabeth, amada de Luke que fue infestada y “secuestrada” en la segunda parte. Así que viajan hasta Bucarest, capital de Rumania, y en plena guerra civil se mezclan entre el ejército y los rebeldes para llegar hasta Elizabeth y el rey de los chupasangres.


























    Código:
    General
    Complete name                            : Dracula III - Legacy (2005) 1080p BDRip Dual Latino-Inglés [Subt. Esp].mkv
    Format                                   : Matroska
    Format version                           : Version 4 / Version 2
    File size                                : 7.12 GiB
    Duration                                 : 1 h 30 min
    Overall bit rate                         : 11.2 Mb/s
    Movie name                               : www.club-hd.com -> Dracula III: Legacy (2005) 1080p BDRip Dual Latino-Inglés [Subt. Esp]
    Encoded date                             : UTC 2016-12-23 19:50:18
    Writing application                      : mkvmerge v9.5.0 ('Quiet Fire') 64bit
    Writing library                          : libebml v1.3.4 + libmatroska v1.4.5
    
    Video
    ID                                       : 1
    Format                                   : AVC
    Format/Info                              : Advanced Video Codec
    Format profile                           : High@L4.1
    Format settings, CABAC                   : Yes
    Format settings, ReFrames                : 4 frames
    Codec ID                                 : V_MPEG4/ISO/AVC
    Duration                                 : 1 h 30 min
    Bit rate                                 : 8 834 kb/s
    Width                                    : 1 920 pixels
    Height                                   : 1 080 pixels
    Display aspect ratio                     : 16:9
    Frame rate mode                          : Constant
    Frame rate                               : 23.976 (24000/1001) FPS
    Color space                              : YUV
    Chroma subsampling                       : 4:2:0
    Bit depth                                : 8 bits
    Scan type                                : Progressive
    Bits/(Pixel*Frame)                       : 0.178
    Stream size                              : 5.60 GiB (79%)
    Title                                    : Dracula III: Legacy (2005) 1080p BDRip Dual Latino-Inglés [Subt. Esp]
    Writing library                          : x264 core 118 r2085 8a62835
    Language                                 : English
    Default                                  : Yes
    Forced                                   : No
    
    Audio #1
    ID                                       : 2
    Format                                   : AC-3
    Format/Info                              : Audio Coding 3
    Mode extension                           : CM (complete main)
    Format settings, Endianness              : Big
    Codec ID                                 : A_AC3
    Duration                                 : 1 h 30 min
    Bit rate mode                            : Constant
    Bit rate                                 : 256 kb/s
    Channel(s)                               : 2 channels
    Channel positions                        : Front: L R
    Sampling rate                            : 48.0 kHz
    Frame rate                               : 31.250 FPS (1536 spf)
    Bit depth                                : 16 bits
    Compression mode                         : Lossy
    Stream size                              : 166 MiB (2%)
    Title                                    : Dracula III: Legacy (2005) - Español Latino AC3 2.0 - 256 Kbps
    Language                                 : Spanish
    Default                                  : Yes
    Forced                                   : No
    
    Audio #2
    ID                                       : 3
    Format                                   : AC-3
    Format/Info                              : Audio Coding 3
    Mode extension                           : CM (complete main)
    Format settings, Endianness              : Big
    Codec ID                                 : A_AC3
    Duration                                 : 1 h 30 min
    Bit rate mode                            : Constant
    Bit rate                                 : 640 kb/s
    Channel(s)                               : 6 channels
    Channel positions                        : Front: L C R, Side: L R, LFE
    Sampling rate                            : 48.0 kHz
    Frame rate                               : 31.250 FPS (1536 spf)
    Bit depth                                : 16 bits
    Compression mode                         : Lossy
    Stream size                              : 415 MiB (6%)
    Title                                    : Dracula III: Legacy (2005) - Inglés AC3 5.1 - 640 Kbps
    Language                                 : English
    Default                                  : No
    Forced                                   : No
    
    Audio #3
    ID                                       : 4
    Format                                   : DTS
    Format/Info                              : Digital Theater Systems
    Mode                                     : 16
    Format settings, Endianness              : Big
    Codec ID                                 : A_DTS
    Duration                                 : 1 h 30 min
    Bit rate mode                            : Constant
    Bit rate                                 : 1 509 kb/s
    Channel(s)                               : 6 channels
    Channel positions                        : Front: L C R, Side: L R, LFE
    Sampling rate                            : 48.0 kHz
    Frame rate                               : 93.750 FPS (512 spf)
    Bit depth                                : 24 bits
    Compression mode                         : Lossy
    Stream size                              : 979 MiB (13%)
    Title                                    : Dracula III: Legacy (2005) - Inglés DTS 5.1 - 1509 Kbps
    Language                                 : English
    Default                                  : No
    Forced                                   : No
    
    Text
    ID                                       : 5
    Format                                   : UTF-8
    Codec ID                                 : S_TEXT/UTF8
    Codec ID/Info                            : UTF-8 Plain Text
    Duration                                 : 1 h 23 min
    Bit rate                                 : 31 b/s
    Count of elements                        : 579
    Stream size                              : 19.2 KiB (0%)
    Title                                    : Dracula III: Legacy (2005) - Subtítulos Español
    Language                                 : Spanish
    Default                                  : No
    Forced                                   : No
    
    Menu
    00:00:00.000                             : en:Subway Suckers
    00:07:27.029                             : en:Endurance
    00:13:32.770                             : en:Promotion
    00:18:45.290                             : en:Procurers
    00:24:20.041                             : en:The Day After
    00:30:55.812                             : en:Chew Biscuits
    00:37:31.207                             : en:Side Show Freaks
    00:42:02.728                             : en:Nice Wheels
    00:48:14.850                             : en:Romanian Rebels
    00:55:03.508                             : en:Back in Action
    01:00:39.594                             : en:Slaughter House
    01:04:28.072                             : en:Dracula
    01:08:21.514                             : en:Elizabeth
    01:14:52.321                             : en:Forgiveness
    01:21:23.086                             : en:Almost Over






    Código:
    www.club-hd.com






    Todos los links son Intercambiables!






    Compra tu Membresía VIP y apoya a Club-HD!

    Click Aquí para más información.

    ATENCIÓN! Finalmente tenemos TODO el material de Club-HD disponible por Mega, enlaces 100% activos y online hoy









    Compra tu Membresía VIP y apoya a Club-HD!

    Click Aquí para más información.

    ATENCIÓN! Finalmente tenemos TODO el material de Club-HD disponible por Mega, enlaces 100% activos y online hoy








    1. Primero, deben estár registrados, sino no habrá manera de que puedan ver los Enlaces.

    2. Una vez registrados, sólo deben dejar un simple comentario de Siete (7) letras/carácteres mínimo.

    Con eso ya podrán ver los links sin ningún problema.

    Nota: Usamos este sistema para proteger los links de Club-HD, y hasta la fecha funciona muy bien.






    1. Primero, deben estár registrados, sino no habrá manera de que puedan ver los Enlaces.

    2. Una vez registrados, sólo deben dejar un simple comentario de Siete (7) letras/carácteres mínimo.

    Con eso ya podrán ver los links sin ningún problema.

    Nota: Usamos este sistema para proteger los links de Club-HD, y hasta la fecha funciona muy bien.



  2. Los siguientes 13 Usuarios dieron Me Gusta a Dante Inferno por este Post:

    ali2134 (09/01/2017),amunra (01/04/2017),ARMAN777 (11/01/2017),armyfan (11/01/2017),caspercito (24/02/2017),christian (12/02/2017),cripp (10/01/2017),Doctor Jason (10/01/2017),ERRE (10/01/2017),flujo (03/02/2017),jorgonz05 (11/01/2017),Leo (11/01/2017),nelsedu (26/03/2017)

Información de tema

Usuarios viendo este tema

Actualmente hay 1 usuarios viendo este tema. (0 miembros y 1 visitantes)

Temas similares

  1. Dracula (1992) 1080P 60FPS Dual Latino-Ingles [Subt.Esp](Terror)
    Por Bluraysymas en el foro Películas en 1080p
    Respuestas: 75
    Último mensaje: 17/11/2017, 14:43
  2. Respuestas: 278
    Último mensaje: 06/11/2017, 19:42
  3. Respuestas: 60
    Último mensaje: 22/04/2017, 18:46
  4. Respuestas: 284
    Último mensaje: 26/03/2017, 05:19
  5. Respuestas: 271
    Último mensaje: 06/03/2015, 00:47

Miembros que han leído este tema: 16

Etiquetas para este tema

Marcadores

Permisos de publicación

  • No puedes crear nuevos temas
  • No puedes responder temas
  • No puedes subir archivos adjuntos
  • No puedes editar tus mensajes
  •