Resultados 1 al 25 de 118

Tema: The Light Between Oceans (2016) 720p BDRip Dual Audio Latino-Inglés [Subt. Esp] (Drama)

Ver modo hilado

Mensaje anterior Mensaje anterior   Próximo mensaje Próximo mensaje
  1. #1
    Dohko de Libra

    Avatar de HemoAr
    Fecha de ingreso
    09 mar, 13
    Ubicación
    Rozan
    Edad
    34
    Mensajes
    9,235
    Última Actividad
    @
    Nacionalidad
    Mexico

    Sexo
    Hombre

    Poder de reputación
    291

    Cool The Light Between Oceans (2016) 720p BDRip Dual Audio Latino-Inglés [Subt. Esp] (Drama)







    Título original: The Light Between Oceans
    Año: 2016
    Duración: 130 min.
    País: Estados Unidos
    Director: Derek Cianfrance
    Reparto: Michael Fassbender, Alicia Vikander, Rachel Weisz, Anthony Hayes, Caren Pistorius, Leon Ford, Benedict Hardie, Florence Clery
    Productora: Coproducción EEUU-Reino Unido-Nueva Zelanda; DreamWorks SKG / Heyday Films / Participant Media
    Género: Drama | Drama de época. Melodrama. Años 20

    Sinopsis: Australia, 1926. Un bote encalla en una isla remota y a su encuentro acuden el farero Tom Sherbourne y su joven esposa Isabel. En el interior del bote yacen un hombre muerto y un bebé que llora con desesperación. Tom e Isabel adoptan al niño y deciden criarlo sin informar a las autoridades. Todo se complica cuando descubren que la madre biológica del bebé está viva.

























    Un gradecimiento muy especial a nuestro amigo Oraldo por brindarnos este audio Latino de excelente calidad.

    Descarga sólo el audio Latino de este aporte, aquí.





    General

    Format : Matroska
    Format version : Version 4 / Version 2
    File size : 6.35 GiB
    Duration : 2 h 12 min
    Overall bit rate : 6 838 kb/s
    Movie name : The Light Between Oceans (2016) 720p BDRip Dual Audio Latino-Inglés
    Encoded date : UTC 2017-01-08 23:21:52
    Writing application : mkvmerge v9.3.1 ('Mask Machine') 32bit
    Writing library : libebml v1.3.4 + libmatroska v1.4.5

    Video
    ID : 1
    Format : AVC
    Format/Info : Advanced Video Codec
    Format profile : High@L4.1
    Format settings, CABAC : Yes
    Format settings, ReFrames : 5 frames
    Codec ID : V_MPEG4/ISO/AVC
    Duration : 2 h 12 min
    Bit rate : 5 557 kb/s
    Width : 1 280 pixels
    Height : 536 pixels
    Display aspect ratio : 2.40:1
    Frame rate mode : Constant
    Frame rate : 23.976 FPS
    Color space : YUV
    Chroma subsampling : 4:2:0
    Bit depth : 8 bits
    Scan type : Progressive
    Bits/(Pixel*Frame) : 0.338
    Stream size : 5.16 GiB (81%)
    Title : The Light Between Oceans (2016) 720p BDRip Dual Audio Latino-Inglés
    Language : English
    Default : Yes
    Forced : No

    Audio #1
    ID : 2
    Format : AC-3
    Format/Info : Audio Coding 3
    Mode extension : CM (complete main)
    Format settings, Endianness : Big
    Codec ID : A_AC3
    Duration : 2 h 12 min
    Bit rate mode : Constant
    Bit rate : 640 kb/s
    Channel(s) : 6 channels
    Channel positions : Front: L C R, Side: L R, LFE
    Sampling rate : 48.0 kHz
    Frame rate : 31.250 FPS (1536 spf)
    Bit depth : 16 bits
    Compression mode : Lossy
    Stream size : 608 MiB (9%)
    Title : AC3 5.1 Bluray
    Language : Spanish
    Default : Yes
    Forced : No

    Audio #2
    ID : 3
    Format : AC-3
    Format/Info : Audio Coding 3
    Mode extension : CM (complete main)
    Format settings, Endianness : Big
    Codec ID : A_AC3
    Duration : 2 h 12 min
    Bit rate mode : Constant
    Bit rate : 640 kb/s
    Channel(s) : 6 channels
    Channel positions : Front: L C R, Side: L R, LFE
    Sampling rate : 48.0 kHz
    Frame rate : 31.250 FPS (1536 spf)
    Bit depth : 16 bits
    Compression mode : Lossy
    Stream size : 608 MiB (9%)
    Title : AC3 5.1
    Language : English
    Default : No
    Forced : No

    Text #1
    ID : 4
    Format : UTF-8
    Codec ID : S_TEXT/UTF8
    Codec ID/Info : UTF-8 Plain Text
    Duration : 2 h 0 min
    Bit rate : 1 b/s
    Count of elements : 32
    Stream size : 1.20 KiB (0%)
    Title : Subtitulos_Forzados
    Language : Spanish
    Default : Yes
    Forced : No

    Text #2
    ID : 5
    Format : UTF-8
    Codec ID : S_TEXT/UTF8
    Codec ID/Info : UTF-8 Plain Text
    Duration : 2 h 5 min
    Bit rate : 40 b/s
    Count of elements : 1125
    Stream size : 37.4 KiB (0%)
    Title : Subtitulos_Completos
    Language : Spanish
    Default : No
    Forced : No

    Menu
    00:00:00.000 : en:00:00:00.000
    00:04:55.128 : en:00:04:55.128
    00:11:38.531 : en:00:11:38.531
    00:17:30.007 : en:00:17:30.007
    00:23:07.469 : en:00:23:07.469
    00:29:35.816 : en:00:29:35.816
    00:35:21.953 : en:00:35:21.953
    00:42:35.678 : en:00:42:35.678
    00:49:51.822 : en:00:49:51.822
    00:55:14.186 : en:00:55:14.186
    00:59:26.062 : en:00:59:26.062
    01:05:48.027 : en:01:05:48.027
    01:10:52.957 : en:01:10:52.957
    01:13:14.724 : en:01:13:14.724
    01:22:34.032 : en:01:22:34.032
    01:31:42.956 : en:01:31:42.956
    01:42:29.101 : en:01:42:29.101
    01:51:31.018 : en:01:51:31.018
    02:01:29.324 : en:02:01:29.324
    02:07:08.621 : en:02:07:08.621







    Contraseña para extraer: www.club-hd.com

    Nota: Los archivos .rev no es necesario descargar al menos que algun .rar este dañado o que este eliminado







    Compra tu Membresía VIP y apoya a Club-HD!

    Click Aquí para más información.

    ATENCIÓN! Finalmente tenemos TODO el material de Club-HD disponible por Mega, enlaces 100% activos y online hoy









    Compra tu Membresía VIP y apoya a Club-HD!

    Click Aquí para más información.

    ATENCIÓN! Finalmente tenemos TODO el material de Club-HD disponible por Mega, enlaces 100% activos y online hoy









    1. Primero, deben estár registrados, sino no habrá manera de que puedan ver los Enlaces.

    2. Una vez registrados, sólo deben dejar un simple comentario de Siete (7) letras/carácteres mínimo.

    Con eso ya podrán ver los links sin ningún problema.

    Nota: Usamos este sistema para proteger los links de Club-HD, y hasta la fecha funciona muy bien.






    1. Primero, deben estár registrados, sino no habrá manera de que puedan ver los Enlaces.

    2. Una vez registrados, sólo deben dejar un simple comentario de Siete (7) letras/carácteres mínimo.

    Con eso ya podrán ver los links sin ningún problema.

    Nota: Usamos este sistema para proteger los links de Club-HD, y hasta la fecha funciona muy bien.

    Última edición por Revolver; 09/01/2017 a las 22:25



    Uploaded.net, el filehost recomendado por Club-HD. Si piensan comprar una cuenta premium, pueden hacerlo desde el siguiente banner, de esta manera se ganarían el privilegio de que les resubamos cualquier aporte perdido de Club-HD!




  2. Los siguientes 14 Usuarios dieron Me Gusta a HemoAr por este Post:

    AdrianTJ (16/01/2017),armyfan (11/01/2017),carlos610 (13/01/2017),caspercito (24/02/2017),christian (12/02/2017),cripp (09/01/2017),flujo (03/02/2017),gafaman (10/01/2017),Jagger1979 (09/01/2017),JUANADOLFO007 (10/01/2017),Leo (11/01/2017),parellanocl (14/01/2017),pp1012 (08/01/2017),xxganonxx (21/05/2017)

Información de tema

Usuarios viendo este tema

Actualmente hay 1 usuarios viendo este tema. (0 miembros y 1 visitantes)

Temas similares

  1. Respuestas: 194
    Último mensaje: 30/11/2017, 14:05
  2. Respuestas: 46
    Último mensaje: 08/10/2017, 15:35
  3. Respuestas: 434
    Último mensaje: 21/05/2017, 03:20
  4. Respuestas: 61
    Último mensaje: 20/05/2017, 13:45
  5. Respuestas: 212
    Último mensaje: 03/11/2015, 22:06

Miembros que han leído este tema: 10

Marcadores

Permisos de publicación

  • No puedes crear nuevos temas
  • No puedes responder temas
  • No puedes subir archivos adjuntos
  • No puedes editar tus mensajes
  •