Resultados 1 al 25 de 90

Tema: Keeping Up with the Joneses (2016) 1080p BDRip Dual Audio Latino-Inglés [Subt. Esp] (Comedia. Acción)

Ver modo hilado

Mensaje anterior Mensaje anterior   Próximo mensaje Próximo mensaje
  1. #1
    Dohko de Libra

    Avatar de HemoAr
    Fecha de ingreso
    09 mar, 13
    Ubicación
    Rozan
    Edad
    34
    Mensajes
    9,235
    Última Actividad
    @
    Nacionalidad
    Mexico

    Sexo
    Hombre

    Poder de reputación
    291

    Cool Keeping Up with the Joneses (2016) 1080p BDRip Dual Audio Latino-Inglés [Subt. Esp] (Comedia. Acción)







    Título original: Keeping Up with the Joneses
    Año: 2016
    Duración: 105 min.
    País: Estados Unidos
    Director: Greg Mottola
    Reparto: Jon Hamm, Isla Fisher, Zach Galifianakis, Gal Gadot, Maribeth Monroe, Ming Zhao, Dennise Renae Larson, Jeff Chase, Ari Shaffir, Cullen Moss, Amy Parrish, Inder Kumar, Kristi Von, NM Garcia, Patti Schellhaas
    Productora: Fox 2000 Pictures / Parkes+MacDonald Image Nation
    Género: Comedia. Acción | Espionaje

    Sinopsis: Una convencional pareja (Zach Galifianakis & Isla Fisher) de un aburrido barrio residencial se ve envuelta en una trama de espionaje internacional cuando descubren que sus nuevos vecinos (Jon Hamm & Gal Gadot), una pareja de lo más sofisticada, son espías del gobierno.

























    Un gradecimiento muy especial a nuestro amigo Oraldo por brindarnos este audio Latino de excelente calidad.

    Descarga sólo el audio Latino de este aporte, aquí.





    General

    Format : Matroska
    Format version : Version 4 / Version 2
    File size : 8.45 GiB
    Duration : 1 h 45 min
    Overall bit rate : 11.5 Mb/s
    Movie name : Keeping Up with the Joneses (2016) 1080p BDRip Dual Audio Latino-Inglés
    Encoded date : UTC 2017-01-08 03:39:30
    Writing application : mkvmerge v9.3.1 ('Mask Machine') 32bit
    Writing library : libebml v1.3.4 + libmatroska v1.4.5

    Video
    ID : 1
    Format : AVC
    Format/Info : Advanced Video Codec
    Format profile : High@L4.1
    Format settings, CABAC : Yes
    Format settings, ReFrames : 5 frames
    Codec ID : V_MPEG4/ISO/AVC
    Duration : 1 h 45 min
    Bit rate : 8 890 kb/s
    Width : 1 920 pixels
    Height : 800 pixels
    Display aspect ratio : 2.40:1
    Frame rate mode : Constant
    Frame rate : 23.976 FPS
    Color space : YUV
    Chroma subsampling : 4:2:0
    Bit depth : 8 bits
    Scan type : Progressive
    Bits/(Pixel*Frame) : 0.241
    Stream size : 6.54 GiB (77%)
    Title : Keeping Up with the Joneses (2016) 1080p BDRip Dual Audio Latino-Inglés
    Language : English
    Default : Yes
    Forced : No

    Audio #1
    ID : 2
    Format : AC-3
    Format/Info : Audio Coding 3
    Mode extension : CM (complete main)
    Format settings, Endianness : Big
    Codec ID : A_AC3
    Duration : 1 h 45 min
    Bit rate mode : Constant
    Bit rate : 448 kb/s
    Channel(s) : 6 channels
    Channel positions : Front: L C R, Side: L R, LFE
    Sampling rate : 48.0 kHz
    Frame rate : 31.250 FPS (1536 spf)
    Bit depth : 16 bits
    Compression mode : Lossy
    Stream size : 338 MiB (4%)
    Title : AC3 5.1 Bluray
    Language : Spanish
    Default : Yes
    Forced : No

    Audio #2
    ID : 3
    Format : DTS
    Format/Info : Digital Theater Systems
    Format profile : ES Matrix / Core
    Mode : 16
    Format settings, Endianness : Big
    Codec ID : A_DTS
    Duration : 1 h 45 min
    Bit rate mode : Constant
    Bit rate : 1 509 kb/s
    Channel(s) : 7 channels / 6 channels
    Channel positions : Front: L C R, Side: L R, Back: C, LFE / Front: L C R, Side: L R, LFE
    Sampling rate : 48.0 kHz
    Frame rate : 93.750 FPS (512 spf)
    Bit depth : 24 bits
    Compression mode : Lossy
    Stream size : 1.11 GiB (13%)
    Title : DTS
    Language : English
    Default : No
    Forced : No

    Audio #3
    ID : 4
    Format : AC-3
    Format/Info : Audio Coding 3
    Mode extension : CM (complete main)
    Format settings, Endianness : Big
    Codec ID : A_AC3
    Duration : 1 h 45 min
    Bit rate mode : Constant
    Bit rate : 640 kb/s
    Channel(s) : 6 channels
    Channel positions : Front: L C R, Side: L R, LFE
    Sampling rate : 48.0 kHz
    Frame rate : 31.250 FPS (1536 spf)
    Bit depth : 16 bits
    Compression mode : Lossy
    Stream size : 482 MiB (6%)
    Title : AC3 5.1
    Language : English
    Default : No
    Forced : No

    Text #1
    ID : 5
    Format : UTF-8
    Codec ID : S_TEXT/UTF8
    Codec ID/Info : UTF-8 Plain Text
    Duration : 1 h 38 min
    Bit rate : 0 b/s
    Count of elements : 20
    Stream size : 576 Bytes (0%)
    Title : Subtitulos_Forzados
    Language : Spanish
    Default : Yes
    Forced : No

    Text #2
    ID : 6
    Format : UTF-8
    Codec ID : S_TEXT/UTF8
    Codec ID/Info : UTF-8 Plain Text
    Duration : 1 h 36 min
    Bit rate : 81 b/s
    Count of elements : 1767
    Stream size : 58.0 KiB (0%)
    Title : Subtitulos_Completos
    Language : Spanish
    Default : No
    Forced : No

    Menu
    00:00:00.000 : en:00:00:00.000
    00:03:43.473 : en:00:03:43.473
    00:06:41.651 : en:00:06:41.651
    00:09:55.845 : en:00:09:55.845
    00:13:28.182 : en:00:13:28.182
    00:17:06.025 : en:00:17:06.025
    00:21:07.933 : en:00:21:07.933
    00:26:02.311 : en:00:26:02.311
    00:30:07.514 : en:00:30:07.514
    00:33:56.743 : en:00:33:56.743
    00:37:43.761 : en:00:37:43.761
    00:40:59.457 : en:00:40:59.457
    00:45:35.149 : en:00:45:35.149
    00:49:00.312 : en:00:49:00.312
    00:52:35.152 : en:00:52:35.152
    00:55:59.189 : en:00:55:59.189
    01:00:50.230 : en:01:00:50.230
    01:04:33.244 : en:01:04:33.244
    01:08:47.665 : en:01:08:47.665
    01:12:04.654 : en:01:12:04.654
    01:15:58.554 : en:01:15:58.554
    01:19:31.809 : en:01:19:31.809
    01:22:46.545 : en:01:22:46.545
    01:25:43.972 : en:01:25:43.972
    01:29:02.295 : en:01:29:02.295
    01:31:44.874 : en:01:31:44.874
    01:34:18.528 : en:01:34:18.528
    01:37:32.680 : en:01:37:32.680







    Contraseña para extraer: www.club-hd.com

    Nota: Los archivos .rev no es necesario descargar al menos que algun .rar este dañado o que este eliminado







    Compra tu Membresía VIP y apoya a Club-HD!

    Click Aquí para más información.

    ATENCIÓN! Finalmente tenemos TODO el material de Club-HD disponible por Mega, enlaces 100% activos y online hoy









    Compra tu Membresía VIP y apoya a Club-HD!

    Click Aquí para más información.

    ATENCIÓN! Finalmente tenemos TODO el material de Club-HD disponible por Mega, enlaces 100% activos y online hoy









    1. Primero, deben estár registrados, sino no habrá manera de que puedan ver los Enlaces.

    2. Una vez registrados, sólo deben dejar un simple comentario de Siete (7) letras/carácteres mínimo.

    Con eso ya podrán ver los links sin ningún problema.

    Nota: Usamos este sistema para proteger los links de Club-HD, y hasta la fecha funciona muy bien.






    1. Primero, deben estár registrados, sino no habrá manera de que puedan ver los Enlaces.

    2. Una vez registrados, sólo deben dejar un simple comentario de Siete (7) letras/carácteres mínimo.

    Con eso ya podrán ver los links sin ningún problema.

    Nota: Usamos este sistema para proteger los links de Club-HD, y hasta la fecha funciona muy bien.

    Última edición por Revolver; 09/01/2017 a las 22:27



    Uploaded.net, el filehost recomendado por Club-HD. Si piensan comprar una cuenta premium, pueden hacerlo desde el siguiente banner, de esta manera se ganarían el privilegio de que les resubamos cualquier aporte perdido de Club-HD!




  2. Los siguientes 7 Usuarios dieron Me Gusta a HemoAr por este Post:

    ARMAN777 (08/01/2017),b3rserk (09/01/2017),cripp (09/01/2017),flujo (03/02/2017),Leo (11/01/2017),Leo-Peru (13/01/2017),nelsedu (31/03/2017)

Información de tema

Usuarios viendo este tema

Actualmente hay 1 usuarios viendo este tema. (0 miembros y 1 visitantes)

Temas similares

  1. Respuestas: 233
    Último mensaje: 21/10/2017, 09:12
  2. Respuestas: 116
    Último mensaje: 30/07/2017, 00:27
  3. Respuestas: 130
    Último mensaje: 14/05/2017, 06:31
  4. Respuestas: 80
    Último mensaje: 31/03/2017, 04:38
  5. Respuestas: 108
    Último mensaje: 17/09/2016, 14:16

Miembros que han leído este tema: 17

Marcadores

Permisos de publicación

  • No puedes crear nuevos temas
  • No puedes responder temas
  • No puedes subir archivos adjuntos
  • No puedes editar tus mensajes
  •