Resultados 1 al 25 de 156

Tema: Inferno (2016) 1080p BDRip Dual Audio Latino-Inglés [Subt. Esp] (Thriller. Intriga)

Ver modo hilado

Mensaje anterior Mensaje anterior   Próximo mensaje Próximo mensaje
  1. #1
    Dohko de Libra

    Avatar de HemoAr
    Miembro de Club-HD N°
    9222
    Fecha de ingreso
    09 mar, 13
    Ubicación
    Rozan
    Edad
    33
    Mensajes
    8,019
    Última Actividad
    @
    Nacionalidad
    Mexico

    Sexo
    Hombre

    Poder de reputación
    211

    Inferno (2016) 1080p BDRip Dual Audio Latino-Inglés [Subt. Esp] (Thriller. Intriga)







    Título original: Inferno
    Año: 2016
    Duración: 121 min
    País: Estados Unidos
    Director: Ron Howard
    Reparto: Tom Hanks, Felicity Jones, Ben Foster, Irrfan Khan, Omar Sy, Sidse Babett Knudsen, Ana Ularu, Jon Donahue, Cesare Cremonini, Xavier Laurent, Fausto Maria Sciarappa, Juan Ignacio Pita
    Productora: Imagine Entertainment
    Género: Thriller. Intriga | Secuela

    Sinopsis: Robert Langdon, el famoso profesor de simbología (nuevamente interpretado por Tom Hanks) se encuentra tras el rastro de una serie de pistas conectadas con el mismísimo Dante. Cuando Langdon despierta con amnesia en un hospital italiano, hará equipo con Sienna Brooks (Felicity Jones), una doctora de la que él espera le ayude a recuperar sus recuerdos. Juntos recorrerán Europa en una carrera a contrarreloj para desbaratar una letal conspiración global. Adaptación del best-seller homónimo de Dan Brown.

























    Un gradecimiento muy especial a nuestro amigo Oraldo por brindarnos este audio Latino de excelente calidad.

    Descarga sólo el audio Latino de este aporte, aquí.





    General

    Format : Matroska
    Format version : Version 4 / Version 2
    File size : 9.83 GiB
    Duration : 2 h 1 min
    Overall bit rate : 11.6 Mb/s
    Movie name : Inferno (2016) 1080p BDRip Dual Audio Latino-Inglés
    Encoded date : UTC 2017-01-07 22:35:02
    Writing application : mkvmerge v9.3.1 ('Mask Machine') 32bit
    Writing library : libebml v1.3.4 + libmatroska v1.4.5

    Video
    ID : 1
    Format : AVC
    Format/Info : Advanced Video Codec
    Format profile : High@L4.1
    Format settings, CABAC : Yes
    Format settings, ReFrames : 4 frames
    Codec ID : V_MPEG4/ISO/AVC
    Duration : 2 h 1 min
    Bit rate : 8 788 kb/s
    Width : 1 920 pixels
    Height : 1 040 pixels
    Display aspect ratio : 1.85:1
    Frame rate mode : Constant
    Frame rate : 23.976 FPS
    Color space : YUV
    Chroma subsampling : 4:2:0
    Bit depth : 8 bits
    Scan type : Progressive
    Bits/(Pixel*Frame) : 0.184
    Stream size : 7.46 GiB (76%)
    Title : Inferno (2016) 1080p BDRip Dual Audio Latino-Inglés
    Language : English
    Default : Yes
    Forced : No

    Audio #1
    : 2
    Format : AC-3
    Format/Info : Audio Coding 3
    Mode extension : CM (complete main)
    Format settings, Endianness : Big
    Codec ID : A_AC3
    Duration : 2 h 1 min
    Bit rate mode : Constant
    Bit rate : 640 kb/s
    Channel(s) : 6 channels
    Channel positions : Front: L C R, Side: L R, LFE
    Sampling rate : 48.0 kHz
    Frame rate : 31.250 FPS (1536 spf)
    Bit depth : 16 bits
    Compression mode : Lossy
    Stream size : 557 MiB (6%)
    Title : AC3 5.1 Bluray
    Language : Spanish
    Default : Yes
    Forced : No

    Audio #2
    ID : 3
    Format : DTS
    Format/Info : Digital Theater Systems
    Mode : 16
    Format settings, Endianness : Big
    Codec ID : A_DTS
    Duration : 2 h 1 min
    Bit rate mode : Constant
    Bit rate : 1 509 kb/s
    Channel(s) : 6 channels
    Channel positions : Front: L C R, Side: L R, LFE
    Sampling rate : 48.0 kHz
    Frame rate : 93.750 FPS (512 spf)
    Bit depth : 24 bits
    Compression mode : Lossy
    Stream size : 1.28 GiB (13%)
    Title : DTS
    Language : English
    Default : No
    Forced : No

    Audio #3
    ID : 4
    Format : AC-3
    Format/Info : Audio Coding 3
    Mode extension : CM (complete main)
    Format settings, Endianness : Big
    Codec ID : A_AC3
    Duration : 2 h 1 min
    Bit rate mode : Constant
    Bit rate : 640 kb/s
    Channel(s) : 6 channels
    Channel positions : Front: L C R, Side: L R, LFE
    Sampling rate : 48.0 kHz
    Frame rate : 31.250 FPS (1536 spf)
    Bit depth : 16 bits
    Compression mode : Lossy
    Stream size : 557 MiB (6%)
    Title : AC3 5.1
    Language : English
    Default : No
    Forced : No

    Text #1
    ID : 5
    Format : UTF-8
    Codec ID : S_TEXT/UTF8
    Codec ID/Info : UTF-8 Plain Text
    Duration : 1 h 44 min
    Bit rate : 2 b/s
    Count of elements : 51
    Stream size : 1.60 KiB (0%)
    Title : Subtitulos_Forzados
    Language : Spanish
    Default : Yes
    Forced : No

    Text #2
    ID : 6
    Format : UTF-8
    Codec ID : S_TEXT/UTF8
    Codec ID/Info : UTF-8 Plain Text
    Duration : 1 h 55 min
    Bit rate : 52 b/s
    Count of elements : 1400
    Stream size : 44.3 KiB (0%)
    Title : Subtitulos_Completos
    Language : Spanish
    Default : No
    Forced : No

    Menu
    00:00:00.000 : en:00:00:00.000
    00:04:13.545 : en:00:04:13.545
    00:12:32.919 : en:00:12:32.919
    00:23:43.005 : en:00:23:43.005
    00:36:03.161 : en:00:36:03.161
    00:51:11.652 : en:00:51:11.652
    00:59:16.595 : en:00:59:16.595
    01:01:42.908 : en:01:01:42.908
    01:07:42.517 : en:01:07:42.517
    01:13:25.234 : en:01:13:25.234
    01:20:02.256 : en:01:20:02.256
    01:24:37.364 : en:01:24:37.364
    01:31:25.271 : en:01:31:25.271
    01:35:42.111 : en:01:35:42.111
    01:40:51.128 : en:01:40:51.128
    01:52:27.908 : en:01:52:27.908







    Contraseña para extraer: www.club-hd.com

    Nota: Los archivos .rev no es necesario descargar al menos que algun .rar este dañado o que este eliminado







    Compra tu Membresía VIP y descarga a tu máxima velocidad por Mega

    Click Aquí para más información.

    ATENCIÓN! Finalmente tenemos TODO nuestro material disponible por Mega, enlaces 100% activos y online hoy









    Compra tu Membresía VIP y descarga a tu máxima velocidad por Mega

    Click Aquí para más información.

    ATENCIÓN! Finalmente tenemos TODO nuestro material disponible por Mega, enlaces 100% activos y online hoy









    1. Primero, deben estár si o si registrados, sino no habrá manera de que puedan ver los Enlaces.

    2. Una vez registrados, sólo deben dejar un simple comentario de Dos (2) letras/carácteres mínimo, o también pueden simplemente usar el logo de Descargando... -->

    Con eso ya podrán ver los links sin ningún problema.

    Nota: Usamos este sistema para proteger los links de Club-HD, y hasta la fecha funciona muy bien.






    1. Primero, deben estár si o si registrados, sino no habrá manera de que puedan ver los Enlaces.

    2. Una vez registrados, sólo deben dejar un simple comentario de Dos (2) letras/carácteres mínimo, o también pueden simplemente usar el logo de Descargando... -->

    Con eso ya podrán ver los links sin ningún problema.

    Nota: Usamos este sistema para proteger los links de Club-HD, y hasta la fecha funciona muy bien.

    Última edición por Revolver; 09/01/2017 a las 21:16


    Uploaded.net, el filehost recomendado por Club-HD. Si piensan comprar una cuenta premium, pueden hacerlo desde el siguiente banner, de esta manera se ganarían el privilegio de que les resubamos cualquier aporte perdido de Club-HD!






  2. Los siguientes 13 Usuarios dieron Me Gusta a HemoAr por este Post:

    Alanmed (22/01/2017),ARMAN777 (08/01/2017),armyfan (07/01/2017),b3rserk (09/01/2017),Chris2000 (11/01/2017),COFLA22 (04/02/2017),cripp (09/01/2017),flujo (03/02/2017),garmenta (08/01/2017),Leo (11/01/2017),Leo-Peru (13/01/2017),page777 (08/01/2017),particulas (09/01/2017)

Información de tema

Usuarios viendo este tema

Actualmente hay 1 usuarios viendo este tema. (0 miembros y 1 visitantes)

Temas similares

  1. Respuestas: 170
    Último mensaje: Ayer, 15:38
  2. Respuestas: 164
    Último mensaje: 18/02/2017, 10:49
  3. Respuestas: 92
    Último mensaje: 17/02/2017, 23:12
  4. Respuestas: 141
    Último mensaje: 05/02/2017, 08:37
  5. Respuestas: 147
    Último mensaje: 05/01/2017, 08:37

Members who have read this thread: 278

Marcadores

Permisos de publicación

  • No puedes crear nuevos temas
  • No puedes responder temas
  • No puedes subir archivos adjuntos
  • No puedes editar tus mensajes
  •