Resultados 1 al 25 de 165

Tema: The Girl on the Train (2016) 720p BDRip Dual Audio Latino-Inglés [Subt. Esp] (Thriller. Intriga)

Ver modo hilado

Mensaje anterior Mensaje anterior   Próximo mensaje Próximo mensaje
  1. #1
    Dohko de Libra

    Avatar de HemoAr
    Miembro de Club-HD N°
    9222
    Fecha de ingreso
    09 mar, 13
    Ubicación
    Rozan
    Edad
    33
    Mensajes
    8,019
    Última Actividad
    @
    Nacionalidad
    Mexico

    Sexo
    Hombre

    Poder de reputación
    211

    The Girl on the Train (2016) 720p BDRip Dual Audio Latino-Inglés [Subt. Esp] (Thriller. Intriga)







    Título original: The Girl on the Train
    Año: 2016
    Duración: 112 min.
    País: Estados Unidos
    Director: Tate Taylor
    Reparto: Emily Blunt, Rebecca Ferguson, Haley Bennett, Luke Evans, Edgar Ramirez, Justin Theroux, Allison Janney, Lisa Kudrow, Laura Prepon, Lana Young, Nicole Bonifacio, Marko Caka, Danielle M. Williamson, Alexander Jameson, Sidney Beitz
    Productora: DreamWorks Studios / Amblin Entertainment / Marc Platt Productions
    Género: Thriller. Intriga | Trenes/Metros. Alcoholismo. Drama psicológico. Thriller psicológico

    Sinopsis: Rachel (Emily Blunt) es una mujer devastada por su reciente divorcio que dedica cada mañana de camino a su trabajo a fantasear sobre la vida de una pareja aparentemente perfecta que vive en una casa por la que su tren pasa cada día. Pero una mañana Rachel es testigo desde la ventana del tren de un impactante suceso y se ve involucrada en el misterio que ella misma revela... Adaptación del best seller homónimo de Paula Hawkins.

























    Un gradecimiento muy especial a nuestro amigo Oraldo por brindarnos este audio Latino de excelente calidad.

    Descarga sólo el audio Latino de este aporte, aquí.





    General

    Format : Matroska
    Format version : Version 4 / Version 2
    File size : 5.28 GiB
    Duration : 1 h 52 min
    Overall bit rate : 6 749 kb/s
    Movie name : The Girl on the Train (2016) 720p BDRip Dual Audio Latino-Inglés
    Encoded date : UTC 2017-01-07 17:41:08
    Writing application : mkvmerge v9.3.1 ('Mask Machine') 32bit
    Writing library : libebml v1.3.4 + libmatroska v1.4.5

    Video
    ID : 1
    Format : AVC
    Format/Info : Advanced Video Codec
    Format profile : High@L4.1
    Format settings, CABAC : Yes
    Format settings, ReFrames : 5 frames
    Codec ID : V_MPEG4/ISO/AVC
    Duration : 1 h 52 min
    Bit rate : 5 470 kb/s
    Width : 1 280 pixels
    Height : 688 pixels
    Display aspect ratio : 1.85:1
    Frame rate mode : Constant
    Frame rate : 23.976 FPS
    Color space : YUV
    Chroma subsampling : 4:2:0
    Bit depth : 8 bits
    Scan type : Progressive
    Bits/(Pixel*Frame) : 0.259
    Stream size : 4.28 GiB (81%)
    Title : The Girl on the Train (2016) 720p BDRip Dual Audio Latino-Inglés
    Language : English
    Default : Yes
    Forced : No

    Audio #1
    ID : 2
    Format : AC-3
    Format/Info : Audio Coding 3
    Mode extension : CM (complete main)
    Format settings, Endianness : Big
    Codec ID : A_AC3
    Duration : 1 h 52 min
    Bit rate mode : Constant
    Bit rate : 640 kb/s
    Channel(s) : 6 channels
    Channel positions : Front: L C R, Side: L R, LFE
    Sampling rate : 48.0 kHz
    Frame rate : 31.250 FPS (1536 spf)
    Bit depth : 16 bits
    Compression mode : Lossy
    Stream size : 513 MiB (9%)
    Title : AC3 5.1 del DTS Bluray
    Language : Spanish
    Default : Yes
    Forced : No

    Audio #2
    ID : 3
    Format : AC-3
    Format/Info : Audio Coding 3
    Mode extension : CM (complete main)
    Format settings, Endianness : Big
    Codec ID : A_AC3
    Duration : 1 h 52 min
    Bit rate mode : Constant
    Bit rate : 640 kb/s
    Channel(s) : 6 channels
    Channel positions : Front: L C R, Side: L R, LFE
    Sampling rate : 48.0 kHz
    Frame rate : 31.250 FPS (1536 spf)
    Bit depth : 16 bits
    Compression mode : Lossy
    Stream size : 513 MiB (9%)
    Title : AC3 5.1
    Language : English
    Default : No
    Forced : No

    Text #1
    ID : 4
    Format : UTF-8
    Codec ID : S_TEXT/UTF8
    Codec ID/Info : UTF-8 Plain Text
    Duration : 1 h 15 min
    Bit rate : 0 b/s
    Count of elements : 10
    Stream size : 229 Bytes (0%)
    Title : Subtitulos_Forzados
    Language : Spanish
    Default : Yes
    Forced : No

    Text #2
    ID : 5
    Format : UTF-8
    Codec ID : S_TEXT/UTF8
    Codec ID/Info : UTF-8 Plain Text
    Duration : 1 h 44 min
    Bit rate : 43 b/s
    Count of elements : 1168
    Stream size : 33.6 KiB (0%)
    Title : Subtitulos_Completos
    Language : Spanish
    Default : No
    Forced : No

    Menu
    00:00:00.000 : en:00:00:00.000
    00:06:01.778 : en:00:06:01.778
    00:09:29.903 : en:00:09:29.903
    00:18:15.970 : en:00:18:15.970
    00:25:26.150 : en:00:25:26.150
    00:32:04.506 : en:00:32:04.506
    00:37:04.973 : en:00:37:04.973
    00:44:52.315 : en:00:44:52.315
    00:49:22.459 : en:00:49:22.459
    00:55:07.012 : en:00:55:07.012
    00:59:36.031 : en:00:59:36.031
    01:03:34.811 : en:01:03:34.811
    01:09:25.787 : en:01:09:25.787
    01:14:36.430 : en:01:14:36.430
    01:19:08.702 : en:01:19:08.702
    01:23:44.728 : en:01:23:44.728
    01:28:07.491 : en:01:28:07.491
    01:33:49.457 : en:01:33:49.457
    01:38:54.554 : en:01:38:54.554
    01:45:55.182 : en:01:45:55.182







    Contraseña para extraer: www.club-hd.com

    Nota: Los archivos .rev no es necesario descargar al menos que algun .rar este dañado o que este eliminado







    Compra tu Membresía VIP y descarga a tu máxima velocidad por Mega

    Click Aquí para más información.

    ATENCIÓN! Finalmente tenemos TODO nuestro material disponible por Mega, enlaces 100% activos y online hoy









    Compra tu Membresía VIP y descarga a tu máxima velocidad por Mega

    Click Aquí para más información.

    ATENCIÓN! Finalmente tenemos TODO nuestro material disponible por Mega, enlaces 100% activos y online hoy









    1. Primero, deben estár si o si registrados, sino no habrá manera de que puedan ver los Enlaces.

    2. Una vez registrados, sólo deben dejar un simple comentario de Dos (2) letras/carácteres mínimo, o también pueden simplemente usar el logo de Descargando... -->

    Con eso ya podrán ver los links sin ningún problema.

    Nota: Usamos este sistema para proteger los links de Club-HD, y hasta la fecha funciona muy bien.






    1. Primero, deben estár si o si registrados, sino no habrá manera de que puedan ver los Enlaces.

    2. Una vez registrados, sólo deben dejar un simple comentario de Dos (2) letras/carácteres mínimo, o también pueden simplemente usar el logo de Descargando... -->

    Con eso ya podrán ver los links sin ningún problema.

    Nota: Usamos este sistema para proteger los links de Club-HD, y hasta la fecha funciona muy bien.

    Última edición por Revolver; 09/01/2017 a las 21:07


    Uploaded.net, el filehost recomendado por Club-HD. Si piensan comprar una cuenta premium, pueden hacerlo desde el siguiente banner, de esta manera se ganarían el privilegio de que les resubamos cualquier aporte perdido de Club-HD!






  2. Los siguientes 15 Usuarios dieron Me Gusta a HemoAr por este Post:

    AdrianTJ (16/01/2017),carlos610 (12/01/2017),christian (12/02/2017),cripp (09/01/2017),flujo (03/02/2017),gafaman (10/01/2017),Jagger1979 (09/01/2017),jorgonz05 (08/01/2017),Leo (11/01/2017),mat-one (17/02/2017),Nosferatu (22/01/2017),parellanocl (07/01/2017),pp1012 (07/01/2017),r1verpl4te (08/01/2017),RedentorKane (25/01/2017)

Información de tema

Usuarios viendo este tema

Actualmente hay 1 usuarios viendo este tema. (0 miembros y 1 visitantes)

Temas similares

  1. Respuestas: 213
    Último mensaje: Ayer, 22:56
  2. Respuestas: 141
    Último mensaje: 05/02/2017, 08:37
  3. Respuestas: 183
    Último mensaje: 03/02/2017, 17:48
  4. Respuestas: 138
    Último mensaje: 24/01/2017, 18:58
  5. Respuestas: 249
    Último mensaje: 02/09/2016, 08:15

Members who have read this thread: 279

Marcadores

Permisos de publicación

  • No puedes crear nuevos temas
  • No puedes responder temas
  • No puedes subir archivos adjuntos
  • No puedes editar tus mensajes
  •