Resultados 1 al 25 de 137

Tema: Deepwater Horizon (2016) 1080p BDRip Dual Audio Latino-Inglés [Subt. Esp] (Acción. Drama)

Ver modo hilado

Mensaje anterior Mensaje anterior   Próximo mensaje Próximo mensaje
  1. #1
    Dohko de Libra

    Avatar de HemoAr
    Miembro de Club-HD N°
    9222
    Fecha de ingreso
    09 mar, 13
    Ubicación
    Rozan
    Edad
    33
    Mensajes
    7,932
    Última Actividad
    @
    Nacionalidad
    Mexico

    Sexo
    Hombre

    Poder de reputación
    203

    Cool Deepwater Horizon (2016) 1080p BDRip Dual Audio Latino-Inglés [Subt. Esp] (Acción. Drama)







    Título original: Deepwater Horizon
    Año: 2016
    Duración: 107 min.
    País: Estados Unidos
    Director: Peter Berg
    Reparto: Mark Wahlberg, Kurt Russell, Kate Hudson, John Malkovich, Dylan O'Brien, Gina Rodriguez, Ethan Suplee, Brad Leland, J.D. Evermore, Joe Chrest, Chris Ashworth, Jeremy Sande, Stella Allen, Michael D. Anglin, Ilan Srulovicz, Graham McGinnis, James DuMont, Douglas M. Griffin, David Maldonado
    Productora: Summit Entertainment / Participant Media / di Bonaventura Pictures
    Género: Acción. Drama | Basado en hechos reales. Catástrofes. Supervivencia

    Sinopsis: Basado en los eventos sucedidos en el Golfo de México en abril del 2010, cuando un accidente en un oleoducto causó una catástrofe que mató a 11 personas e hirió a otras 16, provocando además una de las catástrofes medioambientales más graves causadas por el hombre.
























    Descarga sólo el audio Latino de este aporte, aquí.





    General

    Format : Matroska
    Format version : Version 4 / Version 2
    File size : 8.12 GiB
    Duration : 1 h 47 min
    Overall bit rate : 10.8 Mb/s
    Movie name : Deepwater Horizon (2016) 1080p BDRip Dual Audio Latino-Inglés
    Encoded date : UTC 2017-01-03 15:17:36
    Writing application : mkvmerge v9.3.1 ('Mask Machine') 32bit
    Writing library : libebml v1.3.4 + libmatroska v1.4.5

    Video
    ID : 1
    Format : AVC
    Format/Info : Advanced Video Codec
    Format profile : High@L4.1
    Format settings, CABAC : Yes
    Format settings, ReFrames : 5 frames
    Codec ID : V_MPEG4/ISO/AVC
    Duration : 1 h 47 min
    Bit rate : 9 569 kb/s
    Width : 1 920 pixels
    Height : 800 pixels
    Display aspect ratio : 2.40:1
    Frame rate mode : Constant
    Frame rate : 23.976 FPS
    Color space : YUV
    Chroma subsampling : 4:2:0
    Bit depth : 8 bits
    Scan type : Progressive
    Bits/(Pixel*Frame) : 0.260
    Stream size : 7.16 GiB (88%)
    Title : Deepwater Horizon (2016) 1080p BDRip Dual Audio Latino-Inglés
    Language : English
    Default : Yes
    Forced : No

    Audio #1
    ID : 2
    Format : AC-3
    Format/Info : Audio Coding 3
    Mode extension : CM (complete main)
    Format settings, Endianness : Big
    Codec ID : A_AC3
    Duration : 1 h 47 min
    Bit rate mode : Constant
    Bit rate : 640 kb/s
    Channel(s) : 6 channels
    Channel positions : Front: L C R, Side: L R, LFE
    Sampling rate : 48.0 kHz
    Frame rate : 31.250 FPS (1536 spf)
    Bit depth : 16 bits
    Compression mode : Lossy
    Stream size : 491 MiB (6%)
    Title : AC3 5.1 Bluray
    Language : Spanish
    Default : Yes
    Forced : No

    Audio #2
    ID : 3
    Format : AC-3
    Format/Info : Audio Coding 3
    Mode extension : CM (complete main)
    Format settings, Endianness : Big
    Codec ID : A_AC3
    Duration : 1 h 47 min
    Bit rate mode : Constant
    Bit rate : 640 kb/s
    Channel(s) : 6 channels
    Channel positions : Front: L C R, Side: L R, LFE
    Sampling rate : 48.0 kHz
    Frame rate : 31.250 FPS (1536 spf)
    Bit depth : 16 bits
    Compression mode : Lossy
    Stream size : 491 MiB (6%)
    Title : AC3 5.1
    Language : English
    Default : No
    Forced : No

    Text #1
    ID : 4
    Format : UTF-8
    Codec ID : S_TEXT/UTF8
    Codec ID/Info : UTF-8 Plain Text
    Duration : 1 h 5 min
    Bit rate : 1 b/s
    Count of elements : 20
    Stream size : 590 Bytes (0%)
    Title : Subtitulos_Forzados
    Language : Spanish
    Default : Yes
    Forced : No

    Text #2
    ID : 5
    Format : UTF-8
    Codec ID : S_TEXT/UTF8
    Codec ID/Info : UTF-8 Plain Text
    Duration : 1 h 38 min
    Bit rate : 73 b/s
    Count of elements : 1665
    Stream size : 52.9 KiB (0%)
    Title : Subtitulos_Completos
    Language : Spanish
    Default : No
    Forced : No

    Menu
    00:00:00.000 : en:00:00:00.000
    00:07:01.212 : en:00:07:01.212
    00:12:32.627 : en:00:12:32.627
    00:19:34.465 : en:00:19:34.465
    00:27:17.219 : en:00:27:17.219
    00:34:52.632 : en:00:34:52.632
    00:44:29.834 : en:00:44:29.834
    00:48:04.924 : en:00:48:04.924
    00:53:47.599 : en:00:53:47.599
    00:58:05.148 : en:00:58:05.148
    01:05:44.607 : en:01:05:44.607
    01:10:06.869 : en:01:10:06.869
    01:16:02.933 : en:01:16:02.933
    01:20:44.381 : en:01:20:44.381
    01:27:37.669 : en:01:27:37.669
    01:31:37.826 : en:01:31:37.826






    Contraseña para extraer: www.club-hd.com

    Nota: Los archivos .rev no es necesario descargar al menos que algun .rar este dañado o que este eliminado







    Compra tu Membresía VIP y descarga a tu máxima velocidad por Mega

    Click Aquí para más información.

    ATENCIÓN! Finalmente tenemos TODO nuestro material disponible por Mega, enlaces 100% activos y online hoy









    Compra tu Membresía VIP y descarga a tu máxima velocidad por Mega

    Click Aquí para más información.

    ATENCIÓN! Finalmente tenemos TODO nuestro material disponible por Mega, enlaces 100% activos y online hoy









    1. Primero, deben estár si o si registrados, sino no habrá manera de que puedan ver los Enlaces.

    2. Una vez registrados, sólo deben dejar un simple comentario de Dos (2) letras/carácteres mínimo, o también pueden simplemente usar el logo de Descargando... -->

    Con eso ya podrán ver los links sin ningún problema.

    Nota: Usamos este sistema para proteger los links de Club-HD, y hasta la fecha funciona muy bien.






    1. Primero, deben estár si o si registrados, sino no habrá manera de que puedan ver los Enlaces.

    2. Una vez registrados, sólo deben dejar un simple comentario de Dos (2) letras/carácteres mínimo, o también pueden simplemente usar el logo de Descargando... -->

    Con eso ya podrán ver los links sin ningún problema.

    Nota: Usamos este sistema para proteger los links de Club-HD, y hasta la fecha funciona muy bien.

    Última edición por Revolver; 06/01/2017 a las 23:19


    Uploaded.net, el filehost recomendado por Club-HD. Si piensan comprar una cuenta premium, pueden hacerlo desde el siguiente banner, de esta manera se ganarían el privilegio de que les resubamos cualquier aporte perdido de Club-HD!






  2. Los siguientes 11 Usuarios dieron Me Gusta a HemoAr por este Post:

    ARMAN777 (08/01/2017),armyfan (04/01/2017),b3rserk (09/01/2017),Claudia (05/01/2017),cripp (09/01/2017),flujo (03/01/2017),Leo (03/01/2017),Leo-Peru (06/01/2017),Loco (03/01/2017),Marco (03/01/2017),particulas (09/01/2017)

Información de tema

Usuarios viendo este tema

Actualmente hay 1 usuarios viendo este tema. (0 miembros y 1 visitantes)

Temas similares

  1. Respuestas: 239
    Último mensaje: hoy, 16:54
  2. Respuestas: 121
    Último mensaje: Ayer, 19:48
  3. Respuestas: 165
    Último mensaje: 21/01/2017, 20:16
  4. Respuestas: 89
    Último mensaje: 06/01/2017, 23:16
  5. Respuestas: 49
    Último mensaje: 11/11/2016, 01:15

Members who have read this thread: 252

Marcadores

Permisos de publicación

  • No puedes crear nuevos temas
  • No puedes responder temas
  • No puedes subir archivos adjuntos
  • No puedes editar tus mensajes
  •