Resultados 1 al 25 de 131

Tema: Masterminds (2016) 1080p BDRip Dual Audio Latino-Inglés [Subt. Esp] (Comedia. Acción)

Ver modo hilado

Mensaje anterior Mensaje anterior   Próximo mensaje Próximo mensaje
  1. #1
    Dohko de Libra

    Avatar de HemoAr
    Fecha de ingreso
    09 mar, 13
    Ubicación
    Rozan
    Edad
    34
    Mensajes
    9,235
    Última Actividad
    @
    Nacionalidad
    Mexico

    Sexo
    Hombre

    Poder de reputación
    291

    Cool Masterminds (2016) 1080p BDRip Dual Audio Latino-Inglés [Subt. Esp] (Comedia. Acción)







    Título original: Masterminds
    Año: 2016
    Duración: 94 min.
    País: Estados Unidos
    Director: Jared Hess
    Reparto: Zach Galifianakis, Owen Wilson, Kristen Wiig, Jason Sudeikis, Devin Ratray, Ken Marino, Mary Elizabeth Ellis, Jon Daly, Kate McKinnon, Rhoda Griffis, Kevin J. O'Connor, Leslie Jones, Daniel Zacapa, Jill Jane Clements
    Productora: Relativity Media / Broadway Video / Michaels-Goldwyn
    Género: Comedia. Acción | Robos & Atracos. Basado en hechos reales. Años 90

    Sinopsis: La cinta se centra en un hombre atrapado en una monótona vida. Él conduce un vehículo blindado transportando millones de dólares a otras personas. Sólo tiene un atisbo de emoción: trabajar con su coqueta compañera Kelly Campbell (Kristen Wiig), quien pronto trastocará todos sus planes. Junto a un grupo de delincuentes de medio pelo liderados por Steve Chambers, planearán el robo de 17 millones de dólares. Con un equipo de inexpertos, los rastros que irán dejando serán más que evidentes por lo que sólo habrá una cosa más difícil que organizar el robo: escapar con el botín.

























    Un gradecimiento muy especial a nuestro amigo Biyick por brindarme el BD Mexicano.

    Descarga sólo el audio Latino de este aporte, aquí.





    General

    Format : Matroska
    Format version : Version 4 / Version 2
    File size : 6.87 GiB
    Duration : 1 h 34 min
    Overall bit rate : 10.4 Mb/s
    Movie name : Masterminds (2016) 1080p BDRip Dual Audio Latino-Inglés
    Encoded date : UTC 2016-12-26 14:13:17
    Writing application : mkvmerge v9.3.1 ('Mask Machine') 32bit
    Writing library : libebml v1.3.4 + libmatroska v1.4.5

    Video
    ID : 1
    Format : AVC
    Format/Info : Advanced Video Codec
    Format profile : High@L4.1
    Format settings, CABAC : Yes
    Format settings, ReFrames : 4 frames
    Codec ID : V_MPEG4/ISO/AVC
    Duration : 1 h 34 min
    Bit rate : 9 506 kb/s
    Nominal bit rate : 10 000 kb/s
    Width : 1 920 pixels
    Height : 1 080 pixels
    Display aspect ratio : 16:9
    Frame rate mode : Constant
    Frame rate : 23.976 (24000/1001) FPS
    Color space : YUV
    Chroma subsampling : 4:2:0
    Bit depth : 8 bits
    Scan type : Progressive
    Bits/(Pixel*Frame) : 0.191
    Stream size : 6.28 GiB (91%)
    Title : Masterminds (2016) 1080p BDRip Dual Audio Latino-Inglés
    Language : English
    Default : Yes
    Forced : No

    Audio #1
    ID : 2
    Format : AC-3
    Format/Info : Audio Coding 3
    Mode extension : CM (complete main)
    Format settings, Endianness : Big
    Codec ID : A_AC3
    Duration : 1 h 34 min
    Bit rate mode : Constant
    Bit rate : 448 kb/s
    Channel(s) : 6 channels
    Channel positions : Front: L C R, Side: L R, LFE
    Sampling rate : 48.0 kHz
    Frame rate : 31.250 FPS (1536 spf)
    Bit depth : 16 bits
    Compression mode : Lossy
    Delay relative to video : -83 ms
    Stream size : 303 MiB (4%)
    Title : AC3 5.1 Bluray
    Language : Spanish
    Default : Yes
    Forced : No

    Audio #2
    ID : 3
    Format : AC-3
    Format/Info : Audio Coding 3
    Mode extension : CM (complete main)
    Format settings, Endianness : Big
    Codec ID : A_AC3
    Duration : 1 h 34 min
    Bit rate mode : Constant
    Bit rate : 448 kb/s
    Channel(s) : 6 channels
    Channel positions : Front: L C R, Side: L R, LFE
    Sampling rate : 48.0 kHz
    Frame rate : 31.250 FPS (1536 spf)
    Bit depth : 16 bits
    Compression mode : Lossy
    Delay relative to video : -83 ms
    Stream size : 303 MiB (4%)
    Title : AC3 5.1
    Language : English
    Default : No
    Forced : No

    Text
    ID : 4
    Format : UTF-8
    Codec ID : S_TEXT/UTF8
    Codec ID/Info : UTF-8 Plain Text
    Duration : 1 h 26 min
    Bit rate : 70 b/s
    Count of elements : 1212
    Stream size : 44.6 KiB (0%)
    Title : Subtitulos_Completos
    Language : Spanish
    Default : No
    Forced : No

    Menu
    00:00:00.000 : :Chapter 1
    00:06:36.104 : :Chapter 2
    00:14:00.131 : :Chapter 3
    00:22:39.066 : :Chapter 4
    00:29:05.785 : :Chapter 5
    00:39:28.282 : :Chapter 6
    00:47:20.379 : :Chapter 7
    00:54:29.975 : :Chapter 8
    01:03:14.415 : :Chapter 9
    01:11:52.391 : :Chapter 10
    01:19:51.328 : :Chapter 11
    01:26:27.432 : :Chapter 12







    Contraseña para extraer: www.club-hd.com

    Nota: Los archivos .rev no es necesario descargar al menos que algun .rar este dañado o que este eliminado







    Compra tu Membresía VIP y apoya a Club-HD!

    Click Aquí para más información.

    ATENCIÓN! Finalmente tenemos TODO el material de Club-HD disponible por Mega, enlaces 100% activos y online hoy









    Compra tu Membresía VIP y apoya a Club-HD!

    Click Aquí para más información.

    ATENCIÓN! Finalmente tenemos TODO el material de Club-HD disponible por Mega, enlaces 100% activos y online hoy









    1. Primero, deben estár registrados, sino no habrá manera de que puedan ver los Enlaces.

    2. Una vez registrados, sólo deben dejar un simple comentario de Siete (7) letras/carácteres mínimo.

    Con eso ya podrán ver los links sin ningún problema.

    Nota: Usamos este sistema para proteger los links de Club-HD, y hasta la fecha funciona muy bien.






    1. Primero, deben estár registrados, sino no habrá manera de que puedan ver los Enlaces.

    2. Una vez registrados, sólo deben dejar un simple comentario de Siete (7) letras/carácteres mínimo.

    Con eso ya podrán ver los links sin ningún problema.

    Nota: Usamos este sistema para proteger los links de Club-HD, y hasta la fecha funciona muy bien.

    Última edición por Revolver; 26/12/2016 a las 19:18



    Uploaded.net, el filehost recomendado por Club-HD. Si piensan comprar una cuenta premium, pueden hacerlo desde el siguiente banner, de esta manera se ganarían el privilegio de que les resubamos cualquier aporte perdido de Club-HD!




  2. Los siguientes 9 Usuarios dieron Me Gusta a HemoAr por este Post:

    alesgdl (28/12/2016),ARMAN777 (27/12/2016),b3rserk (09/01/2017),cripp (05/01/2017),ERRE (26/12/2016),flujo (27/12/2016),Leo (29/12/2016),nelsedu (31/03/2017),resplandor (14/01/2017)

Información de tema

Usuarios viendo este tema

Actualmente hay 1 usuarios viendo este tema. (0 miembros y 1 visitantes)

Temas similares

  1. Respuestas: 246
    Último mensaje: 18/10/2017, 21:05
  2. Respuestas: 123
    Último mensaje: 15/08/2017, 21:54
  3. Respuestas: 132
    Último mensaje: 23/07/2017, 15:28
  4. Respuestas: 80
    Último mensaje: 31/03/2017, 04:38
  5. Respuestas: 108
    Último mensaje: 17/09/2016, 14:16

Miembros que han leído este tema: 8

Marcadores

Permisos de publicación

  • No puedes crear nuevos temas
  • No puedes responder temas
  • No puedes subir archivos adjuntos
  • No puedes editar tus mensajes
  •