Resultados 1 al 25 de 60

Tema: In a Valley of Violence (2016) 1080p BDRip Dual Audio Latino-Inglés [Subt. Esp] (Western)

Ver modo hilado

Mensaje anterior Mensaje anterior   Próximo mensaje Próximo mensaje
  1. #1
    Dohko de Libra

    Avatar de HemoAr
    Miembro de Club-HD N°
    9222
    Fecha de ingreso
    09 mar, 13
    Ubicación
    Rozan
    Edad
    33
    Mensajes
    8,224
    Última Actividad
    @
    Nacionalidad
    Mexico

    Sexo
    Hombre

    Poder de reputación
    227

    In a Valley of Violence (2016) 1080p BDRip Dual Audio Latino-Inglés [Subt. Esp] (Western)







    Título original: In a Valley of Violence
    Año: 2016
    Duración: 103 min.
    País: Estados Unidos
    Director: Ti West
    Reparto: Ethan Hawke, John Travolta, Taissa Farmiga, Karen Gillan, Burn Gorman, James Ransone, Toby Huss, Larry Fessenden
    Productora: Blumhouse Productions
    Género: Western | Venganza

    Sinopsis: Paul, un cowboy solitario siempre en compañía de su perro, llega a un pequeño pueblo en un intento por acortar su camino hacia México. Un acto de violencia desencadena una ola de violencia que arrastra a toda la ciudad en una batalla sangrienta.

























    Un gradecimiento muy especial a nuestro amigo Papelillio por brindarnos este audio Latino de excelente calidad.

    Descarga sólo el audio Latino de este aporte, aquí.





    General

    Format : Matroska
    Format version : Version 4 / Version 2
    File size : 9.13 GiB
    Duration : 1 h 43 min
    Overall bit rate : 12.6 Mb/s
    Movie name : In a Valley of Violence (2016) 1080p BDRip Dual Audio Latino-Inglés
    Encoded date : UTC 2016-12-26 05:12:24
    Writing application : mkvmerge v9.3.1 ('Mask Machine') 32bit
    Writing library : libebml v1.3.4 + libmatroska v1.4.5

    Video
    ID : 1
    Format : AVC
    Format/Info : Advanced Video Codec
    Format profile : High@L4.1
    Format settings, CABAC : Yes
    Format settings, ReFrames : 5 frames
    Codec ID : V_MPEG4/ISO/AVC
    Duration : 1 h 43 min
    Bit rate : 9 062 kb/s
    Width : 1 920 pixels
    Height : 808 pixels
    Display aspect ratio : 2.40:1
    Frame rate mode : Constant
    Frame rate : 23.976 FPS
    Color space : YUV
    Chroma subsampling : 4:2:0
    Bit depth : 8 bits
    Scan type : Progressive
    Bits/(Pixel*Frame) : 0.244
    Stream size : 6.55 GiB (72%)
    Title : In a Valley of Violence (2016) 1080p BDRip Dual Audio Latino-Inglés
    Language : English
    Default : Yes
    Forced : No

    Audio #1
    ID : 2
    Format : DTS
    Format/Info : Digital Theater Systems
    Mode : 16
    Format settings, Endianness : Big
    Codec ID : A_DTS
    Duration : 1 h 43 min
    Bit rate mode : Constant
    Bit rate : 768 kb/s
    Channel(s) : 6 channels
    Channel positions : Front: L C R, Side: L R, LFE
    Sampling rate : 48.0 kHz
    Frame rate : 93.750 FPS (512 spf)
    Bit depth : 24 bits
    Compression mode : Lossy
    Stream size : 569 MiB (6%)
    Title : DTS Bluray
    Language : Spanish
    Default : Yes
    Forced : No

    Audio #2
    ID : 3
    Format : AC-3
    Format/Info : Audio Coding 3
    Mode extension : CM (complete main)
    Format settings, Endianness : Big
    Codec ID : A_AC3
    Duration : 1 h 43 min
    Bit rate mode : Constant
    Bit rate : 640 kb/s
    Channel(s) : 6 channels
    Channel positions : Front: L C R, Side: L R, LFE
    Sampling rate : 48.0 kHz
    Frame rate : 31.250 FPS (1536 spf)
    Bit depth : 16 bits
    Compression mode : Lossy
    Stream size : 474 MiB (5%)
    Title : AC3 5.1 del DTS Bluray
    Language : Spanish
    Default : No
    Forced : No

    Audio #3
    ID : 4
    Format : DTS
    Format/Info : Digital Theater Systems
    Mode : 16
    Format settings, Endianness : Big
    Codec ID : A_DTS
    Duration : 1 h 43 min
    Bit rate mode : Constant
    Bit rate : 1 509 kb/s
    Channel(s) : 6 channels
    Channel positions : Front: L C R, Side: L R, LFE
    Sampling rate : 48.0 kHz
    Frame rate : 93.750 FPS (512 spf)
    Bit depth : 24 bits
    Compression mode : Lossy
    Stream size : 1.09 GiB (12%)
    Title : DTS
    Language : English
    Default : No
    Forced : No

    Audio #4
    ID : 5
    Format : AC-3
    Format/Info : Audio Coding 3
    Mode extension : CM (complete main)
    Format settings, Endianness : Big
    Codec ID : A_AC3
    Duration : 1 h 43 min
    Bit rate mode : Constant
    Bit rate : 640 kb/s
    Channel(s) : 6 channels
    Channel positions : Front: L C R, Side: L R, LFE
    Sampling rate : 48.0 kHz
    Frame rate : 31.250 FPS (1536 spf)
    Bit depth : 16 bits
    Compression mode : Lossy
    Stream size : 474 MiB (5%)
    Title : AC3 5.1
    Language : English
    Default : No
    Forced : No

    Text #1
    ID : 6
    Format : UTF-8
    Codec ID : S_TEXT/UTF8
    Codec ID/Info : UTF-8 Plain Text
    Duration : 22 s 856 ms
    Bit rate : 9 b/s
    Count of elements : 2
    Stream size : 27.0 Bytes (0%)
    Title : Subtitulos_Forzados
    Language : Spanish
    Default : Yes
    Forced : No

    Text #2
    ID : 7
    Format : UTF-8
    Codec ID : S_TEXT/UTF8
    Codec ID/Info : UTF-8 Plain Text
    Duration : 1 h 38 min
    Bit rate : 50 b/s
    Count of elements : 1219
    Stream size : 36.5 KiB (0%)
    Title : Subtitulos_Completos
    Language : Spanish
    Default : No
    Forced : No

    Menu
    00:00:00.000 : en:00:00:00.000
    00:08:12.033 : en:00:08:12.033
    00:12:10.605 : en:00:12:10.605
    00:18:04.375 : en:00:18:04.375
    00:23:38.626 : en:00:23:38.626
    00:26:42.476 : en:00:26:42.476
    00:31:03.278 : en:00:31:03.278
    00:36:37.821 : en:00:36:37.821
    00:41:27.485 : en:00:41:27.485
    00:50:31.987 : en:00:50:31.987
    00:56:27.050 : en:00:56:27.050
    01:01:45.535 : en:01:01:45.535
    01:05:32.262 : en:01:05:32.262
    01:08:18.136 : en:01:08:18.136
    01:12:24.423 : en:01:12:24.423
    01:16:22.745 : en:01:16:22.745
    01:20:23.027 : en:01:20:23.027
    01:25:15.527 : en:01:25:15.527
    01:33:04.412 : en:01:33:04.412
    01:39:17.577 : en:01:39:17.577







    Contraseña para extraer: www.club-hd.com

    Nota: Los archivos .rev no es necesario descargar al menos que algun .rar este dañado o que este eliminado







    Compra tu Membresía VIP y descarga a tu máxima velocidad por Mega

    Click Aquí para más información.

    ATENCIÓN! Finalmente tenemos TODO nuestro material disponible por Mega, enlaces 100% activos y online hoy









    Compra tu Membresía VIP y descarga a tu máxima velocidad por Mega

    Click Aquí para más información.

    ATENCIÓN! Finalmente tenemos TODO nuestro material disponible por Mega, enlaces 100% activos y online hoy









    1. Primero, deben estár si o si registrados, sino no habrá manera de que puedan ver los Enlaces.

    2. Una vez registrados, sólo deben dejar un simple comentario de Dos (2) letras/carácteres mínimo, o también pueden simplemente usar el logo de Descargando... -->

    Con eso ya podrán ver los links sin ningún problema.

    Nota: Usamos este sistema para proteger los links de Club-HD, y hasta la fecha funciona muy bien.






    1. Primero, deben estár si o si registrados, sino no habrá manera de que puedan ver los Enlaces.

    2. Una vez registrados, sólo deben dejar un simple comentario de Dos (2) letras/carácteres mínimo, o también pueden simplemente usar el logo de Descargando... -->

    Con eso ya podrán ver los links sin ningún problema.

    Nota: Usamos este sistema para proteger los links de Club-HD, y hasta la fecha funciona muy bien.

    Última edición por Revolver; 26/12/2016 a las 13:26


    Uploaded.net, el filehost recomendado por Club-HD. Si piensan comprar una cuenta premium, pueden hacerlo desde el siguiente banner, de esta manera se ganarían el privilegio de que les resubamos cualquier aporte perdido de Club-HD!






  2. Los siguientes 8 Usuarios dieron Me Gusta a HemoAr por este Post:

    ARMAN777 (27/12/2016),b3rserk (09/01/2017),cripp (05/01/2017),ERRE (26/12/2016),flujo (27/12/2016),Leo (29/12/2016),Leo-Peru (30/12/2016),nelsedu (30/03/2017)

Información de tema

Usuarios viendo este tema

Actualmente hay 1 usuarios viendo este tema. (0 miembros y 1 visitantes)

Temas similares

  1. Respuestas: 90
    Último mensaje: 15/04/2017, 21:16
  2. Respuestas: 104
    Último mensaje: 02/04/2017, 20:17
  3. Respuestas: 107
    Último mensaje: 31/03/2017, 00:15
  4. Respuestas: 202
    Último mensaje: 29/03/2017, 17:38
  5. In a Valley of Violence (2016) Sólo Audio Latino [AC3 2.0] [Webrip]
    Por MDCV1721 en el foro Solo Audios Latinos.
    Respuestas: 71
    Último mensaje: 26/02/2017, 13:02

Members who have read this thread: 152

Marcadores

Permisos de publicación

  • No puedes crear nuevos temas
  • No puedes responder temas
  • No puedes subir archivos adjuntos
  • No puedes editar tus mensajes
  •