Resultados 1 al 25 de 168

Tema: The Accountant (2016) 1080p BDRip Dual Audio Latino-Inglés [Subt. Esp] (Thriller. Drama)

Ver modo hilado

Mensaje anterior Mensaje anterior   Próximo mensaje Próximo mensaje
  1. #1
    Dohko de Libra

    Avatar de HemoAr
    Fecha de ingreso
    09 mar, 13
    Ubicación
    Rozan
    Edad
    34
    Mensajes
    9,235
    Última Actividad
    @
    Nacionalidad
    Mexico

    Sexo
    Hombre

    Poder de reputación
    291

    Cool The Accountant (2016) 1080p BDRip Dual Audio Latino-Inglés [Subt. Esp] (Thriller. Drama)







    Título original: The Accountant
    Año: 2016
    Duración: 128 min.
    País: Estados Unidos
    Director: Gavin O'Connor
    Reparto: Ben Affleck, Anna Kendrick, J.K. Simmons, Jon Bernthal, John Lithgow, Jeffrey Tambor, Cynthia Addai-Robinson, Fernando Chien, Seth Lee, Michael Beasley, David Anthony Buglione, Jason MacDonald, Ron Prather, Alex Collins, Johnny Giacalone, Nick Arapoglou
    Productora: WB / Electric City Entertainment / Zero Gravity Management
    Género: Thriller. Drama | Crimen

    Sinopsis: Christian Wolff (Ben Affleck) es un contable y genio matemático, un hombre extremadamente tranquilo, obsesivo con el orden y con mucha más afinidad con los números que con las personas, que lleva una doble vida como asesino despiadado.

























    Un gradecimiento muy especial a nuestro amigo Oraldo por brindarnos este audio Latino de excelente calidad.

    Descarga sólo el audio Latino de este aporte, aquí.





    General

    Format : Matroska
    Format version : Version 4 / Version 2
    File size : 11.0 GiB
    Duration : 2 h 7 min
    Overall bit rate : 12.3 Mb/s
    Movie name : The Accountant (2016) 1080p BDRip Dual Audio Latino-Inglés
    Encoded date : UTC 2016-12-24 20:50:05
    Writing application : mkvmerge v9.3.1 ('Mask Machine') 32bit
    Writing library : libebml v1.3.4 + libmatroska v1.4.5

    Video
    ID : 1
    Format : AVC
    Format/Info : Advanced Video Codec
    Format profile : High@L4.1
    Format settings, CABAC : Yes
    Format settings, ReFrames : 5 frames
    Codec ID : V_MPEG4/ISO/AVC
    Duration : 2 h 7 min
    Bit rate : 9 503 kb/s
    Width : 1 920 pixels
    Height : 800 pixels
    Display aspect ratio : 2.40:1
    Frame rate mode : Constant
    Frame rate : 23.976 FPS
    Color space : YUV
    Chroma subsampling : 4:2:0
    Bit depth : 8 bits
    Scan type : Progressive
    Bits/(Pixel*Frame) : 0.258
    Stream size : 8.49 GiB (77%)
    Title : The Accountant (2016) 1080p BDRip Dual Audio Latino-Inglés
    Language : English
    Default : Yes
    Forced : No

    Audio #1
    ID : 2
    Format : AC-3
    Format/Info : Audio Coding 3
    Mode extension : CM (complete main)
    Format settings, Endianness : Big
    Codec ID : A_AC3
    Duration : 2 h 7 min
    Bit rate mode : Constant
    Bit rate : 640 kb/s
    Channel(s) : 6 channels
    Channel positions : Front: L C R, Side: L R, LFE
    Sampling rate : 48.0 kHz
    Frame rate : 31.250 FPS (1536 spf)
    Bit depth : 16 bits
    Compression mode : Lossy
    Stream size : 585 MiB (5%)
    Title : AC3 5.1 Bluray
    Language : Spanish
    Default : Yes
    Forced : No

    Audio #2
    ID : 3
    Format : DTS
    Format/Info : Digital Theater Systems
    Mode : 16
    Format settings, Endianness : Big
    Codec ID : A_DTS
    Duration : 2 h 7 min
    Bit rate mode : Constant
    Bit rate : 1 509 kb/s
    Channel(s) : 6 channels
    Channel positions : Front: L C R, Side: L R, LFE
    Sampling rate : 48.0 kHz
    Frame rate : 93.750 FPS (512 spf)
    Bit depth : 24 bits
    Compression mode : Lossy
    Stream size : 1.35 GiB (12%)
    Title : DTS
    Language : English
    Default : No
    Forced : No

    Audio #3
    ID : 4
    Format : AC-3
    Format/Info : Audio Coding 3
    Mode extension : CM (complete main)
    Format settings, Endianness : Big
    Codec ID : A_AC3
    Duration : 2 h 7 min
    Bit rate mode : Constant
    Bit rate : 640 kb/s
    Channel(s) : 6 channels
    Channel positions : Front: L C R, Side: L R, LFE
    Sampling rate : 48.0 kHz
    Frame rate : 31.250 FPS (1536 spf)
    Bit depth : 16 bits
    Compression mode : Lossy
    Stream size : 585 MiB (5%)
    Title : AC3 5.1
    Language : English
    Default : No
    Forced : No

    Text #1
    ID : 5
    Format : UTF-8
    Codec ID : S_TEXT/UTF8
    Codec ID/Info : UTF-8 Plain Text
    Duration : 1 h 28 min
    Bit rate : 1 b/s
    Count of elements : 26
    Stream size : 865 Bytes (0%)
    Title : Subtitulos_Forzados
    Language : Spanish
    Default : Yes
    Forced : No

    Text #2
    ID : 6
    Format : UTF-8
    Codec ID : S_TEXT/UTF8
    Codec ID/Info : UTF-8 Plain Text
    Duration : 2 h 3 min
    Bit rate : 58 b/s
    Count of elements : 1542
    Stream size : 52.3 KiB (0%)
    Title : Subtitulos_Completos
    Language : Spanish
    Default : No
    Forced : No

    Menu
    00:00:00.000 : en:00:00:00.000
    00:13:01.447 : en:00:13:01.447
    00:20:36.277 : en:00:20:36.277
    00:29:30.394 : en:00:29:30.394
    00:38:44.656 : en:00:38:44.656
    00:49:33.679 : en:00:49:33.679
    01:00:05.435 : en:01:00:05.435
    01:13:39.707 : en:01:13:39.707
    01:25:57.069 : en:01:25:57.069
    01:39:15.658 : en:01:39:15.658
    01:54:31.156 : en:01:54:31.156
    02:01:40.251 : en:02:01:40.251







    Contraseña para extraer: www.club-hd.com

    Nota: Los archivos .rev no es necesario descargar al menos que algun .rar este dañado o que este eliminado







    Compra tu Membresía VIP y apoya a Club-HD!

    Click Aquí para más información.

    ATENCIÓN! Finalmente tenemos TODO el material de Club-HD disponible por Mega, enlaces 100% activos y online hoy









    Compra tu Membresía VIP y apoya a Club-HD!

    Click Aquí para más información.

    ATENCIÓN! Finalmente tenemos TODO el material de Club-HD disponible por Mega, enlaces 100% activos y online hoy









    1. Primero, deben estár registrados, sino no habrá manera de que puedan ver los Enlaces.

    2. Una vez registrados, sólo deben dejar un simple comentario de Siete (7) letras/carácteres mínimo.

    Con eso ya podrán ver los links sin ningún problema.

    Nota: Usamos este sistema para proteger los links de Club-HD, y hasta la fecha funciona muy bien.






    1. Primero, deben estár registrados, sino no habrá manera de que puedan ver los Enlaces.

    2. Una vez registrados, sólo deben dejar un simple comentario de Siete (7) letras/carácteres mínimo.

    Con eso ya podrán ver los links sin ningún problema.

    Nota: Usamos este sistema para proteger los links de Club-HD, y hasta la fecha funciona muy bien.

    Última edición por Revolver; 26/12/2016 a las 13:24



    Uploaded.net, el filehost recomendado por Club-HD. Si piensan comprar una cuenta premium, pueden hacerlo desde el siguiente banner, de esta manera se ganarían el privilegio de que les resubamos cualquier aporte perdido de Club-HD!




  2. Los siguientes 12 Usuarios dieron Me Gusta a HemoAr por este Post:

    alesgdl (26/12/2016),ARMAN777 (27/12/2016),b3rserk (09/01/2017),cripp (05/01/2017),ERRE (26/12/2016),flujo (27/12/2016),garmenta (26/12/2016),Leo (29/12/2016),Leo-Peru (28/12/2016),midala (26/12/2016),RICCI (31/12/2016),rockhowardsnk (27/12/2016)

Información de tema

Usuarios viendo este tema

Actualmente hay 1 usuarios viendo este tema. (0 miembros y 1 visitantes)

Temas similares

  1. Respuestas: 111
    Último mensaje: 01/11/2017, 15:53
  2. Respuestas: 186
    Último mensaje: 27/10/2017, 16:13
  3. Respuestas: 101
    Último mensaje: 12/10/2017, 20:02
  4. Respuestas: 350
    Último mensaje: 12/10/2017, 18:03
  5. Respuestas: 152
    Último mensaje: 02/04/2017, 17:28

Miembros que han leído este tema: 24

Marcadores

Permisos de publicación

  • No puedes crear nuevos temas
  • No puedes responder temas
  • No puedes subir archivos adjuntos
  • No puedes editar tus mensajes
  •