Resultados 1 al 25 de 57

Tema: The Birth of a Nation (2016) 1080p BDRip Dual Audio Latino-Inglés [Subt. Esp] (Drama)

Ver modo hilado

Mensaje anterior Mensaje anterior   Próximo mensaje Próximo mensaje
  1. #1
    Dohko de Libra

    Avatar de HemoAr
    Miembro de Club-HD N°
    9222
    Fecha de ingreso
    09 mar, 13
    Ubicación
    Rozan
    Edad
    33
    Mensajes
    8,149
    Última Actividad
    @
    Nacionalidad
    Mexico

    Sexo
    Hombre

    Poder de reputación
    221

    The Birth of a Nation (2016) 1080p BDRip Dual Audio Latino-Inglés [Subt. Esp] (Drama)







    Título original: The Birth of a Nation
    Año: 2016
    Duración: 119 min.
    País: Estados Unidos
    Director: Nate Parker
    Reparto: Nate Parker, Armie Hammer, Jackie Earle Haley, Gabrielle Union, Aja Naomi King, Penelope Ann Miller, Aunjanue Ellis, Mark Boone Junior, Colman Domingo, Roger Guenveur Smith, Griffin Freeman, Jeryl Prescott, Steve Coulter, Katie Garfield, Cullen Moss, Aiden Flowers
    Productora: Bron Studios / Mandalay Pictures / Phantom Four / Tiny Giant Productions
    Género: Drama | Esclavitud. Siglo XIX. Basado en hechos reales. Cine independiente USA

    Sinopsis: Narra la historia real de Nat Turner, predicador y ex esclavo, que tras presenciar innumerables atrocidades liderará en Virginia, en 1831, una rebelión contra la esclavitud.

























    Un gradecimiento muy especial a nuestro amigo Papelillio por brindarnos este audio Latino de excelente calidad.

    Descarga sólo el audio Latino de este aporte, aquí.





    General

    Format : Matroska
    Format version : Version 4 / Version 2
    File size : 10.7 GiB
    Duration : 1 h 59 min
    Overall bit rate : 12.8 Mb/s
    Movie name : The Birth of a Nation (2016) 1080p BDRip Dual Audio Latino-Inglés
    Encoded date : UTC 2016-12-24 17:29:10
    Writing application : mkvmerge v9.3.1 ('Mask Machine') 32bit
    Writing library : libebml v1.3.4 + libmatroska v1.4.5

    Video
    ID : 1
    Format : AVC
    Format/Info : Advanced Video Codec
    Format profile : High@L4.1
    Format settings, CABAC : Yes
    Format settings, ReFrames : 5 frames
    Codec ID : V_MPEG4/ISO/AVC
    Duration : 1 h 59 min
    Bit rate : 10.2 Mb/s
    Width : 1 920 pixels
    Height : 800 pixels
    Display aspect ratio : 2.40:1
    Frame rate mode : Constant
    Frame rate : 23.976 (24000/1001) FPS
    Color space : YUV
    Chroma subsampling : 4:2:0
    Bit depth : 8 bits
    Scan type : Progressive
    Bits/(Pixel*Frame) : 0.278
    Stream size : 8.57 GiB (80%)
    Title : The Birth of a Nation (2016) 1080p BDRip Dual Audio Latino-Inglés
    Language : English
    Default : Yes
    Forced : No

    Audio #1
    ID : 2
    Format : AC-3
    Format/Info : Audio Coding 3
    Mode extension : CM (complete main)
    Format settings, Endianness : Big
    Codec ID : A_AC3
    Duration : 1 h 59 min
    Bit rate mode : Constant
    Bit rate : 448 kb/s
    Channel(s) : 6 channels
    Channel positions : Front: L C R, Side: L R, LFE
    Sampling rate : 48.0 kHz
    Frame rate : 31.250 FPS (1536 spf)
    Bit depth : 16 bits
    Compression mode : Lossy
    Stream size : 384 MiB (3%)
    Title : AC3 5.1 Bluray
    Language : Spanish
    Default : Yes
    Forced : No

    Audio #2
    ID : 3
    Format : DTS
    Format/Info : Digital Theater Systems
    Mode : 16
    Format settings, Endianness : Big
    Codec ID : A_DTS
    Duration : 1 h 59 min
    Bit rate mode : Constant
    Bit rate : 1 509 kb/s
    Channel(s) : 6 channels
    Channel positions : Front: L C R, Side: L R, LFE
    Sampling rate : 48.0 kHz
    Frame rate : 93.750 FPS (512 spf)
    Bit depth : 24 bits
    Compression mode : Lossy
    Stream size : 1.26 GiB (12%)
    Title : DTS
    Language : English
    Default : No
    Forced : No

    Audio #3
    ID : 4
    Format : AC-3
    Format/Info : Audio Coding 3
    Mode extension : CM (complete main)
    Format settings, Endianness : Big
    Codec ID : A_AC3
    Duration : 1 h 59 min
    Bit rate mode : Constant
    Bit rate : 640 kb/s
    Channel(s) : 6 channels
    Channel positions : Front: L C R, Side: L R, LFE
    Sampling rate : 48.0 kHz
    Frame rate : 31.250 FPS (1536 spf)
    Bit depth : 16 bits
    Compression mode : Lossy
    Stream size : 549 MiB (5%)
    Title : AC3 5.1
    Language : English
    Default : No
    Forced : No

    Text #1
    ID : 5
    Format : UTF-8
    Codec ID : S_TEXT/UTF8
    Codec ID/Info : UTF-8 Plain Text
    Duration : 1 h 14 min
    Bit rate : 2 b/s
    Count of elements : 34
    Stream size : 1.20 KiB (0%)
    Title : Subtitulos_Forzados
    Language : Spanish
    Default : Yes
    Forced : No

    Text #2
    ID : 6
    Format : UTF-8
    Codec ID : S_TEXT/UTF8
    Codec ID/Info : UTF-8 Plain Text
    Duration : 1 h 50 min
    Bit rate : 38 b/s
    Count of elements : 1035
    Stream size : 31.0 KiB (0%)
    Title : Subtitulos_Completos
    Language : Spanish
    Default : No
    Forced : No

    Menu
    00:00:00.000 : en:00:00:00.000
    00:04:18.758 : en:00:04:18.758
    00:07:45.465 : en:00:07:45.465
    00:10:05.063 : en:00:10:05.063
    00:14:37.877 : en:00:14:37.877
    00:17:42.812 : en:00:17:42.812
    00:23:06.927 : en:00:23:06.927
    00:28:35.172 : en:00:28:35.172
    00:32:13.974 : en:00:32:13.974
    00:37:09.227 : en:00:37:09.227
    00:39:50.430 : en:00:39:50.430
    00:42:53.571 : en:00:42:53.571
    00:46:46.387 : en:00:46:46.387
    00:51:11.151 : en:00:51:11.151
    00:54:41.153 : en:00:54:41.153
    00:59:01.413 : en:00:59:01.413
    01:03:21.715 : en:01:03:21.715
    01:08:42.201 : en:01:08:42.201
    01:13:05.423 : en:01:13:05.423
    01:17:02.910 : en:01:17:02.910
    01:22:13.095 : en:01:22:13.095
    01:26:56.920 : en:01:26:56.920
    01:30:54.741 : en:01:30:54.741
    01:37:59.040 : en:01:37:59.040
    01:41:42.972 : en:01:41:42.972
    01:43:57.648 : en:01:43:57.648
    01:47:25.939 : en:01:47:25.939
    01:50:41.051 : en:01:50:41.051







    Contraseña para extraer: www.club-hd.com

    Nota: Los archivos .rev no es necesario descargar al menos que algun .rar este dañado o que este eliminado







    Compra tu Membresía VIP y descarga a tu máxima velocidad por Mega

    Click Aquí para más información.

    ATENCIÓN! Finalmente tenemos TODO nuestro material disponible por Mega, enlaces 100% activos y online hoy









    Compra tu Membresía VIP y descarga a tu máxima velocidad por Mega

    Click Aquí para más información.

    ATENCIÓN! Finalmente tenemos TODO nuestro material disponible por Mega, enlaces 100% activos y online hoy









    1. Primero, deben estár si o si registrados, sino no habrá manera de que puedan ver los Enlaces.

    2. Una vez registrados, sólo deben dejar un simple comentario de Dos (2) letras/carácteres mínimo, o también pueden simplemente usar el logo de Descargando... -->

    Con eso ya podrán ver los links sin ningún problema.

    Nota: Usamos este sistema para proteger los links de Club-HD, y hasta la fecha funciona muy bien.






    1. Primero, deben estár si o si registrados, sino no habrá manera de que puedan ver los Enlaces.

    2. Una vez registrados, sólo deben dejar un simple comentario de Dos (2) letras/carácteres mínimo, o también pueden simplemente usar el logo de Descargando... -->

    Con eso ya podrán ver los links sin ningún problema.

    Nota: Usamos este sistema para proteger los links de Club-HD, y hasta la fecha funciona muy bien.

    Última edición por Revolver; 25/12/2016 a las 12:20


    Uploaded.net, el filehost recomendado por Club-HD. Si piensan comprar una cuenta premium, pueden hacerlo desde el siguiente banner, de esta manera se ganarían el privilegio de que les resubamos cualquier aporte perdido de Club-HD!






  2. Los siguientes 7 Usuarios dieron Me Gusta a HemoAr por este Post:

    ARMAN777 (27/12/2016),b3rserk (09/01/2017),cripp (05/01/2017),ERRE (24/12/2016),flujo (25/12/2016),JUANADOLFO007 (24/12/2016),Leo (29/12/2016)

Información de tema

Usuarios viendo este tema

Actualmente hay 1 usuarios viendo este tema. (0 miembros y 1 visitantes)

Temas similares

  1. Respuestas: 41
    Último mensaje: Ayer, 05:20
  2. Respuestas: 59
    Último mensaje: 23/03/2017, 03:14
  3. Respuestas: 96
    Último mensaje: 22/02/2017, 09:44
  4. Respuestas: 36
    Último mensaje: 24/12/2016, 08:58
  5. Respuestas: 279
    Último mensaje: 24/10/2016, 20:21

Members who have read this thread: 176

Marcadores

Permisos de publicación

  • No puedes crear nuevos temas
  • No puedes responder temas
  • No puedes subir archivos adjuntos
  • No puedes editar tus mensajes
  •