Resultados 1 al 25 de 147

Tema: Jason Bourne (2016) 1080p WEB-DL Inglés [Subt. Esp] (Thriller. Acción)

Ver modo hilado

Mensaje anterior Mensaje anterior   Próximo mensaje Próximo mensaje
  1. #1
    Dohko de Libra

    Avatar de HemoAr
    Miembro de Club-HD N°
    9222
    Fecha de ingreso
    09 mar, 13
    Ubicación
    Rozan
    Edad
    33
    Mensajes
    8,149
    Última Actividad
    @
    Nacionalidad
    Mexico

    Sexo
    Hombre

    Poder de reputación
    221

    Cool Jason Bourne (2016) 1080p WEB-DL Inglés [Subt. Esp] (Thriller. Acción)







    Título original: Jason Bourne
    Año: 2016
    Duración: 123 min
    País: Estados Unidos
    Director: Paul Greengrass
    Reparto: Matt Damon, Alicia Vikander, Julia Stiles, Tommy Lee Jones, Vincent Cassel, Ato Essandoh, Riz Ahmed, Scott Shepherd, Bill Camp, Vinzenz Kiefer, Stephen Kunken, Ben Stylianou, Kaya Yuzuki, Matthew O'Neill, Lizzie Phillips, Paris Stangl
    Productora: Universal Pictures / The Kennedy/Marshall Company / Captivate Entertainment
    Género: Thriller. Acción | Secuela

    Sinopsis: Jason Bourne ha recuperado su memoria, pero eso no significa que el más letal agente de los cuerpos de élite de la CIA lo sepa todo. Han pasado doce años desde la última vez que Bourne estuviera operando en las sombras. ¿Qué ha ocurrido desde entonces? Todavía le quedan muchas preguntas por responder. En medio de un mundo convulso, azotado por la crisis económica y el colapso financiero, la guerra cibernética, y en el que varias organizaciones secretas luchan por el poder, Jason Bourne vuelve a surgir, de forma inesperada, en un momento en que el mundo se enfrenta a una inestabilidad sin precedentes. Desde un lugar oscuro y torturado, Bourne reanudará la búsqueda de respuestas sobre su pasado.


























    General

    Format : Matroska
    Format version : Version 4 / Version 2
    File size : 4.28 GiB
    Duration : 2h 3mn
    Overall bit rate : 4 971 Kbps
    Movie name : Jason Bourne (2016) 1080p WEB-DL Inglés [Subt. Esp]
    Encoded date : UTC 2016-11-07 17:47:33
    Writing application : mkvmerge v7.1.0 ('Good Love') 64bit built on Jul 27 2014 13:06:55
    Writing library : libebml v1.3.0 + libmatroska v1.4.1

    Video
    ID : 1
    Format : AVC
    Format/Info : Advanced Video Codec
    Format profile : High@L4.0
    Format settings, CABAC : Yes
    Format settings, ReFrames : 5 frames
    Codec ID : V_MPEG4/ISO/AVC
    Duration : 2h 3mn
    Bit rate : 4 488 Kbps
    Width : 1 916 pixels
    Height : 798 pixels
    Display aspect ratio : 2.40:1
    Frame rate mode : Constant
    Frame rate : 23.976 fps
    Color space : YUV
    Chroma subsampling : 4:2:0
    Bit depth : 8 bits
    Scan type : Progressive
    Bits/(Pixel*Frame) : 0.122
    Stream size : 3.86 GiB (90%)
    Title : Jason Bourne (2016) 1080p WEB-DL Inglés [Subt. Esp]
    Language : English
    Default : Yes
    Forced : No

    Audio #1
    ID : 2
    Format : AC-3
    Format/Info : Audio Coding 3
    Mode extension : CM (complete main)
    Format settings, Endianness : Big
    Codec ID : A_AC3
    Duration : 2h 3mn
    Bit rate mode : Constant
    Bit rate : 384 Kbps
    Channel(s) : 6 channels
    Channel positions : Front: L C R, Side: L R, LFE
    Sampling rate : 48.0 KHz
    Bit depth : 16 bits
    Compression mode : Lossy
    Stream size : 338 MiB (8%)
    Title : AC3 5.1
    Language : English
    Default : Yes
    Forced : No

    Text
    ID : 3
    Format : UTF-8
    Codec ID : S_TEXT/UTF8
    Codec ID/Info : UTF-8 Plain Text
    Title : Subtitulos_Completos
    Language : Spanish
    Default : Yes
    Forced : Yes

    Menu
    00:00:00.000 : en:1
    00:04:06.000 : en:2
    00:08:23.000 : en:3
    00:13:34.000 : en:4
    00:18:30.000 : en:5
    00:24:09.000 : en:6
    00:29:20.000 : en:7
    00:36:17.000 : en:8
    00:42:22.000 : en:9
    00:48:24.000 : en:10
    00:55:14.000 : en:11
    01:01:11.000 : en:12
    01:08:29.000 : en:13
    01:16:25.000 : en:14
    01:24:47.000 : en:15
    01:29:08.000 : en:16
    01:37:54.000 : en:17
    01:44:28.000 : en:18
    01:48:05.000 : en:19
    01:54:03.000 : en:20







    Contraseña para extraer: www.club-hd.com

    Nota: Los archivos .rev no es necesario descargar al menos que algun .rar este dañado o que este eliminado







    Compra tu Membresía VIP y descarga a tu máxima velocidad por Mega

    Click Aquí para más información.

    ATENCIÓN! Finalmente tenemos TODO nuestro material disponible por Mega, enlaces 100% activos y online hoy









    Compra tu Membresía VIP y descarga a tu máxima velocidad por Mega

    Click Aquí para más información.

    ATENCIÓN! Finalmente tenemos TODO nuestro material disponible por Mega, enlaces 100% activos y online hoy









    1. Primero, deben estár si o si registrados, sino no habrá manera de que puedan ver los Enlaces.

    2. Una vez registrados, sólo deben dejar un simple comentario de Dos (2) letras/carácteres mínimo, o también pueden simplemente usar el logo de Descargando... -->

    Con eso ya podrán ver los links sin ningún problema.

    Nota: Usamos este sistema para proteger los links de Club-HD, y hasta la fecha funciona muy bien.






    1. Primero, deben estár si o si registrados, sino no habrá manera de que puedan ver los Enlaces.

    2. Una vez registrados, sólo deben dejar un simple comentario de Dos (2) letras/carácteres mínimo, o también pueden simplemente usar el logo de Descargando... -->

    Con eso ya podrán ver los links sin ningún problema.

    Nota: Usamos este sistema para proteger los links de Club-HD, y hasta la fecha funciona muy bien.

    Última edición por Revolver; 07/11/2016 a las 19:59


    Uploaded.net, el filehost recomendado por Club-HD. Si piensan comprar una cuenta premium, pueden hacerlo desde el siguiente banner, de esta manera se ganarían el privilegio de que les resubamos cualquier aporte perdido de Club-HD!






  2. Los siguientes 12 Usuarios dieron Me Gusta a HemoAr por este Post:

    agsguar (08/11/2016),christian (08/11/2016),cripp (08/11/2016),Dynky (08/11/2016),flujo (16/11/2016),garmenta (07/11/2016),jorgonz05 (08/11/2016),Leo (08/11/2016),Nosferatu (12/11/2016),parellanocl (07/11/2016),pp1012 (13/11/2016),protoo (08/11/2016)

Información de tema

Usuarios viendo este tema

Actualmente hay 1 usuarios viendo este tema. (0 miembros y 1 visitantes)

Temas similares

  1. Respuestas: 577
    Último mensaje: 10/03/2017, 00:30
  2. Respuestas: 66
    Último mensaje: 22/12/2016, 08:35
  3. Respuestas: 758
    Último mensaje: 10/11/2016, 02:59
  4. Jason Bourne (2016) Sólo Audio Latino [AC3 2.0] [MICROFONO EN CINE]
    Por MDCV1721 en el foro Solo Audios Latinos.
    Respuestas: 59
    Último mensaje: 08/11/2016, 16:29
  5. Jason Bourne – Tráiler Oficial #1 [Subtitulado]
    Por Joker en el foro Trailers de Películas de los próximos estrenos!
    Respuestas: 1
    Último mensaje: 22/04/2016, 11:41

Members who have read this thread: 303

Marcadores

Permisos de publicación

  • No puedes crear nuevos temas
  • No puedes responder temas
  • No puedes subir archivos adjuntos
  • No puedes editar tus mensajes
  •