Resultados 1 al 25 de 137

Tema: The Whole Truth (2016) 1080p WEB-DL Inglés [Subt. Esp] (Drama. Thriller)

Ver modo hilado

Mensaje anterior Mensaje anterior   Próximo mensaje Próximo mensaje
  1. #1
    Dohko de Libra

    Avatar de HemoAr
    Fecha de ingreso
    09 mar, 13
    Ubicación
    Rozan
    Edad
    34
    Mensajes
    9,235
    Última Actividad
    @
    Nacionalidad
    Mexico

    Sexo
    Hombre

    Poder de reputación
    291

    The Whole Truth (2016) 1080p WEB-DL Inglés [Subt. Esp] (Drama. Thriller)







    Título original: The Whole Truth
    Año: 2016
    Duración: 93 min.
    País: Estados Unidos
    Director: Courtney Hunt
    Reparto: Keanu Reeves, Renée Zellweger, Gugu Mbatha-Raw, James Belushi, Jodi Lyn Brockton, Kenneth Choi, Gabriel Basso, Patrick Kearns, Christopher Berry, Erica McDermott, Jackie Tuttle, Lara Grice
    Productora: PalmStar Media
    Género: Drama. Thriller | Cine independiente USA

    Sinopsis: El abogado Richard Ramsey (Keanu Reeves) trabaja en un caso difícil. Debe defender a un joven de 17 años de edad, quien es sospechoso de asesinar a su padre millonario. Ramsey reclutará a Janelle, una joven abogada, para que le ayude en su labor, pues está decidido a descubrir la verdad sobre lo que pasó ese día.


























    General

    Format : Matroska
    Format version : Version 4 / Version 2
    File size : 3.24 GiB
    Duration : 1h 33mn
    Overall bit rate : 4 964 Kbps
    Movie name : The Whole Truth (2016) 1080p WEB-DL Inglés
    Encoded date : UTC 2016-11-04 15:28:12
    Writing application : mkvmerge v7.1.0 ('Good Love') 64bit built on Jul 27 2014 13:06:55
    Writing library : libebml v1.3.0 + libmatroska v1.4.1

    Video
    ID : 1
    Format : AVC
    Format/Info : Advanced Video Codec
    Format profile : High@L4.0
    Format settings, CABAC : Yes
    Format settings, ReFrames : 5 frames
    Codec ID : V_MPEG4/ISO/AVC
    Duration : 1h 33mn
    Bit rate : 4 481 Kbps
    Width : 1 912 pixels
    Height : 796 pixels
    Display aspect ratio : 2.40:1
    Frame rate mode : Constant
    Frame rate : 23.976 fps
    Color space : YUV
    Chroma subsampling : 4:2:0
    Bit depth : 8 bits
    Scan type : Progressive
    Bits/(Pixel*Frame) : 0.123
    Stream size : 2.92 GiB (90%)
    Title : The Whole Truth (2016) 1080p WEB-DL Inglés
    Language : English
    Default : Yes
    Forced : No

    Audio #1
    ID : 2
    Format : AC-3
    Format/Info : Audio Coding 3
    Mode extension : CM (complete main)
    Format settings, Endianness : Big
    Codec ID : A_AC3
    Duration : 1h 33mn
    Bit rate mode : Constant
    Bit rate : 384 Kbps
    Channel(s) : 6 channels
    Channel positions : Front: L C R, Side: L R, LFE
    Sampling rate : 48.0 KHz
    Bit depth : 16 bits
    Compression mode : Lossy
    Stream size : 256 MiB (8%)
    Title : AC3 5.1
    Language : English
    Default : Yes
    Forced : No

    Text
    ID : 3
    Format : UTF-8
    Codec ID : S_TEXT/UTF8
    Codec ID/Info : UTF-8 Plain Text
    Title : Subtitulos_Completos
    Language : Spanish
    Default : Yes
    Forced : No

    Menu
    00:00:00.000 : en:1
    00:07:48.000 : en:2
    00:17:50.000 : en:3
    00:25:46.000 : en:4
    00:37:29.000 : en:5
    00:47:13.000 : en:6
    01:01:25.000 : en:7
    01:12:59.000 : en:8
    01:20:56.000 : en:9
    01:28:12.000 : en:10







    Contraseña para extraer: www.club-hd.com

    Nota: Los archivos .rev no es necesario descargar al menos que algun .rar este dañado o que este eliminado







    Compra tu Membresía VIP y apoya a Club-HD!

    Click Aquí para más información.

    ATENCIÓN! Finalmente tenemos TODO el material de Club-HD disponible por Mega, enlaces 100% activos y online hoy









    Compra tu Membresía VIP y apoya a Club-HD!

    Click Aquí para más información.

    ATENCIÓN! Finalmente tenemos TODO el material de Club-HD disponible por Mega, enlaces 100% activos y online hoy









    1. Primero, deben estár registrados, sino no habrá manera de que puedan ver los Enlaces.

    2. Una vez registrados, sólo deben dejar un simple comentario de Siete (7) letras/carácteres mínimo.

    Con eso ya podrán ver los links sin ningún problema.

    Nota: Usamos este sistema para proteger los links de Club-HD, y hasta la fecha funciona muy bien.






    1. Primero, deben estár registrados, sino no habrá manera de que puedan ver los Enlaces.

    2. Una vez registrados, sólo deben dejar un simple comentario de Siete (7) letras/carácteres mínimo.

    Con eso ya podrán ver los links sin ningún problema.

    Nota: Usamos este sistema para proteger los links de Club-HD, y hasta la fecha funciona muy bien.

    Última edición por Revolver; 04/11/2016 a las 15:53



    Uploaded.net, el filehost recomendado por Club-HD. Si piensan comprar una cuenta premium, pueden hacerlo desde el siguiente banner, de esta manera se ganarían el privilegio de que les resubamos cualquier aporte perdido de Club-HD!




  2. Los siguientes 13 Usuarios dieron Me Gusta a HemoAr por este Post:

    antzelmo (22/12/2016),caspercito (13/11/2016),christian (04/11/2016),cripp (04/11/2016),DavePR (09/11/2016),Dynky (10/11/2016),flujo (06/11/2016),garmenta (05/11/2016),Leo (07/11/2016),necro329 (01/01/2017),Nosferatu (12/11/2016),pp1012 (13/11/2016),rockhowardsnk (04/11/2016)

Información de tema

Usuarios viendo este tema

Actualmente hay 1 usuarios viendo este tema. (0 miembros y 1 visitantes)

Temas similares

  1. Truth (2015) Sólo Audio Latino [AC3 2.0] [Extraído del DVD]
    Por blasphemous en el foro Solo Audios Latinos.
    Respuestas: 41
    Último mensaje: 19/06/2017, 22:08
  2. 31 (2016) 1080p WEB-DL Inglés [Subt. Esp] (Terror. Thriller)
    Por HemoAr en el foro Películas en 1080p
    Respuestas: 85
    Último mensaje: 07/04/2017, 22:55
  3. Respuestas: 152
    Último mensaje: 02/04/2017, 17:28
  4. Respuestas: 102
    Último mensaje: 20/02/2017, 20:15
  5. Urge (2016) 1080p WEB-DL Inglés [Subt. Esp] (Thriller)
    Por HemoAr en el foro Películas en 1080p
    Respuestas: 71
    Último mensaje: 20/08/2016, 00:27

Miembros que han leído este tema: 7

Marcadores

Permisos de publicación

  • No puedes crear nuevos temas
  • No puedes responder temas
  • No puedes subir archivos adjuntos
  • No puedes editar tus mensajes
  •