Resultados 1 al 25 de 140

Tema: Hands of Stone (2016) 720p BDRip Inglés [Subt. Esp] (Drama. Acción)

Ver modo hilado

Mensaje anterior Mensaje anterior   Próximo mensaje Próximo mensaje
  1. #1
    Dohko de Libra

    Avatar de HemoAr
    Fecha de ingreso
    09 mar, 13
    Ubicación
    Rozan
    Edad
    34
    Mensajes
    9,235
    Última Actividad
    @
    Nacionalidad
    Mexico

    Sexo
    Hombre

    Poder de reputación
    291

    Hands of Stone (2016) 720p BDRip Inglés [Subt. Esp] (Drama. Acción)







    Título original: Hands of Stone
    Año: 2016
    Duración: 105 min.
    País: Estados Unidos
    Director: Jonathan Jakubowicz
    Reparto: Édgar Ramírez, Robert De Niro, Usher Raymond, Ana de Armas, Rubén Blades, John Turturro, Jurnee Smollett-Bell, Ellen Barkin, Drena De Niro, Carlos Bardem, Reg E. Cathey, Yancey Arias, Oscar Jaenada, Ilza Rosario, Janelle Davidson, Robb Skyler
    Productora: Coproducción USA-Panamá; The Weinstein Company / Witch's Rock Entertainment / La Piedra Films / Panama Cinema / Malandro Media
    Género: Drama. Acción | Biográfico. Deporte. Boxeo

    Sinopsis: Biopic sobre el boxeador panameño Roberto "Manos de Piedra" Durán, quien es mundialmente reconocido como el mejor peso ligero de todos los tiempos, y también catalogado por muchos como uno de los más grandes boxeadores latinoamericanos y uno de los mejores libra por libra de la historia del boxeo.


























    General

    Format : Matroska
    Format version : Version 4 / Version 2
    File size : 4.79 GiB
    Duration : 1h 51mn
    Overall bit rate : 6 171 Kbps
    Movie name : Hands of Stone (2016) 720p BDRip Inglés [Subt. Esp]
    Encoded date : UTC 2016-11-04 00:50:30
    Writing application : mkvmerge v7.1.0 ('Good Love') 64bit built on Jul 27 2014 13:06:55
    Writing library : libebml v1.3.0 + libmatroska v1.4.1

    Video
    ID : 1
    Format : AVC
    Format/Info : Advanced Video Codec
    Format profile : High@L4.1
    Format settings, CABAC : Yes
    Format settings, ReFrames : 5 frames
    Codec ID : V_MPEG4/ISO/AVC
    Duration : 1h 51mn
    Bit rate : 5 529 Kbps
    Width : 1 280 pixels
    Height : 536 pixels
    Display aspect ratio : 2.40:1
    Frame rate mode : Constant
    Frame rate : 23.976 fps
    Color space : YUV
    Chroma subsampling : 4:2:0
    Bit depth : 8 bits
    Scan type : Progressive
    Bits/(Pixel*Frame) : 0.336
    Stream size : 4.20 GiB (88%)
    Title : Hands of Stone (2016) 720p BDRip Inglés [Subt. Esp]
    Language : English
    Default : Yes
    Forced : No

    Audio #1
    ID : 2
    Format : AC-3
    Format/Info : Audio Coding 3
    Mode extension : CM (complete main)
    Format settings, Endianness : Big
    Codec ID : A_AC3
    Duration : 1h 51mn
    Bit rate mode : Constant
    Bit rate : 640 Kbps
    Channel(s) : 6 channels
    Channel positions : Front: L C R, Side: L R, LFE
    Sampling rate : 48.0 KHz
    Bit depth : 16 bits
    Compression mode : Lossy
    Stream size : 509 MiB (10%)
    Title : AC3 5.1
    Language : English
    Default : Yes
    Forced : No

    Text
    ID : 3
    Format : UTF-8
    Codec ID : S_TEXT/UTF8
    Codec ID/Info : UTF-8 Plain Text
    Title : Subtitulos_Completos
    Language : Spanish
    Default : Yes
    Forced : No

    Menu
    00:00:00.000 : en:00:00:00.000
    00:05:23.073 : en:00:05:23.073
    00:12:31.668 : en:00:12:31.668
    00:19:06.896 : en:00:19:06.896
    00:26:24.958 : en:00:26:24.958
    00:33:53.823 : en:00:33:53.823
    00:40:00.273 : en:00:40:00.273
    00:46:04.095 : en:00:46:04.095
    00:53:55.774 : en:00:53:55.774
    01:00:27.749 : en:01:00:27.749
    01:08:30.315 : en:01:08:30.315
    01:15:10.047 : en:01:15:10.047
    01:23:40.724 : en:01:23:40.724
    01:31:02.248 : en:01:31:02.248
    01:36:13.559 : en:01:36:13.559
    01:43:20.152 : en:01:43:20.152







    Contraseña para extraer: www.club-hd.com

    Nota: Los archivos .rev no es necesario descargar al menos que algun .rar este dañado o que este eliminado







    Compra tu Membresía VIP y apoya a Club-HD!

    Click Aquí para más información.

    ATENCIÓN! Finalmente tenemos TODO el material de Club-HD disponible por Mega, enlaces 100% activos y online hoy









    Compra tu Membresía VIP y apoya a Club-HD!

    Click Aquí para más información.

    ATENCIÓN! Finalmente tenemos TODO el material de Club-HD disponible por Mega, enlaces 100% activos y online hoy









    1. Primero, deben estár registrados, sino no habrá manera de que puedan ver los Enlaces.

    2. Una vez registrados, sólo deben dejar un simple comentario de Siete (7) letras/carácteres mínimo.

    Con eso ya podrán ver los links sin ningún problema.

    Nota: Usamos este sistema para proteger los links de Club-HD, y hasta la fecha funciona muy bien.






    1. Primero, deben estár registrados, sino no habrá manera de que puedan ver los Enlaces.

    2. Una vez registrados, sólo deben dejar un simple comentario de Siete (7) letras/carácteres mínimo.

    Con eso ya podrán ver los links sin ningún problema.

    Nota: Usamos este sistema para proteger los links de Club-HD, y hasta la fecha funciona muy bien.

    Última edición por Revolver; 04/11/2016 a las 01:48



    Uploaded.net, el filehost recomendado por Club-HD. Si piensan comprar una cuenta premium, pueden hacerlo desde el siguiente banner, de esta manera se ganarían el privilegio de que les resubamos cualquier aporte perdido de Club-HD!




  2. Los siguientes 10 Usuarios dieron Me Gusta a HemoAr por este Post:

    ARMAN777 (18/11/2016),caspercito (13/11/2016),christian (04/11/2016),cripp (04/11/2016),DavePR (09/11/2016),flujo (04/11/2016),Leo (07/11/2016),mat-one (17/11/2016),pp1012 (13/11/2016),rockhowardsnk (04/11/2016)

Información de tema

Usuarios viendo este tema

Actualmente hay 1 usuarios viendo este tema. (0 miembros y 1 visitantes)

Temas similares

  1. Respuestas: 550
    Último mensaje: 22/11/2017, 13:47
  2. Respuestas: 158
    Último mensaje: 09/09/2017, 00:32
  3. Respuestas: 79
    Último mensaje: 06/08/2017, 00:44
  4. Respuestas: 132
    Último mensaje: 16/06/2017, 20:33
  5. Respuestas: 146
    Último mensaje: 10/09/2016, 16:14

Miembros que han leído este tema: 8

Marcadores

Permisos de publicación

  • No puedes crear nuevos temas
  • No puedes responder temas
  • No puedes subir archivos adjuntos
  • No puedes editar tus mensajes
  •