Página 1 de 2 12 ÚltimoÚltimo
Resultados 1 al 25 de 27

Tema: 2012 (2009) Solo Audio Latino [AC3 5.1][448 Kbps][Extraído del Blu-ray]

  1. #1
    Colaborador de Club-HD
    Avatar de crack20
    Miembro de Club-HD N°
    23613
    Fecha de ingreso
    01 jul, 15
    Edad
    24
    Mensajes
    454
    Última Actividad
    15/04/2017 @ 23:05
    Nacionalidad
    Panama

    Sexo
    Hombre

    Poder de reputación
    6

    2012 (2009) Solo Audio Latino [AC3 5.1][448 Kbps][Extraído del Blu-ray]



    SINOPSIS
    En el calendario de los mayas aparece señalado el año 2012 como la fecha en la que se producirá el fin del mundo, que irá acompañado de diversas catástrofes naturales: erupciones volcánicas, tifones, glaciares que inundarán el planeta. Cuando el escritor Jackson Curtis (John Cusack) y sus hijos regresan a casa, una intensa actividad sísmica recorre la Costa Oeste de los Estados Unidos.


    General
    Format : AC-3
    Format/Info : Audio Coding 3
    File size : 506 MiB
    Duration : 2h 37mn
    Overall bit rate mode : Constant
    Overall bit rate : 448 Kbps

    Audio
    Format : AC-3
    Format/Info : Audio Coding 3
    Mode extension : CM (complete main)
    Format settings, Endianness : Big
    Duration : 2h 37mn
    Bit rate mode : Constant
    Bit rate : 448 Kbps
    Channel(s) : 6 channels
    Channel positions : Front: L C R, Side: L R, LFE
    Sampling rate : 48.0 KHz
    Compression mode : Lossy
    Stream size : 506 MiB (100%)

    NOTA: Este audio fue extraído por mi del Blu-ray BD50. incluye subtítulos originales SUP
    Recuerden no citar el post y reporten link caidos por MP.





    1. Primero, deben estár si o si registrados, sino no habrá manera de que puedan ver los Enlaces.

    2. Una vez registrados, sólo deben dejar un simple comentario de Dos (2) letras/carácteres mínimo, o también pueden simplemente usar el logo de Descargando... -->

    Con eso ya podrán ver los links sin ningún problema.

    Nota: Usamos este sistema para proteger los links de Club-HD, y hasta la fecha funciona muy bien.
    Última edición por crack20; 05/01/2017 a las 02:18 Razón: Audio Resubido

  2. Los siguientes 5 Usuarios dieron Me Gusta a crack20 por este Post:

    blasphemous (16/10/2016),everardo12 (04/04/2017),Nilson (15/03/2017),rammstein1984 (16/10/2016),Revolver (16/10/2016)

  3. #2
    Gran Miembro
    Avatar de Chokuelo
    Miembro de Club-HD N°
    29848
    Fecha de ingreso
    02 nov, 15
    Mensajes
    761
    Última Actividad
    hoy @ 17:52
    Nacionalidad
    United States

    Sexo
    Hombre

    Poder de reputación
    2

    Predeterminado Re: 2012 (2009) Solo Audio Latino [AC3 5.1][448 Kbps][Extraído del Blu-ray]

    2012 (2009) Solo Audio Latino

  4. Los siguientes Usuarios dieron Me Gusta a Chokuelo por este Post:

    crack20 (16/10/2016)

  5. #3
    Gran Miembro
    Avatar de chalo1983
    Miembro de Club-HD N°
    7313
    Fecha de ingreso
    21 oct, 12
    Mensajes
    429
    Última Actividad
    22/04/2017 @ 17:44
    Nacionalidad
    Chile

    Sexo
    Hombre

    Poder de reputación
    5

    Predeterminado Re: 2012 (2009) Solo Audio Latino [AC3 5.1][448 Kbps][Extraído del Blu-ray]

    gracias

  6. Los siguientes Usuarios dieron Me Gusta a chalo1983 por este Post:

    crack20 (16/10/2016)

  7. #4
    Gran Miembro
    Avatar de sadko
    Miembro de Club-HD N°
    18935
    Fecha de ingreso
    25 ene, 15
    Mensajes
    175
    Última Actividad
    20/04/2017 @ 20:24
    Nacionalidad
    El Salvador

    Sexo
    Hombre

    Poder de reputación
    3

    Predeterminado Re: 2012 (2009) Solo Audio Latino [AC3 5.1][448 Kbps][Extraído del Blu-ray]

    Gracias por el aporte

  8. Los siguientes Usuarios dieron Me Gusta a sadko por este Post:

    crack20 (16/10/2016)

  9. #5
    Gran Miembro
    Avatar de Mapashon
    Miembro de Club-HD N°
    18546
    Fecha de ingreso
    08 ene, 15
    Edad
    32
    Mensajes
    430
    Última Actividad
    21/04/2017 @ 14:55
    Nacionalidad
    Mexico

    Sexo
    Hombre

    Poder de reputación
    3

    Predeterminado Re: 2012 (2009) Solo Audio Latino [AC3 5.1][448 Kbps][Extraído del Blu-ray]


  10. Los siguientes Usuarios dieron Me Gusta a Mapashon por este Post:

    crack20 (16/10/2016)

  11. #6
    Gran Miembro
    Avatar de rammstein1984
    Miembro de Club-HD N°
    7579
    Fecha de ingreso
    24 oct, 12
    Edad
    32
    Mensajes
    549
    Última Actividad
    hoy @ 17:30
    Nacionalidad
    Germany

    Sexo
    Hombre

    Poder de reputación
    6

    Predeterminado Re: 2012 (2009) Solo Audio Latino [AC3 5.1][448 Kbps][Extraído del Blu-ray]


  12. Los siguientes Usuarios dieron Me Gusta a rammstein1984 por este Post:

    crack20 (16/10/2016)

  13. #7
    Gran Miembro
    Avatar de lobsnake
    Miembro de Club-HD N°
    28485
    Fecha de ingreso
    07 oct, 15
    Edad
    27
    Mensajes
    652
    Última Actividad
    Ayer @ 14:11
    Nacionalidad
    Ecuador

    Sexo
    Hombre

    Poder de reputación
    2

    Predeterminado Re: 2012 (2009) Solo Audio Latino [AC3 5.1][448 Kbps][Extraído del Blu-ray]

    Descargando, gracias.

  14. Los siguientes Usuarios dieron Me Gusta a lobsnake por este Post:

    crack20 (16/10/2016)

  15. #8
    Gran Miembro
    Avatar de duc
    Miembro de Club-HD N°
    31300
    Fecha de ingreso
    04 dic, 15
    Edad
    18
    Mensajes
    531
    Última Actividad
    21/04/2017 @ 15:43
    Nacionalidad
    Argentina

    Sexo
    Mujer

    Poder de reputación
    2

    Predeterminado Re: 2012 (2009) Solo Audio Latino [AC3 5.1][448 Kbps][Extraído del Blu-ray]

    graciasssss

  16. Los siguientes Usuarios dieron Me Gusta a duc por este Post:

    crack20 (16/10/2016)

  17. #9
    Gran Miembro
    Avatar de robertoenri53
    Miembro de Club-HD N°
    26842
    Fecha de ingreso
    07 sep, 15
    Mensajes
    970
    Última Actividad
    13/04/2017 @ 22:38
    Nacionalidad
    Mexico

    Sexo
    Hombre

    Poder de reputación
    2

    Predeterminado Re: 2012 (2009) Solo Audio Latino [AC3 5.1][448 Kbps][Extraído del Blu-ray]

    Gracias....

  18. #10
    Miembro Junior Avatar de eferal
    Miembro de Club-HD N°
    32528
    Fecha de ingreso
    30 dic, 15
    Mensajes
    30
    Última Actividad
    Ayer @ 20:40
    Nacionalidad
    Mexico

    Sexo
    Hombre

    Poder de reputación
    2

    Predeterminado Re: 2012 (2009) Solo Audio Latino [AC3 5.1][448 Kbps][Extraído del Blu-ray]

    descargando

  19. #11
    Gran Miembro
    Avatar de Rafael Alejandro Perez
    Miembro de Club-HD N°
    36678
    Fecha de ingreso
    22 mar, 16
    Edad
    24
    Mensajes
    351
    Última Actividad
    17/04/2017 @ 02:55
    Nacionalidad
    Mexico

    Sexo
    Hombre

    Poder de reputación
    2

    Predeterminado Re: 2012 (2009) Solo Audio Latino [AC3 5.1][448 Kbps][Extraído del Blu-ray]

    Gracias

  20. #12
    Gran Miembro
    Avatar de milciadexxx
    Miembro de Club-HD N°
    35621
    Fecha de ingreso
    29 feb, 16
    Mensajes
    125
    Última Actividad
    26/03/2017 @ 22:10
    Nacionalidad
    Paraguay

    Sexo
    Hombre

    Poder de reputación
    2

    Predeterminado Re: 2012 (2009) Solo Audio Latino [AC3 5.1][448 Kbps][Extraído del Blu-ray]


  21. #13
    Gran Miembro
    Avatar de leo2012
    Miembro de Club-HD N°
    22754
    Fecha de ingreso
    09 jun, 15
    Mensajes
    195
    Última Actividad
    08/04/2017 @ 23:20
    Nacionalidad
    Azerbaijan

    Sexo
    Hombre

    Poder de reputación
    2

    Predeterminado Re: 2012 (2009) Solo Audio Latino [AC3 5.1][448 Kbps][Extraído del Blu-ray]

    buena película gracias por el aporte

  22. #14
    Gran Miembro
    Avatar de xmadex
    Miembro de Club-HD N°
    32279
    Fecha de ingreso
    26 dic, 15
    Edad
    31
    Mensajes
    262
    Última Actividad
    hoy @ 09:44
    Nacionalidad
    Chile

    Sexo
    Hombre

    Poder de reputación
    7

    Predeterminado Re: 2012 (2009) Solo Audio Latino [AC3 5.1][448 Kbps][Extraído del Blu-ray]


  23. #15
    Gran Miembro
    Avatar de gdmep
    Miembro de Club-HD N°
    18490
    Fecha de ingreso
    05 ene, 15
    Edad
    33
    Mensajes
    462
    Última Actividad
    hoy @ 13:14
    Nacionalidad
    Honduras

    Sexo
    Hombre

    Poder de reputación
    3

    Predeterminado Re: 2012 (2009) Solo Audio Latino [AC3 5.1][448 Kbps][Extraído del Blu-ray]

    gracias

  24. #16
    Miembro Junior Avatar de Rider
    Miembro de Club-HD N°
    36450
    Fecha de ingreso
    17 mar, 16
    Mensajes
    48
    Última Actividad
    Ayer @ 22:10
    Nacionalidad
    Argentina

    Sexo
    Hombre

    Poder de reputación
    2

    Predeterminado Re: 2012 (2009) Solo Audio Latino [AC3 5.1][448 Kbps][Extraído del Blu-ray]

    gracias

  25. #17
    Colaborador de Club-HD
    Avatar de crack20
    Miembro de Club-HD N°
    23613
    Fecha de ingreso
    01 jul, 15
    Edad
    24
    Mensajes
    454
    Última Actividad
    15/04/2017 @ 23:05
    Nacionalidad
    Panama

    Sexo
    Hombre

    Poder de reputación
    6

    Predeterminado Re: 2012 (2009) Solo Audio Latino [AC3 5.1][448 Kbps][Extraído del Blu-ray]

    Audio Resubido!

  26. #18
    Miembro Junior Avatar de valmir144
    Miembro de Club-HD N°
    36959
    Fecha de ingreso
    26 mar, 16
    Mensajes
    30
    Última Actividad
    28/01/2017 @ 19:19
    Nacionalidad
    Angola

    Sexo
    Hombre

    Poder de reputación
    2

    Predeterminado Re: 2012 (2009) Solo Audio Latino [AC3 5.1][448 Kbps][Extraído del Blu-ray]

    Thanks a lot

  27. #19
    Gran Miembro
    Avatar de alcides2017
    Miembro de Club-HD N°
    42162
    Fecha de ingreso
    05 feb, 17
    Mensajes
    111
    Última Actividad
    19/04/2017 @ 07:29
    Nacionalidad
    Spain

    Sexo
    Hombre

    Poder de reputación
    1

    Predeterminado Re: 2012 (2009) Solo Audio Latino [AC3 5.1][448 Kbps][Extraído del Blu-ray]

    hola ok

  28. #20
    Gran Miembro
    Avatar de MILTON NERITO
    Miembro de Club-HD N°
    26823
    Fecha de ingreso
    07 sep, 15
    Mensajes
    145
    Última Actividad
    Ayer @ 14:37
    Nacionalidad
    Peru

    Sexo
    Hombre

    Poder de reputación
    2

    Predeterminado Re: 2012 (2009) Solo Audio Latino [AC3 5.1][448 Kbps][Extraído del Blu-ray]

    Audio
    Format : AC-3
    Format/Info : Audio Coding 3
    Mode extension : CM (complete main)
    Format settings, Endianness : Big
    Duration : 2h 37mn
    Bit rate mode : Constant
    Bit rate : 448 Kbps
    Channel(s) : 6 channels
    Channel positions : Front: L C R, Side: L R, LFE
    Sampling rate : 48.0 KHz
    Compression mode : Lossy
    Stream size : 506 MiB (100%)

  29. #21
    Miembro Junior Avatar de mister
    Miembro de Club-HD N°
    15273
    Fecha de ingreso
    29 abr, 14
    Mensajes
    24
    Última Actividad
    13/04/2017 @ 21:25
    Nacionalidad
    Mexico

    Sexo
    Hombre

    Poder de reputación
    4

    Predeterminado Re: 2012 (2009) Solo Audio Latino [AC3 5.1][448 Kbps][Extraído del Blu-ray]

    gracias

  30. #22
    Gran Miembro
    Avatar de izanagisusano
    Miembro de Club-HD N°
    30803
    Fecha de ingreso
    23 nov, 15
    Mensajes
    129
    Última Actividad
    Ayer @ 20:11
    Nacionalidad
    Peru

    Sexo
    Hombre

    Poder de reputación
    2

    Predeterminado Re: 2012 (2009) Solo Audio Latino [AC3 5.1][448 Kbps][Extraído del Blu-ray]

    gracias por el aporte

  31. #23
    Miembro Junior Avatar de Nilson
    Miembro de Club-HD N°
    30048
    Fecha de ingreso
    07 nov, 15
    Edad
    44
    Mensajes
    21
    Última Actividad
    14/04/2017 @ 13:24
    Nacionalidad
    Colombia

    Sexo
    Hombre

    Poder de reputación
    2

    Predeterminado Re: 2012 (2009) Solo Audio Latino [AC3 5.1][448 Kbps][Extraído del Blu-ray]

    muchas graxiass

  32. #24
    Gran Miembro
    Avatar de everardo12
    Miembro de Club-HD N°
    39432
    Fecha de ingreso
    01 jun, 16
    Edad
    20
    Mensajes
    332
    Última Actividad
    hoy @ 17:56
    Nacionalidad
    Mexico

    Sexo
    Hombre

    Poder de reputación
    1

    Predeterminado Re: 2012 (2009) Solo Audio Latino [AC3 5.1][448 Kbps][Extraído del Blu-ray]

    gracias
    Let's Go, Do Your Job.

  33. #25
    Gran Miembro
    Avatar de monster321
    Miembro de Club-HD N°
    28783
    Fecha de ingreso
    13 oct, 15
    Edad
    27
    Mensajes
    205
    Última Actividad
    Ayer @ 12:26
    Nacionalidad
    Aaland

    Sexo
    Hombre

    Poder de reputación
    2

    Predeterminado Re: 2012 (2009) Solo Audio Latino [AC3 5.1][448 Kbps][Extraído del Blu-ray]

    excelente aporte

Información de tema

Usuarios viendo este tema

Actualmente hay 1 usuarios viendo este tema. (0 miembros y 1 visitantes)

Temas similares

  1. Respuestas: 71
    Último mensaje: 15/04/2017, 15:38
  2. Respuestas: 57
    Último mensaje: 04/04/2017, 14:57
  3. Respuestas: 73
    Último mensaje: 11/03/2017, 17:51
  4. Respuestas: 15
    Último mensaje: 24/02/2017, 18:48
  5. Respuestas: 30
    Último mensaje: 17/02/2017, 21:04

Members who have read this thread: 17

Marcadores

Permisos de publicación

  • No puedes crear nuevos temas
  • No puedes responder temas
  • No puedes subir archivos adjuntos
  • No puedes editar tus mensajes
  •