Resultados 1 al 25 de 67

Tema: Transpecos (2016) 1080p WEB-DL Inglés [Subt. Esp] (Thriller)

Ver modo hilado

Mensaje anterior Mensaje anterior   Próximo mensaje Próximo mensaje
  1. #1
    Dohko de Libra

    Avatar de HemoAr
    Fecha de ingreso
    08 mar, 13
    Ubicación
    Rozan
    Edad
    33
    Mensajes
    8,724
    Última Actividad
    @
    Nacionalidad
    Mexico

    Sexo
    Hombre

    Poder de reputación
    255

    Predeterminado Transpecos (2016) 1080p WEB-DL Inglés [Subt. Esp] (Thriller)







    Título original: Transpecos
    Año: 2016
    Duración: 86 min.
    País: Estados Unidos
    Director: Greg Kwedar
    Reparto: Johnny Simmons, Gabriel Luna, Clifton Collins Jr., David Acord, Oscar Avila, Luis Bordonada, Will Brittain, Alex Knight, Jake Lockett, Alma Martinez, Lora Martinez-Cunningham, Robert Douglas Washington, Ralph Alderman, Julio Oscar Mechoso
    Productora: 8750 Films / Marfa Peach Company
    Género: Thriller

    Sinopsis: Es un día cualquiera para la Patrulla Fronteriza de los Estados Unidos, que trabaja en pleno desierto. Flores tiene una gran habilidad para rastrear, Hobbs es un Viejo guardia convencido de que un título universitario no puede detener una bala y David entró a trabajar allí con la idea de ligar con mujeres y montar a caballo. Los tres agentes creen que será una nueva jornada de aburrimiento, pero acaban embarcados en un viaje surrealista, jugándose la vida en la frontera entre el bien y el mal.


























    General

    Format : Matroska
    Format version : Version 4 / Version 2
    File size : 2.94 GiB
    Duration : 1h 25mn
    Overall bit rate : 4 921 Kbps
    Movie name : Transpecos (2016) 1080p WEB-DL Inglés [Subt. Esp]
    Encoded date : UTC 2016-09-27 17:20:27
    Writing application : mkvmerge v7.1.0 ('Good Love') 64bit built on Jul 27 2014 13:06:55
    Writing library : libebml v1.3.0 + libmatroska v1.4.1

    Video
    ID : 1
    Format : AVC
    Format/Info : Advanced Video Codec
    Format profile : High@L4.0
    Format settings, CABAC : Yes
    Format settings, ReFrames : 5 frames
    Codec ID : V_MPEG4/ISO/AVC
    Duration : 1h 25mn
    Bit rate : 4 439 Kbps
    Width : 1 920 pixels
    Height : 792 pixels
    Display aspect ratio : 2.40:1
    Frame rate mode : Constant
    Frame rate : 23.976 fps
    Color space : YUV
    Chroma subsampling : 4:2:0
    Bit depth : 8 bits
    Scan type : Progressive
    Bits/(Pixel*Frame) : 0.122
    Stream size : 2.65 GiB (90%)
    Title : Transpecos (2016) 1080p WEB-DL Inglés [Subt. Esp]
    Language : English
    Default : Yes
    Forced : No

    Audio #1
    ID : 2
    Format : AC-3
    Format/Info : Audio Coding 3
    Mode extension : CM (complete main)
    Format settings, Endianness : Big
    Codec ID : A_AC3
    Duration : 1h 25mn
    Bit rate mode : Constant
    Bit rate : 384 Kbps
    Channel(s) : 6 channels
    Channel positions : Front: L C R, Side: L R, LFE
    Sampling rate : 48.0 KHz
    Bit depth : 16 bits
    Compression mode : Lossy
    Stream size : 235 MiB (8%)
    Title : AC3 5.1
    Language : English
    Default : Yes
    Forced : No

    Text
    ID : 3
    Format : UTF-8
    Codec ID : S_TEXT/UTF8
    Codec ID/Info : UTF-8 Plain Text
    Title : Subtitulos_Completos
    Language : Spanish
    Default : Yes
    Forced : No

    Menu
    00:00:00.000 : en:1
    00:05:39.381 : en:2
    00:10:18.493 : en:3
    00:14:45.218 : en:4
    00:19:01.515 : en:5
    00:24:49.696 : en:6
    00:30:42.340 : en:7
    00:36:42.324 : en:8
    00:41:26.358 : en:9
    00:45:32.729 : en:10
    00:50:39.327 : en:11
    00:54:24.927 : en:12
    00:59:40.742 : en:13
    01:06:56.511 : en:14
    01:11:11.891 : en:15
    01:16:16.362 : en:16







    Contraseña para extraer: www.club-hd.com

    Nota: Los archivos .rev no es necesario descargar al menos que algun .rar este dañado o que este eliminado







    Compra tu Membresía VIP y descarga a tu máxima velocidad por Mega

    Click Aquí para más información.

    ATENCIÓN! Finalmente tenemos TODO nuestro material disponible por Mega, enlaces 100% activos y online hoy









    Compra tu Membresía VIP y descarga a tu máxima velocidad por Mega

    Click Aquí para más información.

    ATENCIÓN! Finalmente tenemos TODO nuestro material disponible por Mega, enlaces 100% activos y online hoy









    1. Primero, deben estár si o si registrados, sino no habrá manera de que puedan ver los Enlaces.

    2. Una vez registrados, sólo deben dejar un simple comentario de Siete (7) letras/carácteres mínimo, o también pueden simplemente usar el logo de Descargando... -->

    Con eso ya podrán ver los links sin ningún problema.

    Nota: Usamos este sistema para proteger los links de Club-HD, y hasta la fecha funciona muy bien.






    1. Primero, deben estár si o si registrados, sino no habrá manera de que puedan ver los Enlaces.

    2. Una vez registrados, sólo deben dejar un simple comentario de Siete (7) letras/carácteres mínimo, o también pueden simplemente usar el logo de Descargando... -->

    Con eso ya podrán ver los links sin ningún problema.

    Nota: Usamos este sistema para proteger los links de Club-HD, y hasta la fecha funciona muy bien.

    Última edición por Revolver; 28/09/2016 a las 08:33


    Uploaded.net, el filehost recomendado por Club-HD. Si piensan comprar una cuenta premium, pueden hacerlo desde el siguiente banner, de esta manera se ganarían el privilegio de que les resubamos cualquier aporte perdido de Club-HD!






  2. Los siguientes 8 Usuarios dieron Me Gusta a HemoAr por este Post:

    ARMAN777 (18/11/2016),caspercito (13/10/2016),christian (27/09/2016),cripp (28/09/2016),Dynky (30/09/2016),flujo (27/09/2016),garmenta (03/10/2016),Leo (28/09/2016)

Información de tema

Usuarios viendo este tema

Actualmente hay 1 usuarios viendo este tema. (0 miembros y 1 visitantes)

Temas similares

  1. Imperium (2016) 1080p WEB-DL Inglés [Subt. Esp] (Thriller)
    Por HemoAr en el foro Películas en 1080p
    Respuestas: 133
    Último mensaje: 19/05/2017, 23:02
  2. Respuestas: 148
    Último mensaje: 19/05/2017, 15:31
  3. 31 (2016) 1080p WEB-DL Inglés [Subt. Esp] (Terror. Thriller)
    Por HemoAr en el foro Películas en 1080p
    Respuestas: 85
    Último mensaje: 07/04/2017, 21:55
  4. Manhattan Night (2016) 1080p WEB-DL Inglés [Subt. Esp] (Thriller)
    Por HemoAr en el foro Películas en 1080p
    Respuestas: 99
    Último mensaje: 04/04/2017, 01:50
  5. Urge (2016) 1080p WEB-DL Inglés [Subt. Esp] (Thriller)
    Por HemoAr en el foro Películas en 1080p
    Respuestas: 71
    Último mensaje: 19/08/2016, 23:27

Miembros que han leído este tema: 7

Marcadores

Permisos de publicación

  • No puedes crear nuevos temas
  • No puedes responder temas
  • No puedes subir archivos adjuntos
  • No puedes editar tus mensajes
  •