Resultados 1 al 25 de 86

Tema: 31 (2016) 1080p WEB-DL Inglés [Subt. Esp] (Terror. Thriller)

Ver modo hilado

Mensaje anterior Mensaje anterior   Próximo mensaje Próximo mensaje
  1. #1
    Dohko de Libra

    Avatar de HemoAr
    Fecha de ingreso
    08 mar, 13
    Ubicación
    Rozan
    Edad
    34
    Mensajes
    8,990
    Última Actividad
    @
    Nacionalidad
    Mexico

    Sexo
    Hombre

    Poder de reputación
    270

    Predeterminado 31 (2016) 1080p WEB-DL Inglés [Subt. Esp] (Terror. Thriller)







    Título original: 31
    Año: 2016
    Duración: 102 min.
    País: Estados Unidos
    Director: Rob Zombie
    Reparto: Elizabeth Daily, Malcolm McDowell, Torsten Voges, Daniel Roebuck, Sheri Moon Zombie, Meg Foster, Lawrence Hilton-Jacobs, Devin Sidell, Judy Geeson, Ginger Lynn, David Ury, Esperanza America
    Productora: Bow and Arrow Entertainment / Protagonist Pictures / Spectacle Entertainment
    Género: Terror. Thriller | Años 70. Secuestros / Desapariciones. Gore. Asesinos en serie. Slasher

    Sinopsis: Cinco personas son secuestradas en los días previos a Halloween y mantenidos como rehenes en un lugar llamado Murder World. Mientras están atrapados, deben jugar un juego violento llamado 31, donde la misión es sobrevivir 12 horas contra una pandilla de payasos malvados.


























    General

    Format : Matroska
    Format version : Version 4 / Version 2
    File size : 3.59 GiB
    Duration : 1h 43mn
    Overall bit rate : 4 987 Kbps
    Movie name : 31 (2016) 1080p WEB-DL Inglés
    Encoded date : UTC 2016-09-19 14:55:10
    Writing application : mkvmerge v7.1.0 ('Good Love') 64bit built on Jul 27 2014 13:06:55
    Writing library : libebml v1.3.0 + libmatroska v1.4.1

    Video
    ID : 1
    Format : AVC
    Format/Info : Advanced Video Codec
    Format profile : High@L4.0
    Format settings, CABAC : Yes
    Format settings, ReFrames : 5 frames
    Codec ID : V_MPEG4/ISO/AVC
    Duration : 1h 43mn
    Bit rate : 4 504 Kbps
    Width : 1 908 pixels
    Height : 788 pixels
    Display aspect ratio : 2.40:1
    Frame rate mode : Constant
    Frame rate : 23.976 fps
    Color space : YUV
    Chroma subsampling : 4:2:0
    Bit depth : 8 bits
    Scan type : Progressive
    Bits/(Pixel*Frame) : 0.125
    Stream size : 3.25 GiB (90%)
    Title : 31 (2016) 1080p WEB-DL Inglés
    Language : English
    Default : Yes
    Forced : No

    Audio #1
    ID : 2
    Format : AC-3
    Format/Info : Audio Coding 3
    Mode extension : CM (complete main)
    Format settings, Endianness : Big
    Codec ID : A_AC3
    Duration : 1h 43mn
    Bit rate mode : Constant
    Bit rate : 384 Kbps
    Channel(s) : 6 channels
    Channel positions : Front: L C R, Side: L R, LFE
    Sampling rate : 48.0 KHz
    Bit depth : 16 bits
    Compression mode : Lossy
    Stream size : 283 MiB (8%)
    Title : AC3 5.1
    Language : English
    Default : Yes
    Forced : No

    Text
    ID : 3
    Format : UTF-8
    Codec ID : S_TEXT/UTF8
    Codec ID/Info : UTF-8 Plain Text
    Title : Subtitulos_Completos
    Language : Spanish
    Default : Yes
    Forced : No

    Menu
    00:00:00.000 : en:1
    00:11:12.000 : en:2
    00:22:14.000 : en:3
    00:31:11.000 : en:4
    00:42:26.000 : en:5
    00:51:45.000 : en:6
    01:01:02.000 : en:7
    01:11:29.000 : en:8
    01:22:03.000 : en:9
    01:29:20.000 : en:10
    01:39:08.000 : en:11







    Contraseña para extraer: www.club-hd.com

    Nota: Los archivos .rev no es necesario descargar al menos que algun .rar este dañado o que este eliminado







    Compra tu Membresía VIP y apoya a Club-HD!

    Click Aquí para más información.

    ATENCIÓN! Finalmente tenemos TODO el material de Club-HD disponible por Mega, enlaces 100% activos y online hoy









    Compra tu Membresía VIP y apoya a Club-HD!

    Click Aquí para más información.

    ATENCIÓN! Finalmente tenemos TODO el material de Club-HD disponible por Mega, enlaces 100% activos y online hoy









    1. Primero, deben estár registrados, sino no habrá manera de que puedan ver los Enlaces.

    2. Una vez registrados, sólo deben dejar un simple comentario de Siete (7) letras/carácteres mínimo.

    Con eso ya podrán ver los links sin ningún problema.

    Nota: Usamos este sistema para proteger los links de Club-HD, y hasta la fecha funciona muy bien.






    1. Primero, deben estár registrados, sino no habrá manera de que puedan ver los Enlaces.

    2. Una vez registrados, sólo deben dejar un simple comentario de Siete (7) letras/carácteres mínimo.

    Con eso ya podrán ver los links sin ningún problema.

    Nota: Usamos este sistema para proteger los links de Club-HD, y hasta la fecha funciona muy bien.

    Última edición por Revolver; 19/09/2016 a las 20:37


    Uploaded.net, el filehost recomendado por Club-HD. Si piensan comprar una cuenta premium, pueden hacerlo desde el siguiente banner, de esta manera se ganarían el privilegio de que les resubamos cualquier aporte perdido de Club-HD!






  2. Los siguientes 8 Usuarios dieron Me Gusta a HemoAr por este Post:

    caspercito (13/10/2016),christian (19/09/2016),cripp (19/09/2016),Doctor Jason (20/09/2016),felinosky888 (01/10/2016),flujo (20/09/2016),Leo (19/09/2016),Sanex (09/10/2016)

Información de tema

Usuarios viendo este tema

Actualmente hay 1 usuarios viendo este tema. (0 miembros y 1 visitantes)

Temas similares

  1. Respuestas: 148
    Último mensaje: 19/05/2017, 15:31
  2. Respuestas: 107
    Último mensaje: 30/03/2017, 22:37
  3. Respuestas: 76
    Último mensaje: 13/03/2017, 22:45
  4. Respuestas: 188
    Último mensaje: 09/03/2017, 07:49
  5. Cell (2016) 720p WEB-DL Inglés [Subt. Esp] (Thriller. Terror)
    Por HemoAr en el foro Películas en 720p
    Respuestas: 166
    Último mensaje: 29/10/2016, 19:47

Miembros que han leído este tema: 19

Marcadores

Permisos de publicación

  • No puedes crear nuevos temas
  • No puedes responder temas
  • No puedes subir archivos adjuntos
  • No puedes editar tus mensajes
  •