Resultados 1 al 25 de 104

Tema: Kickboxer: Vengeance (2016) 1080p WEB-DL Audio Inglés [Subt. Esp] (Acción)

Ver modo hilado

Mensaje anterior Mensaje anterior   Próximo mensaje Próximo mensaje
  1. #1
    Dohko de Libra

    Avatar de HemoAr
    Fecha de ingreso
    09 mar, 13
    Ubicación
    Rozan
    Edad
    34
    Mensajes
    9,235
    Última Actividad
    @
    Nacionalidad
    Mexico

    Sexo
    Hombre

    Poder de reputación
    291

    Predeterminado Kickboxer: Vengeance (2016) 1080p WEB-DL Audio Inglés [Subt. Esp] (Acción)







    Título original: Kickboxer: Vengeance
    Año: 2016
    Duración: 90 min.
    País: Estados Unidos
    Director: John Stockwell
    Reparto: Alain Moussi, Jean-Claude Van Damme, Dave Bautista, Georges St-Pierre, Gina Carano, Sara Malakul Lane, Darren Shahlavi, Sam Medina, Luis Da Silva Jr., Daneya Mayid, T.J. Storm, Matthew Ziff, Hawn Tran, Steven Swadling
    Productora: Radar Pictures
    Género: Acción | Remake. Artes marciales

    Sinopsis: Kurt Sloan viaja a Tailandia para aprender Muay Thai y vengar la muerte de su hermano que fue brutalmente asesinado por el invencible Tong Po.


























    General

    Format : Matroska
    Format version : Version 4 / Version 2
    File size : 3.12 GiB
    Duration : 1h 30mn
    Overall bit rate : 4 936 Kbps
    Movie name : Kickboxer Vengeance (2016) 1080p WEB-DL Inglés
    Encoded date : UTC 2016-09-14 02:46:18
    Writing application : mkvmerge v7.1.0 ('Good Love') 64bit built on Jul 27 2014 13:06:55
    Writing library : libebml v1.3.0 + libmatroska v1.4.1

    Video
    ID : 1
    Format : AVC
    Format/Info : Advanced Video Codec
    Format profile : High@L4.0
    Format settings, CABAC : Yes
    Format settings, ReFrames : 5 frames
    Codec ID : V_MPEG4/ISO/AVC
    Duration : 1h 30mn
    Bit rate : 4 454 Kbps
    Width : 1 912 pixels
    Height : 796 pixels
    Display aspect ratio : 2.40:1
    Frame rate mode : Constant
    Frame rate : 23.976 fps
    Color space : YUV
    Chroma subsampling : 4:2:0
    Bit depth : 8 bits
    Scan type : Progressive
    Bits/(Pixel*Frame) : 0.122
    Stream size : 2.81 GiB (90%)
    Title : Kickboxer Vengeance (2016) 1080p WEB-DL Inglés
    Language : English
    Default : Yes
    Forced : No

    Audio #1
    ID : 2
    Format : AC-3
    Format/Info : Audio Coding 3
    Mode extension : CM (complete main)
    Format settings, Endianness : Big
    Codec ID : A_AC3
    Duration : 1h 30mn
    Bit rate mode : Constant
    Bit rate : 384 Kbps
    Channel(s) : 6 channels
    Channel positions : Front: L C R, Side: L R, LFE
    Sampling rate : 48.0 KHz
    Bit depth : 16 bits
    Compression mode : Lossy
    Stream size : 248 MiB (8%)
    Title : AC3 5.1
    Language : English
    Default : Yes
    Forced : No

    Text
    ID : 3
    Format : UTF-8
    Codec ID : S_TEXT/UTF8
    Codec ID/Info : UTF-8 Plain Text
    Title : Subtitulos_Completos
    Language : Spanish
    Default : Yes
    Forced : No

    Menu
    00:00:00.000 : en:1
    00:10:06.481 : en:2
    00:19:35.174 : en:3
    00:30:09.057 : en:4
    00:39:51.013 : en:5
    00:50:26.857 : en:6
    01:00:37.092 : en:7
    01:08:16.509 : en:8
    01:15:04.500 : en:9
    01:24:54.965 : en:10







    Contraseña para extraer: www.club-hd.com

    Nota: Los archivos .rev no es necesario descargar al menos que algun .rar este dañado o que este eliminado







    Compra tu Membresía VIP y apoya a Club-HD!

    Click Aquí para más información.

    ATENCIÓN! Finalmente tenemos TODO el material de Club-HD disponible por Mega, enlaces 100% activos y online hoy









    Compra tu Membresía VIP y apoya a Club-HD!

    Click Aquí para más información.

    ATENCIÓN! Finalmente tenemos TODO el material de Club-HD disponible por Mega, enlaces 100% activos y online hoy









    1. Primero, deben estár registrados, sino no habrá manera de que puedan ver los Enlaces.

    2. Una vez registrados, sólo deben dejar un simple comentario de Siete (7) letras/carácteres mínimo.

    Con eso ya podrán ver los links sin ningún problema.

    Nota: Usamos este sistema para proteger los links de Club-HD, y hasta la fecha funciona muy bien.






    1. Primero, deben estár registrados, sino no habrá manera de que puedan ver los Enlaces.

    2. Una vez registrados, sólo deben dejar un simple comentario de Siete (7) letras/carácteres mínimo.

    Con eso ya podrán ver los links sin ningún problema.

    Nota: Usamos este sistema para proteger los links de Club-HD, y hasta la fecha funciona muy bien.

    Última edición por Revolver; 14/09/2016 a las 20:10



    Uploaded.net, el filehost recomendado por Club-HD. Si piensan comprar una cuenta premium, pueden hacerlo desde el siguiente banner, de esta manera se ganarían el privilegio de que les resubamos cualquier aporte perdido de Club-HD!




  2. Los siguientes 14 Usuarios dieron Me Gusta a HemoAr por este Post:

    caspercito (13/10/2016),christian (14/09/2016),cripp (14/09/2016),flujo (14/09/2016),gafaman (04/01/2017),jcerdas (15/09/2016),Leo (14/09/2016),Loco (14/09/2016),Max (14/09/2016),mechero (14/09/2016),nathan8 (14/09/2016),nelsedu (31/03/2017),Revolver (14/09/2016),rockhowardsnk (14/09/2016)

Información de tema

Usuarios viendo este tema

Actualmente hay 1 usuarios viendo este tema. (0 miembros y 1 visitantes)

Temas similares

  1. Respuestas: 131
    Último mensaje: 16/11/2017, 13:38
  2. Respuestas: 105
    Último mensaje: 29/10/2017, 04:06
  3. Respuestas: 126
    Último mensaje: 21/09/2017, 22:26
  4. Respuestas: 128
    Último mensaje: 26/03/2017, 05:09
  5. Respuestas: 299
    Último mensaje: 06/09/2016, 02:24

Miembros que han leído este tema: 11

Marcadores

Permisos de publicación

  • No puedes crear nuevos temas
  • No puedes responder temas
  • No puedes subir archivos adjuntos
  • No puedes editar tus mensajes
  •