Resultados 1 al 25 de 154

Tema: Free State of Jones (2016) 720p BDRip Inglés [Subt. Esp] (Acción. Bélico. Drama)

Ver modo hilado

Mensaje anterior Mensaje anterior   Próximo mensaje Próximo mensaje
  1. #1
    Dohko de Libra

    Avatar de HemoAr
    Miembro de Club-HD N°
    9222
    Fecha de ingreso
    09 mar, 13
    Ubicación
    Rozan
    Edad
    33
    Mensajes
    8,038
    Última Actividad
    @
    Nacionalidad
    Mexico

    Sexo
    Hombre

    Poder de reputación
    213

    Predeterminado Free State of Jones (2016) 720p BDRip Inglés [Subt. Esp] (Acción. Bélico. Drama)







    Título original: Free State of Jones
    Año: 2016
    Duración: 139 min.
    País: Estados Unidos
    Director: Gary Ross
    Reparto: Matthew McConaughey, Gugu Mbatha-Raw, Keri Russell, Mahershala Ali, Brad Carter, Sean Bridgers, Jacob Lofland, Christopher Berry, Joe Chrest, Kurt Krause, Brian Lee Franklin, Martin Bats Bradford, Carlton Caudle, Kirk Bovill, Lawrence Turner, Donald Watkins
    Productora: Larger Than Life Productions / Route One Films / Vendian Entertainment
    Género: Acción. Bélico. Drama | Biográfico. Guerra de Secesión. Siglo XIX

    Sinopsis: Narra la historia real del granjero sureño Newton Knight (Matthew McConaughey) y su extraordinaria revuelta armada contra el Ejército Confederado durante la Guerra de Secesión americana. Harto de luchar por los intereses de los más ricos, Knight desertó, se alió con otros pequeños granjeros y con la ayuda de los esclavos locales, lideró un levantamiento que llevó al Condado de Jones en Mississippi a independizarse creando el Estado Libre de Jones. Su matrimonio con una antigua esclava, Rachel (Gugu Mbatha-Raw), y su posterior construcción de una comunidad interracial, distinguieron a Newton Knight como una luchadora y controvertida figura en el contexto de la Guerra Civil americana.


























    General

    Format : Matroska
    Format version : Version 4 / Version 2
    File size : 6.00 GiB
    Duration : 2h 19mn
    Overall bit rate : 6 143 Kbps
    Movie name : Free State of Jones (2016) 720p BDRip Inglés [Subt. Esp]
    Encoded date : UTC 2016-09-11 22:27:03
    Writing application : mkvmerge v7.1.0 ('Good Love') 64bit built on Jul 27 2014 13:06:55
    Writing library : libebml v1.3.0 + libmatroska v1.4.1

    Video
    ID : 1
    Format : AVC
    Format/Info : Advanced Video Codec
    Format profile : High@L4.1
    Format settings, CABAC : Yes
    Format settings, ReFrames : 9 frames
    Codec ID : V_MPEG4/ISO/AVC
    Duration : 2h 19mn
    Bit rate : 5 500 Kbps
    Width : 1 280 pixels
    Height : 690 pixels
    Display aspect ratio : 1.85:1
    Frame rate mode : Constant
    Frame rate : 23.976 fps
    Color space : YUV
    Chroma subsampling : 4:2:0
    Bit depth : 8 bits
    Scan type : Progressive
    Bits/(Pixel*Frame) : 0.260
    Stream size : 5.26 GiB (88%)
    Title : Free State of Jones (2016) 720p BDRip Inglés [Subt. Esp]
    Language : English
    Default : Yes
    Forced : No

    Audio #1
    ID : 2
    Format : AC-3
    Format/Info : Audio Coding 3
    Mode extension : CM (complete main)
    Format settings, Endianness : Big
    Codec ID : A_AC3
    Duration : 2h 19mn
    Bit rate mode : Constant
    Bit rate : 640 Kbps
    Channel(s) : 6 channels
    Channel positions : Front: L C R, Side: L R, LFE
    Sampling rate : 48.0 KHz
    Bit depth : 16 bits
    Compression mode : Lossy
    Stream size : 641 MiB (10%)
    Title : AC3 5.1
    Language : English
    Default : Yes
    Forced : No

    Text
    ID : 3
    Format : UTF-8
    Codec ID : S_TEXT/UTF8
    Codec ID/Info : UTF-8 Plain Text
    Title : Subtitulos_Completos
    Language : Spanish
    Default : Yes
    Forced : No

    Menu
    00:00:00.000 : en:00:00:00.000
    00:08:19.499 : en:00:08:19.499
    00:13:55.835 : en:00:13:55.835
    00:22:14.250 : en:00:22:14.250
    00:30:56.313 : en:00:30:56.313
    00:37:39.924 : en:00:37:39.924
    00:46:02.635 : en:00:46:02.635
    00:49:49.195 : en:00:49:49.195
    00:56:08.615 : en:00:56:08.615
    01:05:06.027 : en:01:05:06.027
    01:13:32.199 : en:01:13:32.199
    01:19:58.752 : en:01:19:58.752
    01:30:22.667 : en:01:30:22.667
    01:36:43.172 : en:01:36:43.172
    01:42:49.747 : en:01:42:49.747
    01:50:23.492 : en:01:50:23.492
    01:55:44.729 : en:01:55:44.729
    02:02:43.731 : en:02:02:43.731
    02:06:56.526 : en:02:06:56.526
    02:13:11.942 : en:02:13:11.942







    Contraseña para extraer: www.club-hd.com

    Nota: Los archivos .rev no es necesario descargar al menos que algun .rar este dañado o que este eliminado







    Compra tu Membresía VIP y descarga a tu máxima velocidad por Mega

    Click Aquí para más información.

    ATENCIÓN! Finalmente tenemos TODO nuestro material disponible por Mega, enlaces 100% activos y online hoy









    Compra tu Membresía VIP y descarga a tu máxima velocidad por Mega

    Click Aquí para más información.

    ATENCIÓN! Finalmente tenemos TODO nuestro material disponible por Mega, enlaces 100% activos y online hoy









    1. Primero, deben estár si o si registrados, sino no habrá manera de que puedan ver los Enlaces.

    2. Una vez registrados, sólo deben dejar un simple comentario de Dos (2) letras/carácteres mínimo, o también pueden simplemente usar el logo de Descargando... -->

    Con eso ya podrán ver los links sin ningún problema.

    Nota: Usamos este sistema para proteger los links de Club-HD, y hasta la fecha funciona muy bien.






    1. Primero, deben estár si o si registrados, sino no habrá manera de que puedan ver los Enlaces.

    2. Una vez registrados, sólo deben dejar un simple comentario de Dos (2) letras/carácteres mínimo, o también pueden simplemente usar el logo de Descargando... -->

    Con eso ya podrán ver los links sin ningún problema.

    Nota: Usamos este sistema para proteger los links de Club-HD, y hasta la fecha funciona muy bien.

    Última edición por Revolver; 14/09/2016 a las 19:07


    Uploaded.net, el filehost recomendado por Club-HD. Si piensan comprar una cuenta premium, pueden hacerlo desde el siguiente banner, de esta manera se ganarían el privilegio de que les resubamos cualquier aporte perdido de Club-HD!






  2. Los siguientes 17 Usuarios dieron Me Gusta a HemoAr por este Post:

    armyfan (11/09/2016),canis mayoris (01/11/2016),carlos610 (23/12/2016),caspercito (13/10/2016),christian (12/09/2016),cripp (12/09/2016),Dynky (12/09/2016),flujo (14/09/2016),jafrare (14/09/2016),Jagger1979 (25/09/2016),Leo (14/09/2016),mat-one (17/11/2016),midala (12/09/2016),Nosferatu (18/09/2016),parellanocl (12/09/2016),pp1012 (25/10/2016),rockhowardsnk (04/11/2016)

Información de tema

Usuarios viendo este tema

Actualmente hay 1 usuarios viendo este tema. (0 miembros y 1 visitantes)

Temas similares

  1. Respuestas: 44
    Último mensaje: 10/02/2017, 13:12
  2. Respuestas: 35
    Último mensaje: 19/06/2016, 14:53
  3. Respuestas: 143
    Último mensaje: 23/02/2016, 23:11
  4. Respuestas: 380
    Último mensaje: 17/10/2015, 18:16
  5. Respuestas: 214
    Último mensaje: 17/10/2015, 18:15

Members who have read this thread: 356

Marcadores

Permisos de publicación

  • No puedes crear nuevos temas
  • No puedes responder temas
  • No puedes subir archivos adjuntos
  • No puedes editar tus mensajes
  •