Resultados 1 al 25 de 169

Tema: Marauders (2016) 720p BDRip Audio Inglés [Subt. Esp] (Acción)

Ver modo hilado

Mensaje anterior Mensaje anterior   Próximo mensaje Próximo mensaje
  1. #1
    Uploader
    Avatar de Dante Inferno
    Miembro de Club-HD N°
    39208
    Fecha de ingreso
    24 may, 16
    Mensajes
    182
    Última Actividad
    Ayer @ 13:01
    Nacionalidad
    Argentina

    Sexo
    Hombre

    Poder de reputación
    14

    Cool Marauders (2016) 720p BDRip Audio Inglés [Subt. Esp] (Acción)





    Título original: Marauders
    Año: 2016
    Duración: 107 min.
    País: Canadá
    Director: : Steven C. Miller
    Guión: Michael Cody, Chris Sivertson
    Música: Ryan Dodson
    Fotografía: Brandon Cox
    Reparto: Christopher Meloni, Bruce Willis, Dave Bautista, Adrian Grenier, Lydia Hull, Tyler Jon Olson, Christopher Rob Bowen, Chris Hill, Danny A. Abeckaser, Texas Battle, Tara Holt, Alyshia Ochse, Carolyn Alise, Ryan O'Nan, Michael Urriquia
    Productora: Emmett/Furla Films / 4th Wall Entertainment / Grindstone Entertainment Group / Lionsgate Home Entertainment
    Género: Acción | Robos & Atracos







    Un agente del FBI sigue la pista de unos ladrones de bancos cuyo motín tienen por costumbre donar a la caridad. Durante la investigación, el agente descubre que el director de uno de los bancos (Willis) ha encubierto de alguna manera a los ladrones, lo que creará gran confusión en el caso.


























    Código:
    General
    Complete name                            : Marauders (2016) 720p BDRip Audio Inglés [Subt. Esp].mkv
    Format                                   : Matroska
    Format version                           : Version 4 / Version 2
    File size                                : 4.82 GiB
    Duration                                 : 1h 47mn
    Overall bit rate                         : 6 435 Kbps
    Movie name                               : www.club-hd.com -> Marauders (2016) 720p BDRip Audio Inglés [Subt. Esp]
    Encoded date                             : UTC 2016-09-06 22:07:04
    Writing application                      : mkvmerge v7.8.0 ('River Man') 64bit built on Mar 27 2015 16:31:37
    Writing library                          : libebml v1.3.1 + libmatroska v1.4.2
    
    Video
    ID                                       : 1
    Format                                   : AVC
    Format/Info                              : Advanced Video Codec
    Format profile                           : High@L4.1
    Format settings, CABAC                   : Yes
    Format settings, ReFrames                : 5 frames
    Codec ID                                 : V_MPEG4/ISO/AVC
    Duration                                 : 1h 47mn
    Bit rate                                 : 5 793 Kbps
    Width                                    : 1 280 pixels
    Height                                   : 536 pixels
    Display aspect ratio                     : 2.40:1
    Frame rate mode                          : Constant
    Frame rate                               : 23.976 fps
    Color space                              : YUV
    Chroma subsampling                       : 4:2:0
    Bit depth                                : 8 bits
    Scan type                                : Progressive
    Bits/(Pixel*Frame)                       : 0.352
    Stream size                              : 4.24 GiB (88%)
    Title                                    : Marauders (2016) 720p BDRip Audio Inglés [Subt. Esp]
    Writing library                          : x264 core 148 r2692 64f4e24
    Language                                 : English
    Default                                  : Yes
    Forced                                   : No
    
    Audio
    ID                                       : 2
    Format                                   : AC-3
    Format/Info                              : Audio Coding 3
    Mode extension                           : CM (complete main)
    Format settings, Endianness              : Big
    Codec ID                                 : A_AC3
    Duration                                 : 1h 47mn
    Bit rate mode                            : Constant
    Bit rate                                 : 640 Kbps
    Channel(s)                               : 6 channels
    Channel positions                        : Front: L C R, Side: L R, LFE
    Sampling rate                            : 48.0 KHz
    Bit depth                                : 16 bits
    Compression mode                         : Lossy
    Stream size                              : 490 MiB (10%)
    Title                                    : Marauders (2016) - Inglés AC3 5.1 - 640 Kbps
    Language                                 : English
    Default                                  : Yes
    Forced                                   : No
    
    Text
    ID                                       : 3
    Format                                   : UTF-8
    Codec ID                                 : S_TEXT/UTF8
    Codec ID/Info                            : UTF-8 Plain Text
    Title                                    : Marauders (2016) - Subtítulos Español
    Language                                 : Spanish
    Default                                  : Yes
    Forced                                   : No
    
    Menu
    00:00:00.000                             : en:00:00:00.000
    00:05:19.402                             : en:00:05:19.402
    00:11:57.717                             : en:00:11:57.717
    00:17:46.107                             : en:00:17:46.107
    00:24:42.648                             : en:00:24:42.648
    00:30:33.874                             : en:00:30:33.874
    00:39:07.679                             : en:00:39:07.679
    00:46:14.981                             : en:00:46:14.981
    00:51:49.356                             : en:00:51:49.356
    00:55:58.272                             : en:00:55:58.272
    01:02:08.016                             : en:01:02:08.016
    01:09:21.699                             : en:01:09:21.699
    01:16:38.594                             : en:01:16:38.594
    01:22:48.839                             : en:01:22:48.839
    01:28:22.172                             : en:01:28:22.172
    01:34:08.351                             : en:01:34:08.351






    Código:
    www.club-hd.com






    Todos los links son Intercambiables!






    Compra tu Membresía VIP y descarga a tu máxima velocidad por Mega

    Click Aquí para más información.

    ATENCIÓN! Finalmente tenemos TODO nuestro material disponible por Mega, enlaces 100% activos y online hoy









    Compra tu Membresía VIP y descarga a tu máxima velocidad por Mega

    Click Aquí para más información.

    ATENCIÓN! Finalmente tenemos TODO nuestro material disponible por Mega, enlaces 100% activos y online hoy








    1. Primero, deben estár si o si registrados, sino no habrá manera de que puedan ver los Enlaces.

    2. Una vez registrados, sólo deben dejar un simple comentario de Dos (2) letras/carácteres mínimo, o también pueden simplemente usar el logo de Descargando... -->

    Con eso ya podrán ver los links sin ningún problema.

    Nota: Usamos este sistema para proteger los links de Club-HD, y hasta la fecha funciona muy bien.






    1. Primero, deben estár si o si registrados, sino no habrá manera de que puedan ver los Enlaces.

    2. Una vez registrados, sólo deben dejar un simple comentario de Dos (2) letras/carácteres mínimo, o también pueden simplemente usar el logo de Descargando... -->

    Con eso ya podrán ver los links sin ningún problema.

    Nota: Usamos este sistema para proteger los links de Club-HD, y hasta la fecha funciona muy bien.


    Última edición por Dante Inferno; 07/09/2016 a las 09:42

  2. Los siguientes 12 Usuarios dieron Me Gusta a Dante Inferno por este Post:

    armyfan (06/09/2016),batman1969 (24/11/2016),christian (06/09/2016),CondeOrlok (06/09/2016),cripp (06/09/2016),flujo (09/09/2016),garmenta (08/09/2016),jafrare (23/10/2016),Jagger1979 (16/09/2016),Leo (06/09/2016),midala (07/09/2016),rockhowardsnk (04/11/2016)

Información de tema

Usuarios viendo este tema

Actualmente hay 1 usuarios viendo este tema. (0 miembros y 1 visitantes)

Temas similares

  1. Respuestas: 75
    Último mensaje: 14/02/2017, 14:17
  2. Respuestas: 121
    Último mensaje: 06/02/2017, 03:07
  3. Respuestas: 138
    Último mensaje: 03/02/2017, 20:04
  4. Respuestas: 98
    Último mensaje: 31/08/2016, 08:01
  5. Respuestas: 56
    Último mensaje: 01/07/2016, 10:42

Members who have read this thread: 340

Etiquetas para este tema

Marcadores

Permisos de publicación

  • No puedes crear nuevos temas
  • No puedes responder temas
  • No puedes subir archivos adjuntos
  • No puedes editar tus mensajes
  •