Página 2 de 3 PrimerPrimer 123 ÚltimoÚltimo
Resultados 26 al 50 de 72

Tema: Saving Private Ryan (1998) Solo Audio Latino [AC3 5.1] [Extraído del Blu-ray]

  1. #26
    Gran Miembro
    Avatar de luisjano
    Fecha de ingreso
    01 sep, 12
    Mensajes
    219
    Última Actividad
    07/09/2017 @ 08:31
    Nacionalidad
    Chile


    Poder de reputación
    6

    Predeterminado Re: Saving Private Ryan (1998) Solo Audio Latino [AC3 5.1] [Extraído del Blu-ray]


  2. #27
    Gran Miembro
    Avatar de milciadexxx
    Fecha de ingreso
    29 feb, 16
    Mensajes
    185
    Última Actividad
    19/09/2017 @ 21:04
    Nacionalidad
    Paraguay

    Sexo
    Hombre

    Poder de reputación
    2

    Predeterminado Re: Saving Private Ryan (1998) Solo Audio Latino [AC3 5.1] [Extraído del Blu-ray]

    Gracias,

  3. #28
    Gran Miembro
    Avatar de lazkurayn
    Fecha de ingreso
    28 jul, 16
    Mensajes
    106
    Última Actividad
    20/09/2017 @ 16:11
    Nacionalidad
    Mexico

    Sexo
    Hombre

    Poder de reputación
    2

    Predeterminado Re: Saving Private Ryan (1998) Solo Audio Latino [AC3 5.1] [Extraído del Blu-ray]


  4. #29
    Gran Miembro
    Avatar de ALEKZYOVA
    Fecha de ingreso
    26 oct, 14
    Mensajes
    503
    Última Actividad
    22/05/2017 @ 14:28
    Nacionalidad
    Guatemala

    Sexo
    Hombre

    Poder de reputación
    3

    Predeterminado Re: Saving Private Ryan (1998) Solo Audio Latino [AC3 5.1] [Extraído del Blu-ray]

    Excelente aporte, gracias,,,

  5. #30
    Gran Miembro
    Avatar de darkjls
    Fecha de ingreso
    30 ago, 12
    Edad
    39
    Mensajes
    121
    Última Actividad
    25/06/2017 @ 00:54
    Nacionalidad
    Mexico


    Poder de reputación
    6

    Predeterminado Re: Saving Private Ryan (1998) Solo Audio Latino [AC3 5.1] [Extraído del Blu-ray]


  6. #31
    Gran Miembro
    Avatar de luis81
    Fecha de ingreso
    29 ago, 12
    Edad
    35
    Mensajes
    373
    Última Actividad
    10/02/2017 @ 19:50
    Nacionalidad
    Mexico


    Poder de reputación
    6

    Predeterminado Re: Saving Private Ryan (1998) Solo Audio Latino [AC3 5.1] [Extraído del Blu-ray]

    GRACIAS

  7. #32
    Gran Miembro
    Avatar de Mark@CR
    Fecha de ingreso
    14 feb, 15
    Mensajes
    161
    Última Actividad
    Ayer @ 20:50
    Nacionalidad
    Costa Rica

    Sexo
    Hombre

    Poder de reputación
    3

    Predeterminado Re: Saving Private Ryan (1998) Solo Audio Latino [AC3 5.1] [Extraído del Blu-ray]

    Muchas gracias por este audio

  8. #33
    Miembro
    Avatar de Siberiano36
    Fecha de ingreso
    28 nov, 15
    Mensajes
    67
    Última Actividad
    Ayer @ 10:47
    Nacionalidad
    Chile

    Sexo
    Hombre

    Poder de reputación
    2

    Predeterminado Re: Saving Private Ryan (1998) Solo Audio Latino [AC3 5.1] [Extraído del Blu-ray]

    muchas gracias

  9. #34
    Gran Miembro
    Avatar de killerclown99
    Fecha de ingreso
    22 jul, 15
    Mensajes
    273
    Última Actividad
    22/09/2017 @ 19:23
    Nacionalidad
    Mexico

    Sexo
    Hombre

    Poder de reputación
    3

    Predeterminado Re: Saving Private Ryan (1998) Solo Audio Latino [AC3 5.1] [Extraído del Blu-ray]


  10. #35
    Miembro
    Avatar de el profeta
    Fecha de ingreso
    20 ene, 16
    Edad
    33
    Mensajes
    67
    Última Actividad
    25/06/2017 @ 11:35
    Nacionalidad
    Venezuela

    Sexo
    Hombre

    Poder de reputación
    2

    Predeterminado Re: Saving Private Ryan (1998) Solo Audio Latino [AC3 5.1] [Extraído del Blu-ray]

    gracias...

  11. #36
    Miembro Junior Avatar de arkadinvasdlien19
    Fecha de ingreso
    20 sep, 16
    Edad
    24
    Mensajes
    25
    Última Actividad
    19/09/2017 @ 11:48
    Nacionalidad
    Panama

    Sexo
    Hombre

    Poder de reputación
    2

    Predeterminado Re: Saving Private Ryan (1998) Solo Audio Latino [AC3 5.1] [Extraído del Blu-ray]

    gracias

  12. #37
    Miembro Junior Avatar de Pandachok
    Fecha de ingreso
    19 jul, 15
    Edad
    28
    Mensajes
    26
    Última Actividad
    10/04/2017 @ 00:50
    Nacionalidad
    Mexico

    Sexo
    Hombre

    Poder de reputación
    3

    Predeterminado Re: Saving Private Ryan (1998) Solo Audio Latino [AC3 5.1] [Extraído del Blu-ray]


  13. #38
    Gran Miembro
    Avatar de lcs2
    Fecha de ingreso
    05 feb, 15
    Mensajes
    147
    Última Actividad
    15/09/2017 @ 04:03
    Nacionalidad
    Argentina

    Sexo
    Hombre

    Poder de reputación
    3

    Predeterminado Re: Saving Private Ryan (1998) Solo Audio Latino [AC3 5.1] [Extraído del Blu-ray]


  14. #39
    Gran Miembro
    Avatar de Rafael Alejandro Perez
    Fecha de ingreso
    22 mar, 16
    Edad
    25
    Mensajes
    477
    Última Actividad
    Ayer @ 21:44
    Nacionalidad
    Mexico

    Sexo
    Hombre

    Poder de reputación
    2

    Predeterminado Re: Saving Private Ryan (1998) Solo Audio Latino [AC3 5.1] [Extraído del Blu-ray]

    gracias

  15. #40
    Miembro
    Avatar de tonypardo23
    Fecha de ingreso
    19 mar, 16
    Edad
    26
    Mensajes
    50
    Última Actividad
    14/09/2017 @ 05:37
    Nacionalidad
    Anguilla

    Sexo
    Hombre

    Poder de reputación
    2

    Predeterminado Re: Saving Private Ryan (1998) Solo Audio Latino [AC3 5.1] [Extraído del Blu-ray]

    gracias

  16. #41
    Colaborador de Club-HD
    Avatar de crack20
    Fecha de ingreso
    01 jul, 15
    Edad
    24
    Mensajes
    442
    Última Actividad
    22/09/2017 @ 00:49
    Nacionalidad
    Panama

    Sexo
    Hombre

    Poder de reputación
    8

    Predeterminado Re: Saving Private Ryan (1998) Solo Audio Latino [AC3 5.1] [Extraído del Blu-ray]

    Audio Resubido!

  17. #42
    Gran Miembro
    Avatar de johnever
    Fecha de ingreso
    07 feb, 16
    Edad
    33
    Mensajes
    150
    Última Actividad
    22/09/2017 @ 16:06
    Nacionalidad
    Colombia

    Sexo
    Hombre

    Poder de reputación
    2

    Predeterminado Re: Saving Private Ryan (1998) Solo Audio Latino [AC3 5.1] [Extraído del Blu-ray]

    gracias

  18. #43
    Miembro Junior Avatar de nettie
    Fecha de ingreso
    19 dic, 16
    Edad
    47
    Mensajes
    25
    Última Actividad
    07/07/2017 @ 05:14
    Nacionalidad
    Guatemala

    Sexo
    Hombre

    Poder de reputación
    1

    Predeterminado Re: Saving Private Ryan (1998) Solo Audio Latino [AC3 5.1] [Extraído del Blu-ray]

    Gracias....

  19. #44
    Miembro Junior Avatar de mailen2016
    Fecha de ingreso
    02 may, 16
    Ubicación
    tierra amarilla
    Edad
    34
    Mensajes
    12
    Última Actividad
    18/01/2017 @ 12:21
    Nacionalidad
    Chile

    Sexo
    Hombre

    Poder de reputación
    2

    Predeterminado Re: Saving Private Ryan (1998) Solo Audio Latino [AC3 5.1] [Extraído del Blu-ray]

    Cita Iniciado por crack20 Ver mensaje


    SINOPSIS
    En la Segunda Guerra Mundial (1939-1945). Tras el desembarco de los Aliados en Normandía, a un grupo de soldados americanos se le encomienda una peligrosa misión: poner a salvo al soldado James Ryan. Los hombres de la patrulla del capitán John Miller deben arriesgar sus vidas para encontrar a este soldado, cuyos tres hermanos han muerto en la guerra. Lo único que se sabe del soldado Ryan es que se lanzó con su escuadrón de paracaidistas detrás de las líneas enemigas.


    General
    Format : AC-3
    Format/Info : Audio Coding 3
    File size : 771 MiB
    Duration : 2h 48mn
    Overall bit rate mode : Constant
    Overall bit rate : 640 Kbps

    Audio
    Format : AC-3
    Format/Info : Audio Coding 3
    Mode extension : CM (complete main)
    Format settings, Endianness : Big
    Duration : 2h 48mn
    Bit rate mode : Constant
    Bit rate : 640 Kbps
    Channel(s) : 6 channels
    Channel positions : Front: L C R, Side: L R, LFE
    Sampling rate : 48.0 KHz
    Compression mode : Lossy
    Stream size : 771 MiB (100%)

    NOTA: Este audio fue extraido por mi del Blu-ray BD50. incluye subtítulos originales SUP
    Recuerden no citar el post y reporten link caidos por MP.


    ***Hidden content cannot be quoted.***
    muchs gracias

  20. #45
    Miembro Junior Avatar de mailen2016
    Fecha de ingreso
    02 may, 16
    Ubicación
    tierra amarilla
    Edad
    34
    Mensajes
    12
    Última Actividad
    18/01/2017 @ 12:21
    Nacionalidad
    Chile

    Sexo
    Hombre

    Poder de reputación
    2

    Predeterminado Re: Saving Private Ryan (1998) Solo Audio Latino [AC3 5.1] [Extraído del Blu-ray]

    Cita Iniciado por crack20 Ver mensaje


    SINOPSIS
    En la Segunda Guerra Mundial (1939-1945). Tras el desembarco de los Aliados en Normandía, a un grupo de soldados americanos se le encomienda una peligrosa misión: poner a salvo al soldado James Ryan. Los hombres de la patrulla del capitán John Miller deben arriesgar sus vidas para encontrar a este soldado, cuyos tres hermanos han muerto en la guerra. Lo único que se sabe del soldado Ryan es que se lanzó con su escuadrón de paracaidistas detrás de las líneas enemigas.


    General
    Format : AC-3
    Format/Info : Audio Coding 3
    File size : 771 MiB
    Duration : 2h 48mn
    Overall bit rate mode : Constant
    Overall bit rate : 640 Kbps

    Audio
    Format : AC-3
    Format/Info : Audio Coding 3
    Mode extension : CM (complete main)
    Format settings, Endianness : Big
    Duration : 2h 48mn
    Bit rate mode : Constant
    Bit rate : 640 Kbps
    Channel(s) : 6 channels
    Channel positions : Front: L C R, Side: L R, LFE
    Sampling rate : 48.0 KHz
    Compression mode : Lossy
    Stream size : 771 MiB (100%)

    NOTA: Este audio fue extraido por mi del Blu-ray BD50. incluye subtítulos originales SUP
    Recuerden no citar el post y reporten link caidos por MP.


    ***Hidden content cannot be quoted.***
    gracias

  21. #46
    Miembro Junior Avatar de mailen2016
    Fecha de ingreso
    02 may, 16
    Ubicación
    tierra amarilla
    Edad
    34
    Mensajes
    12
    Última Actividad
    18/01/2017 @ 12:21
    Nacionalidad
    Chile

    Sexo
    Hombre

    Poder de reputación
    2

    Predeterminado Re: Saving Private Ryan (1998) Solo Audio Latino [AC3 5.1] [Extraído del Blu-ray]

    Cita Iniciado por crack20 Ver mensaje


    SINOPSIS
    En la Segunda Guerra Mundial (1939-1945). Tras el desembarco de los Aliados en Normandía, a un grupo de soldados americanos se le encomienda una peligrosa misión: poner a salvo al soldado James Ryan. Los hombres de la patrulla del capitán John Miller deben arriesgar sus vidas para encontrar a este soldado, cuyos tres hermanos han muerto en la guerra. Lo único que se sabe del soldado Ryan es que se lanzó con su escuadrón de paracaidistas detrás de las líneas enemigas.


    General
    Format : AC-3
    Format/Info : Audio Coding 3
    File size : 771 MiB
    Duration : 2h 48mn
    Overall bit rate mode : Constant
    Overall bit rate : 640 Kbps

    Audio
    Format : AC-3
    Format/Info : Audio Coding 3
    Mode extension : CM (complete main)
    Format settings, Endianness : Big
    Duration : 2h 48mn
    Bit rate mode : Constant
    Bit rate : 640 Kbps
    Channel(s) : 6 channels
    Channel positions : Front: L C R, Side: L R, LFE
    Sampling rate : 48.0 KHz
    Compression mode : Lossy
    Stream size : 771 MiB (100%)

    NOTA: Este audio fue extraido por mi del Blu-ray BD50. incluye subtítulos originales SUP
    Recuerden no citar el post y reporten link caidos por MP.


    ***Hidden content cannot be quoted.***
    thank

  22. #47
    Gran Miembro
    Avatar de serenota
    Fecha de ingreso
    29 dic, 15
    Edad
    26
    Mensajes
    421
    Última Actividad
    Ayer @ 22:43
    Nacionalidad
    Argentina

    Sexo
    Hombre

    Poder de reputación
    3

    Predeterminado Re: Saving Private Ryan (1998) Solo Audio Latino [AC3 5.1] [Extraído del Blu-ray]

    gracias

  23. #48
    Gran Miembro
    Avatar de agustin699
    Fecha de ingreso
    25 jul, 16
    Edad
    25
    Mensajes
    117
    Última Actividad
    22/09/2017 @ 00:45
    Nacionalidad
    Mexico

    Sexo
    Hombre

    Poder de reputación
    2

    Predeterminado Re: Saving Private Ryan (1998) Solo Audio Latino [AC3 5.1] [Extraído del Blu-ray]


  24. #49
    Gran Miembro
    Avatar de alcides2017
    Fecha de ingreso
    05 feb, 17
    Mensajes
    129
    Última Actividad
    10/09/2017 @ 08:02
    Nacionalidad
    Spain

    Sexo
    Hombre

    Poder de reputación
    1

    Predeterminado Re: Saving Private Ryan (1998) Solo Audio Latino [AC3 5.1] [Extraído del Blu-ray]

    hola gracias

  25. #50
    Gran Miembro
    Avatar de izanagisusano
    Fecha de ingreso
    23 nov, 15
    Mensajes
    150
    Última Actividad
    18/09/2017 @ 16:03
    Nacionalidad
    Peru

    Sexo
    Hombre

    Poder de reputación
    2

    Predeterminado Re: Saving Private Ryan (1998) Solo Audio Latino [AC3 5.1] [Extraído del Blu-ray]

    GRACIAS POR EL APORTE

Información de tema

Usuarios viendo este tema

Actualmente hay 1 usuarios viendo este tema. (0 miembros y 1 visitantes)

Temas similares

  1. Respuestas: 17
    Último mensaje: 08/09/2017, 01:14
  2. Respuestas: 343
    Último mensaje: 22/02/2017, 19:50
  3. Respuestas: 11
    Último mensaje: 04/02/2017, 19:50
  4. Private Number. Official Trailer #1 (2015)
    Por HemoAr en el foro Trailers de Películas de los próximos estrenos!
    Respuestas: 1
    Último mensaje: 08/04/2015, 15:59

Miembros que han leído este tema: 23

Marcadores

Permisos de publicación

  • No puedes crear nuevos temas
  • No puedes responder temas
  • No puedes subir archivos adjuntos
  • No puedes editar tus mensajes
  •