Resultados 1 al 25 de 134

Tema: Imperium (2016) 1080p WEB-DL Inglés [Subt. Esp] (Thriller)

Ver modo hilado

Mensaje anterior Mensaje anterior   Próximo mensaje Próximo mensaje
  1. #1
    Dohko de Libra

    Avatar de HemoAr
    Fecha de ingreso
    08 mar, 13
    Ubicación
    Rozan
    Edad
    34
    Mensajes
    8,990
    Última Actividad
    @
    Nacionalidad
    Mexico

    Sexo
    Hombre

    Poder de reputación
    270

    Predeterminado Imperium (2016) 1080p WEB-DL Inglés [Subt. Esp] (Thriller)







    Título original: Imperium
    Año: 2016
    Duración: 109 min.
    País: Estados Unidos
    Director: Daniel Ragussis
    Reparto: Daniel Radcliffe, Toni Collette, Burn Gorman, Nestor Carbonell, Sam Trammell, Chris Sullivan, Tracy Letts, Linc Hand, Seth Numrich, Pawel Szajda, Jasson Finney, Devin Druid, Scott Christopher Kelly, Jennifer Marshall, Michael Aaron Milligan
    Productora: Atomic Features / Green-Light International / Sculptor Media
    Género: Thriller | Basado en hechos reales. Policíaco

    Sinopsis: Un agente del FBI trabaja encubierto para encontrar y detener a un grupo de personas que creen en la supremacía blanca. Este grupo es peligroso y buscará el caos por medio de una bomba sucia. La historia está basada en la vida de Michael German, quien pasó muchos años dentro de grupos neo-Nazis estadounidenses.


























    General

    Format : Matroska
    Format version : Version 4 / Version 2
    File size : 3.76 GiB
    Duration : 1h 48mn
    Overall bit rate : 4 958 Kbps
    Movie name : Imperium (2016) 1080p WEB-DL Inglés [Subt. Esp]
    Encoded date : UTC 2016-08-27 20:15:51
    Writing application : mkvmerge v8.3.0 ('Over the Horizon') 64bit
    Writing library : libebml v1.3.1 + libmatroska v1.4.2

    Video
    ID : 1
    Format : AVC
    Format/Info : Advanced Video Codec
    Format profile : High@L4.0
    Format settings, CABAC : Yes
    Format settings, ReFrames : 5 frames
    Codec ID : V_MPEG4/ISO/AVC
    Duration : 1h 48mn
    Bit rate : 4 476 Kbps
    Width : 1 908 pixels
    Height : 792 pixels
    Display aspect ratio : 2.40:1
    Frame rate mode : Constant
    Frame rate : 23.976 fps
    Color space : YUV
    Chroma subsampling : 4:2:0
    Bit depth : 8 bits
    Scan type : Progressive
    Bits/(Pixel*Frame) : 0.124
    Stream size : 3.39 GiB (90%)
    Title : Imperium (2016) 1080p WEB-DL Inglés [Subt. Esp]
    Language : English
    Default : Yes
    Forced : No

    Audio #1
    ID : 2
    Format : AC-3
    Format/Info : Audio Coding 3
    Mode extension : CM (complete main)
    Format settings, Endianness : Big
    Codec ID : A_AC3
    Duration : 1h 48mn
    Bit rate mode : Constant
    Bit rate : 384 Kbps
    Channel(s) : 6 channels
    Channel positions : Front: L C R, Side: L R, LFE
    Sampling rate : 48.0 KHz
    Bit depth : 16 bits
    Compression mode : Lossy
    Stream size : 298 MiB (8%)
    Title : AC3
    Language : English
    Default : Yes
    Forced : No

    Text
    ID : 3
    Format : UTF-8
    Codec ID : S_TEXT/UTF8
    Codec ID/Info : UTF-8 Plain Text
    Title : Subtitulos_Completos
    Language : Spanish
    Default : Yes
    Forced : No

    Menu
    00:00:00.000 : en:1
    00:01:43.000 : en:2
    00:12:10.000 : en:3
    00:20:42.000 : en:4
    00:30:31.000 : en:5
    00:43:00.000 : en:6
    00:53:34.000 : en:7
    01:04:55.000 : en:8
    01:14:51.000 : en:9
    01:24:17.000 : en:10
    01:33:40.000 : en:11
    01:42:07.000 : en:12








    Contraseña para extraer: www.club-hd.com

    Nota: Los archivos .rev no es necesario descargar al menos que algun .rar este dañado o que este eliminado







    Compra tu Membresía VIP y apoya a Club-HD!

    Click Aquí para más información.

    ATENCIÓN! Finalmente tenemos TODO el material de Club-HD disponible por Mega, enlaces 100% activos y online hoy









    Compra tu Membresía VIP y apoya a Club-HD!

    Click Aquí para más información.

    ATENCIÓN! Finalmente tenemos TODO el material de Club-HD disponible por Mega, enlaces 100% activos y online hoy









    1. Primero, deben estár registrados, sino no habrá manera de que puedan ver los Enlaces.

    2. Una vez registrados, sólo deben dejar un simple comentario de Siete (7) letras/carácteres mínimo.

    Con eso ya podrán ver los links sin ningún problema.

    Nota: Usamos este sistema para proteger los links de Club-HD, y hasta la fecha funciona muy bien.






    1. Primero, deben estár registrados, sino no habrá manera de que puedan ver los Enlaces.

    2. Una vez registrados, sólo deben dejar un simple comentario de Siete (7) letras/carácteres mínimo.

    Con eso ya podrán ver los links sin ningún problema.

    Nota: Usamos este sistema para proteger los links de Club-HD, y hasta la fecha funciona muy bien.

    Última edición por HemoAr; 09/09/2016 a las 20:49


    Uploaded.net, el filehost recomendado por Club-HD. Si piensan comprar una cuenta premium, pueden hacerlo desde el siguiente banner, de esta manera se ganarían el privilegio de que les resubamos cualquier aporte perdido de Club-HD!






  2. Los siguientes 13 Usuarios dieron Me Gusta a HemoAr por este Post:

    armyfan (29/08/2016),christian (27/08/2016),cripp (29/08/2016),darthritchie (27/08/2016),flujo (31/08/2016),garmenta (30/08/2016),Leo (28/08/2016),mat-one (17/02/2017),midala (01/09/2016),nelsedu (30/03/2017),parellanocl (27/08/2016),rockhowardsnk (03/09/2016),SUPERMARIO317 (24/11/2016)

Información de tema

Usuarios viendo este tema

Actualmente hay 1 usuarios viendo este tema. (0 miembros y 1 visitantes)

Temas similares

  1. Respuestas: 148
    Último mensaje: 19/05/2017, 15:31
  2. Manhattan Night (2016) 1080p WEB-DL Inglés [Subt. Esp] (Thriller)
    Por HemoAr en el foro Películas en 1080p
    Respuestas: 99
    Último mensaje: 04/04/2017, 01:50
  3. Respuestas: 160
    Último mensaje: 31/03/2017, 04:02
  4. Urge (2016) 1080p WEB-DL Inglés [Subt. Esp] (Thriller)
    Por HemoAr en el foro Películas en 1080p
    Respuestas: 71
    Último mensaje: 19/08/2016, 23:27
  5. Respuestas: 97
    Último mensaje: 04/07/2016, 13:41

Miembros que han leído este tema: 16

Marcadores

Permisos de publicación

  • No puedes crear nuevos temas
  • No puedes responder temas
  • No puedes subir archivos adjuntos
  • No puedes editar tus mensajes
  •