Página 1 de 2 12 ÚltimoÚltimo
Resultados 1 al 25 de 28

Tema: 13 Sins (2014) Solo Audio Latino [AC3 2.0] [Extraído del DVD]

  1. #1
    Dohko de Libra

    Avatar de HemoAr
    Fecha de ingreso
    08 mar, 13
    Ubicación
    Rozan
    Edad
    33
    Mensajes
    8,719
    Última Actividad
    @
    Nacionalidad
    Mexico

    Sexo
    Hombre

    Poder de reputación
    255

    Predeterminado 13 Sins (2014) Solo Audio Latino [AC3 2.0] [Extraído del DVD]




    Sinopsis

    Un hombre con muchas deudas recibe una misteriosa llamada telefónica que le anuncia que se encuentra participando en un programa de cámara oculta y que ganará una fortuna si completa las trece tareas que le plantearán. El hombre aceptará el desafío y se enfrentará a unas tareas que se complicarán a medida que las vaya completando. Remake de la película "13 game sayawng" (2006).

    Media Info

    General
    Format : AC-3
    Format/Info : Audio Coding 3
    File size : 127 MiB
    Duration : 1h 32mn 31s
    Overall bit rate mode : Constant
    Overall bit rate : 192 Kbps

    Audio
    Format : AC-3
    Format/Info : Audio Coding 3
    Mode extension : CM (complete main)
    Format settings, Endianness : Big
    Duration : 1h 32mn 31s
    Bit rate mode : Constant
    Bit rate : 192 Kbps
    Channel(s) : 2 channels
    Channel positions : Front: L R
    Sampling rate : 48.0 KHz
    Bit depth : 16 bits
    Compression mode : Lossy
    Stream size : 127 MiB (100%)



    Nota: Este audio fue extraido del DVD.






    1. Primero, deben estár si o si registrados, sino no habrá manera de que puedan ver los Enlaces.

    2. Una vez registrados, sólo deben dejar un simple comentario de Siete (7) letras/carácteres mínimo, o también pueden simplemente usar el logo de Descargando... -->

    Con eso ya podrán ver los links sin ningún problema.

    Nota: Usamos este sistema para proteger los links de Club-HD, y hasta la fecha funciona muy bien.


    Uploaded.net, el filehost recomendado por Club-HD. Si piensan comprar una cuenta premium, pueden hacerlo desde el siguiente banner, de esta manera se ganarían el privilegio de que les resubamos cualquier aporte perdido de Club-HD!






  2. Los siguientes 4 Usuarios dieron Me Gusta a HemoAr por este Post:

    akula1997 (22/02/2016),flaco_14 (22/02/2016),lusdora1107 (23/02/2016),richardgil1596 (29/02/2016)

  3. #2
    Miembro Junior Avatar de miguelchs
    Fecha de ingreso
    18 ene, 16
    Edad
    26
    Mensajes
    39
    Última Actividad
    19/05/2016 @ 13:38
    Nacionalidad
    Argentina

    Sexo
    Hombre

    Poder de reputación
    2

    Predeterminado Re: 13 Sins (2014) Solo Audio Latino [AC3 2.0] [Extraído del DVD]

    Gracias

  4. #3
    Miembro Destacado
    Avatar de flaco_14
    Fecha de ingreso
    25 may, 15
    Ubicación
    Agujero Gargantua
    Mensajes
    401
    Última Actividad
    @
    Nacionalidad
    Peru

    Sexo
    Hombre

    Poder de reputación
    8

    Predeterminado Re: 13 Sins (2014) Solo Audio Latino [AC3 2.0] [Extraído del DVD]

    Gracias master por el audio

  5. #4
    Miembro Destacado
    Avatar de JCAvila
    Fecha de ingreso
    07 sep, 12
    Edad
    37
    Mensajes
    2,762
    Última Actividad
    hoy @ 04:44
    Nacionalidad
    Mexico


    Poder de reputación
    9

    Predeterminado Re: 13 Sins (2014) Solo Audio Latino [AC3 2.0] [Extraído del DVD]

    gracias!

  6. #5
    Gran Miembro
    Avatar de Chokuelo
    Fecha de ingreso
    02 nov, 15
    Mensajes
    777
    Última Actividad
    hoy @ 14:08
    Nacionalidad
    United States

    Sexo
    Hombre

    Poder de reputación
    2

    Predeterminado Re: 13 Sins (2014) Solo Audio Latino [AC3 2.0] [Extraído del DVD]

    13 Sins

  7. #6
    Gran Miembro
    Avatar de quemero
    Fecha de ingreso
    30 ago, 15
    Mensajes
    373
    Última Actividad
    hoy @ 10:42
    Nacionalidad
    Bahamas

    Sexo
    Hombre

    Poder de reputación
    0

    Predeterminado Re: 13 Sins (2014) Solo Audio Latino [AC3 2.0] [Extraído del DVD]

    gracias

  8. #7
    Miembro VIP en Club-HD!
    Avatar de jalatino
    Fecha de ingreso
    16 dic, 15
    Mensajes
    482
    Última Actividad
    hoy @ 16:21
    Nacionalidad
    Argentina

    Sexo
    Hombre

    Poder de reputación
    2

    Predeterminado Re: 13 Sins (2014) Solo Audio Latino [AC3 2.0] [Extraído del DVD]

    Gracias

  9. #8
    Gran Miembro
    Avatar de akula1997
    Fecha de ingreso
    22 ene, 16
    Mensajes
    389
    Última Actividad
    05/08/2017 @ 15:18
    Nacionalidad
    Great Britain

    Sexo
    Hombre

    Poder de reputación
    2

    Predeterminado Re: 13 Sins (2014) Solo Audio Latino [AC3 2.0] [Extraído del DVD]

    Qué bueno!! Muchas gracias

  10. #9
    Gran Miembro
    Avatar de JavierFOX
    Fecha de ingreso
    16 nov, 14
    Mensajes
    394
    Última Actividad
    hoy @ 16:11
    Nacionalidad
    Colombia

    Sexo
    Hombre

    Poder de reputación
    0

    Predeterminado Re: 13 Sins (2014) Solo Audio Latino [AC3 2.0] [Extraído del DVD]

    Gracias..

  11. #10
    Gran Miembro
    Avatar de Kabinet
    Fecha de ingreso
    13 jun, 15
    Mensajes
    448
    Última Actividad
    04/09/2016 @ 03:43
    Nacionalidad
    Peru

    Sexo
    Hombre

    Poder de reputación
    3

    Predeterminado Re: 13 Sins (2014) Solo Audio Latino [AC3 2.0] [Extraído del DVD]

    grax

  12. #11
    Gran Miembro
    Avatar de licantropo
    Fecha de ingreso
    17 nov, 15
    Mensajes
    153
    Última Actividad
    02/08/2017 @ 20:57
    Nacionalidad
    France

    Sexo
    Hombre

    Poder de reputación
    2

    Predeterminado Re: 13 Sins (2014) Solo Audio Latino [AC3 2.0] [Extraído del DVD]

    gracias

  13. #12
    Gran Miembro
    Avatar de Arsalan
    Fecha de ingreso
    26 ago, 15
    Mensajes
    1,030
    Última Actividad
    hoy @ 16:28
    Nacionalidad
    Mexico

    Sexo
    Hombre

    Poder de reputación
    4

    Predeterminado Re: 13 Sins (2014) Solo Audio Latino [AC3 2.0] [Extraído del DVD]


  14. #13
    Gran Miembro
    Avatar de lusdora1107
    Fecha de ingreso
    19 sep, 15
    Mensajes
    195
    Última Actividad
    hoy @ 05:58
    Nacionalidad
    Colombia

    Sexo
    Mujer

    Poder de reputación
    2

    Predeterminado Re: 13 Sins (2014) Solo Audio Latino [AC3 2.0] [Extraído del DVD]

    gracias amigo

  15. #14
    Gran Miembro
    Avatar de mdenov
    Fecha de ingreso
    08 abr, 15
    Mensajes
    263
    Última Actividad
    07/08/2017 @ 19:16
    Nacionalidad
    Argentina

    Sexo
    Hombre

    Poder de reputación
    3

    Predeterminado Re: 13 Sins (2014) Solo Audio Latino [AC3 2.0] [Extraído del DVD]

    muchas gracias!

  16. #15
    Gran Miembro
    Avatar de ameluna
    Fecha de ingreso
    19 ago, 14
    Edad
    50
    Mensajes
    287
    Última Actividad
    Ayer @ 18:35
    Nacionalidad
    Peru

    Sexo
    Hombre

    Poder de reputación
    4

    Predeterminado Re: 13 Sins (2014) Solo Audio Latino [AC3 2.0] [Extraído del DVD]

    Gracias por el audio.

  17. #16
    Miembro Junior Avatar de reinaldoku
    Fecha de ingreso
    22 feb, 16
    Mensajes
    7
    Última Actividad
    03/06/2017 @ 04:32
    Nacionalidad
    Mexico

    Sexo
    Hombre

    Poder de reputación
    2

    Post Re: 13 Sins (2014) Solo Audio Latino [AC3 2.0] [Extraído del DVD]

    muchas gracias

  18. #17
    Gran Miembro
    Avatar de cesarin21011964
    Fecha de ingreso
    23 jul, 15
    Ubicación
    Bogotá, Colombia
    Mensajes
    1,132
    Última Actividad
    hoy @ 12:09
    Nacionalidad
    Colombia

    Sexo
    Hombre

    Poder de reputación
    4

    Predeterminado Re: 13 Sins (2014) Solo Audio Latino [AC3 2.0] [Extraído del DVD]

    ...gracias.

  19. #18
    Gran Miembro
    Avatar de jamett2
    Fecha de ingreso
    03 oct, 15
    Mensajes
    185
    Última Actividad
    01/07/2016 @ 22:06
    Nacionalidad
    Chile

    Sexo
    Hombre

    Poder de reputación
    2

    Predeterminado Re: 13 Sins (2014) Solo Audio Latino [AC3 2.0] [Extraído del DVD]

    Muchas gracias

  20. #19
    Miembro Junior Avatar de richardgil1596
    Fecha de ingreso
    29 feb, 16
    Edad
    21
    Mensajes
    1
    Última Actividad
    29/02/2016 @ 23:39
    Nacionalidad
    Guatemala

    Sexo
    Hombre

    Poder de reputación
    2

    Predeterminado Re: 13 Sins (2014) Solo Audio Latino [AC3 2.0] [Extraído del DVD]

    Cita Iniciado por HemoAr Ver mensaje



    Sinopsis

    Un hombre con muchas deudas recibe una misteriosa llamada telefónica que le anuncia que se encuentra participando en un programa de cámara oculta y que ganará una fortuna si completa las trece tareas que le plantearán. El hombre aceptará el desafío y se enfrentará a unas tareas que se complicarán a medida que las vaya completando. Remake de la película "13 game sayawng" (2006).

    Media Info

    General
    Format : AC-3
    Format/Info : Audio Coding 3
    File size : 127 MiB
    Duration : 1h 32mn 31s
    Overall bit rate mode : Constant
    Overall bit rate : 192 Kbps

    Audio
    Format : AC-3
    Format/Info : Audio Coding 3
    Mode extension : CM (complete main)
    Format settings, Endianness : Big
    Duration : 1h 32mn 31s
    Bit rate mode : Constant
    Bit rate : 192 Kbps
    Channel(s) : 2 channels
    Channel positions : Front: L R
    Sampling rate : 48.0 KHz
    Bit depth : 16 bits
    Compression mode : Lossy
    Stream size : 127 MiB (100%)



    Nota: Este audio fue extraido del DVD.




    ***Hidden content cannot be quoted.***
    Gracias por el aporte

  21. #20
    Gran Miembro
    Avatar de antjtg86
    Fecha de ingreso
    26 may, 14
    Edad
    31
    Mensajes
    555
    Última Actividad
    20/06/2016 @ 16:06
    Nacionalidad
    Mexico

    Sexo
    Hombre

    Poder de reputación
    4

    Predeterminado Re: 13 Sins (2014) Solo Audio Latino [AC3 2.0] [Extraído del DVD]

    gracias

  22. #21
    Miembro
    Avatar de Daxxxid
    Fecha de ingreso
    19 ene, 15
    Mensajes
    93
    Última Actividad
    09/08/2017 @ 18:09
    Nacionalidad
    Argentina

    Sexo
    Hombre

    Poder de reputación
    3

    Predeterminado Re: 13 Sins (2014) Solo Audio Latino [AC3 2.0] [Extraído del DVD]

    Gracias!!!!

  23. #22
    Gran Miembro
    Avatar de Ema_RP25
    Fecha de ingreso
    24 ago, 15
    Mensajes
    271
    Última Actividad
    Ayer @ 17:02
    Nacionalidad
    Argentina

    Sexo
    Hombre

    Poder de reputación
    3

    Predeterminado Re: 13 Sins (2014) Solo Audio Latino [AC3 2.0] [Extraído del DVD]


  24. #23
    Gran Miembro
    Avatar de jpdiazu
    Fecha de ingreso
    08 feb, 15
    Mensajes
    381
    Última Actividad
    hoy @ 13:34
    Nacionalidad
    Mexico

    Sexo
    Hombre

    Poder de reputación
    3

    Predeterminado Re: 13 Sins (2014) Solo Audio Latino [AC3 2.0] [Extraído del DVD]


  25. #24
    Gran Miembro
    Avatar de eliceo45036
    Fecha de ingreso
    25 sep, 15
    Mensajes
    746
    Última Actividad
    19/08/2017 @ 11:07
    Nacionalidad
    Argentina

    Sexo
    Hombre

    Poder de reputación
    2

    Predeterminado Re: 13 Sins (2014) Solo Audio Latino [AC3 2.0] [Extraído del DVD]


  26. #25
    Gran Miembro
    Avatar de adriano2k6
    Fecha de ingreso
    04 may, 15
    Mensajes
    499
    Última Actividad
    15/08/2017 @ 20:58
    Nacionalidad
    Bolivia

    Sexo
    Hombre

    Poder de reputación
    3

    Predeterminado Re: 13 Sins (2014) Solo Audio Latino [AC3 2.0] [Extraído del DVD]

    gracias

Información de tema

Usuarios viendo este tema

Actualmente hay 1 usuarios viendo este tema. (0 miembros y 1 visitantes)

Temas similares

  1. Respuestas: 37
    Último mensaje: 22/10/2016, 03:14
  2. Rio 2 (2014) solo audio latino [AC3 2.0] (extraído del DVD)
    Por jovivaver en el foro Solo Audios Latinos.
    Respuestas: 19
    Último mensaje: 29/08/2016, 12:45
  3. Respuestas: 45
    Último mensaje: 21/07/2016, 22:53
  4. Top Five (2014) Solo Audio Latino [AC3 5.1] [Extraído del DVD]
    Por HemoAr en el foro Solo Audios Latinos.
    Respuestas: 23
    Último mensaje: 29/04/2016, 03:41
  5. 13 Sins (2014) 720p BDRip Audio Inglés (Terror. Thriller)
    Por Max en el foro Películas en 720p
    Respuestas: 206
    Último mensaje: 31/10/2015, 21:11

Miembros que han leído este tema: 5

Marcadores

Permisos de publicación

  • No puedes crear nuevos temas
  • No puedes responder temas
  • No puedes subir archivos adjuntos
  • No puedes editar tus mensajes
  •