Banner Uploaded Brady

Página 1 de 2 12 ÚltimoÚltimo
Resultados 1 al 25 de 27

Tema: Cambiar FPS de un Audio!

  1. #1
    Súper Moderador
    Avatar de Joker
    Fecha de ingreso
    27 ago, 12
    Ubicación
    Arkham Asylum
    Mensajes
    1,343
    Última Actividad
    @
    Nacionalidad
    Mexico
    Sexo
    Hombre

    Poder de reputación
    62

    Cool Cambiar FPS de un Audio!


    Buen día compañeros!!!

    Antes que nada este método se utiliza cuando tenemos un video a determinados FPS (Ejemplo: Sinister 2 BDRip a 24.000 FPS) y queremos sincronizarlo con un audio que está a diferentes FPS (Ejemplo: Sinister 2 DVD a 23.976 FPS). Esto lo podemos saber con el MediaInfo del video ya que el audio no nos lo dirá…

    1) Necesitaremos el programa UsEac3to ---> Aquí la descarga: UsEac3to
    Ruta: eac3to_v3.27+UsEac3to_v1.0.0\eac3to\UsEac3to ---> Ejecutamos UsEac3to.exe (No se instalara)

    2) Una vez ejecutado el programa abrimos el audio en “Input File" o simplemente arrastrándolo hacia la ventana del programa, nos aparecerá una ventana “CMD” de Windows, es normal.

    3) Ya abierto el audio nos aparecerá lo siguiente; Yo señale con recuadros el Formato del audio y los Kbps ya que eso no lo quiero modificar:



    4) Lo primero a seleccionar será el Formato de Origen y el Formato de salida (En este caso de AC3 <--> AC3. Lo seleccionamos en donde Dice “Track Input and Output Format”, el primer recuadro es el formato origen y el segundo el de salida, una vez seleccionado damos Click en “Add” y se agregara un comando (%_.ac3) en el recuadro de abajo (COMMAND LINE PARAMETERS)



    5) El siguiente comando será el de los Kbps, en mi caso 448 Kbps. En “Frequent Parameters” se desplegara una lista de opciones, seleccionamos 448, Click en “Add” y se agregara otro comando (En las opciones solo viene a 448 kbps pero este se puede modificar manualmente una vez agregado).



    6) Ahora tenemos que agregar los FPS a los que se encuentra el audio Original, en mi caso 23.976. En “Frequent Parameters”, en el listado, seleccionamos “23.976”, Click en “Add” y se agregara el comando (También se puede modificar manualmente).



    7) El Cuarto y último comando será seleccionar los FPS a los que queremos cambiar nuestro Audio. En “Frequent Parameters”, en el listado, seleccionamos “changeTo23.976”, Click en “Add” y se agregara el comando.



    8) Modificaremos el ultimo comando agregado manualmente, en mi caso a 24.000:



    9) Listo, ya tendremos los 4 comandos agregados, ahora solo falta correr el programa para que haga el Proceso, esto haciendo Click en “RUN CL”.



    10) Otra vez nos saldrá una ventana “CMD” en la que podremos ver lo que está haciendo el programa con el Audio de salida (Changing FPS from 23.976 to 24.000, AC3, 448 kbps) y el Porcentaje del Proceso:



    11) Listo, ya solo falta esperar a que termine, dura de 10 a 15 minutos. Nuestro audio final quedara por default en la ubicación donde teníamos el Original. Dicho audio ahora lo podemos sincronizar con el video con su respectivo Bitrate (En este caso -21000)…

    Solo como ejemplo porque ya existe esta película en Dual audio en el Club y el Audio latino a 24.000 FPS aportado por MDCV1721

    νιsιтα мι ρσsт ∂є sтαη lєє нα¢ιєη∂σ ¢lι¢ αqυι : ----> Cameos de "Stan Lee" en las Películas y Series de Marvel!!!


    "υηα νєz qυє мιяαs α тυ αlяє∂є∂σя тє ρяєgυηтαs sι lє нαяιαs υη ƒανσя α lα sσ¢ιє∂α∂ ∂єsнα¢ιéη∂σтє ∂є тσ∂αs єsαs ρєяsσηαs"



  2. Los siguientes 17 Usuarios dieron Me Gusta a Joker por este Post:

    Bisshop69 (13/02/2016),crack20 (23/01/2018),Doctor Jason (19/01/2016),Flaco (18/01/2016),Frankqoo (09/04/2018),HemoAr (18/01/2016),LAPA77 (08/04/2018),Leo (18/01/2016),Max (13/02/2016),MDCV1721 (20/01/2016),Nosferatu (21/01/2016),PsyZkf (12/07/2018),rammstein1984 (18/01/2016),resplandor (02/03/2018),Revolver (07/12/2016),Thor_Ragnarok93 (06/01/2018),Uziel (20/04/2017)

  3. #2
    Miembro Destacado
    Avatar de psp_pandora
    Fecha de ingreso
    28 dic, 15
    Edad
    32
    Mensajes
    503
    Última Actividad
    14/07/2018 @ 00:41
    Nacionalidad
    Mexico
    Sexo
    Hombre

    Poder de reputación
    3

    Predeterminado Re: Cambiar FPS de un Audio!

    muchas gracias, yo uso eac3to que no trae interfaces , excelente aporte, saludos.

  4. Los siguientes 3 Usuarios dieron Me Gusta a psp_pandora por este Post:

    Flaco (18/01/2016),gonzo86 (07/12/2016),Joker (29/01/2016)

  5. #3
    Colaborador de Club-HD
    Avatar de clasaase
    Fecha de ingreso
    03 sep, 12
    Ubicación
    Chile
    Mensajes
    1,917
    Última Actividad
    @
    Nacionalidad
    Chile
    Sexo
    Hombre

    Poder de reputación
    12

    Predeterminado Re: Cambiar FPS de un Audio!

    Gracias por el tuto, uso el programa, pero siempre me cabeceé al cambiar el audio...Ahora en adelante ya sabre como es.

    Saludos amigo

  6. Los siguientes 4 Usuarios dieron Me Gusta a clasaase por este Post:

    Flaco (18/01/2016),Joker (29/01/2016),Max (13/02/2016),Nosferatu (21/01/2016)

  7. #4
    Dohko de Libra

    Avatar de HemoAr
    Fecha de ingreso
    08 mar, 13
    Ubicación
    Rozan
    Edad
    34
    Mensajes
    9,641
    Última Actividad
    @
    Nacionalidad
    Mexico
    Sexo
    Hombre

    Poder de reputación
    381

    Predeterminado Re: Cambiar FPS de un Audio!

    Excelente Yoker eres el P.... Amo

    Con esto se revela otro secreto mas del tercer milenio ya mismo lo pruebo con un audio que tengo



    Uploaded.net, el filehost recomendado por Club-HD. Si piensan comprar una cuenta premium, pueden hacerlo desde el siguiente banner, de esta manera se ganarían el privilegio de que les resubamos cualquier aporte perdido de Club-HD!




  8. Los siguientes 5 Usuarios dieron Me Gusta a HemoAr por este Post:

    Doctor Jason (19/01/2016),Flaco (18/01/2016),Joker (29/01/2016),Max (13/02/2016),Nosferatu (21/01/2016)

  9. #5
    Uploader
    Avatar de Flaco
    Fecha de ingreso
    25 may, 15
    Ubicación
    Lima, Perú
    Mensajes
    523
    Última Actividad
    @
    Nacionalidad
    Peru
    Sexo
    Hombre

    Poder de reputación
    15

    Predeterminado Re: Cambiar FPS de un Audio!

    Gracias TheJoker querido, buen tutorial para aquellos que estamos mas perdidos en esto de los audios, me incluyo . A ver si también existe un tuto de como estirar las peliculas que vienen con franjas negras originalmente, aunque dudo mucho que lo haiga .Gracias de nuevo

  10. Los siguientes 2 Usuarios dieron Me Gusta a Flaco por este Post:

    Joker (29/01/2016),Nosferatu (21/01/2016)

  11. #6
    Leo
    Avatar de Leo
    Fecha de ingreso
    28 ago, 12
    Mensajes
    2,976
    Última Actividad
    @
    Nacionalidad
    Argentina

    Poder de reputación
    28

    Predeterminado Re: Cambiar FPS de un Audio!

    Muy buen tuto Yaga


    Hey you, dont tell me theres no hope at all
    together we stand, divided we fall...

  12. Los siguientes 4 Usuarios dieron Me Gusta a Leo por este Post:

    Doctor Jason (19/01/2016),Flaco (18/01/2016),Joker (29/01/2016),Nosferatu (21/01/2016)

  13. #7
    Miembro Destacado
    Avatar de rammstein1984
    Fecha de ingreso
    24 oct, 12
    Edad
    33
    Mensajes
    625
    Última Actividad
    02/06/2018 @ 02:03
    Nacionalidad
    Germany
    Sexo
    Hombre

    Poder de reputación
    7

    Predeterminado Re: Cambiar FPS de un Audio!

    Excelente amigo muy buen tutorial ojala algun dia un compañero o uno de los master haga un tutorial de como sincronizar un audio normal a extendido, es decir un audio normal para un movie extendida

  14. Los siguientes 3 Usuarios dieron Me Gusta a rammstein1984 por este Post:

    darth armand (30/11/2016),Flaco (18/01/2016),Joker (29/01/2016)

  15. #8
    antes ⚡Nacho

    Avatar de El Macho ♂
    Fecha de ingreso
    29 ago, 12
    Ubicación
    Chile
    Edad
    27
    Mensajes
    697
    Última Actividad
    @
    Nacionalidad
    Chile
    Sexo
    Hombre

    Poder de reputación
    49

    Predeterminado Re: Cambiar FPS de un Audio!

    excelente. Gracias por el tutorial +10 a no aqui no es jajajajaja

  16. Los siguientes 2 Usuarios dieron Me Gusta a El Macho ♂ por este Post:

    Joker (29/01/2016),Nosferatu (21/01/2016)

  17. #9
    Súper Loco
    Avatar de Loco
    Fecha de ingreso
    31 ago, 12
    Ubicación
    En mi locura
    Mensajes
    1,478
    Última Actividad
    @
    Nacionalidad
    Peru
    Sexo
    Hombre

    Poder de reputación
    36

    Predeterminado Re: Cambiar FPS de un Audio!

    Cita Iniciado por rammstein1984 Ver mensaje
    Excelente amigo muy buen tutorial ojala algun dia un compañero o uno de los master haga un tutorial de como sincronizar un audio normal a extendido, es decir un audio normal para un movie extendida
    Compadre eso si es mas tranca, en este caso se tiene que agregar las partes en Ingles al audio latino

    es una chambaza compa


    Uploaded.net, el filehost recomendado por Club-HD. Si piensan comprar una cuenta premium, pueden hacerlo desde el siguiente banner, de esta manera se ganarían el privilegio de que les resubamos cualquier aporte perdido de Club-HD!




  18. Los siguientes 5 Usuarios dieron Me Gusta a Loco por este Post:

    Flaco (18/01/2016),HemoAr (18/01/2016),Joker (29/01/2016),Max (13/02/2016),Nosferatu (21/01/2016)

  19. #10
    Súper Moderador
    Avatar de Joker
    Fecha de ingreso
    27 ago, 12
    Ubicación
    Arkham Asylum
    Mensajes
    1,343
    Última Actividad
    @
    Nacionalidad
    Mexico
    Sexo
    Hombre

    Poder de reputación
    62

    Predeterminado Re: Cambiar FPS de un Audio!

    Cita Iniciado por flaco_14 Ver mensaje
    Gracias TheJoker querido, buen tutorial para aquellos que estamos mas perdidos en esto de los audios, me incluyo . A ver si también existe un tuto de como estirar las peliculas que vienen con franjas negras originalmente, aunque dudo mucho que lo haiga .Gracias de nuevo
    Flaco no me digas que lo que quieres hacer es esto (Solo que con una película que aun tiene Franjas Negras):

    Original (1920 x 800, porque ya se le quitaron las franjas Negras):


    "Estirada" (1920 x 1080, upscale de la 1920 x 800):

    νιsιтα мι ρσsт ∂є sтαη lєє нα¢ιєη∂σ ¢lι¢ αqυι : ----> Cameos de "Stan Lee" en las Películas y Series de Marvel!!!


    "υηα νєz qυє мιяαs α тυ αlяє∂є∂σя тє ρяєgυηтαs sι lє нαяιαs υη ƒανσя α lα sσ¢ιє∂α∂ ∂єsнα¢ιéη∂σтє ∂є тσ∂αs єsαs ρєяsσηαs"



  20. Los siguientes 4 Usuarios dieron Me Gusta a Joker por este Post:

    Flaco (18/01/2016),HemoAr (18/01/2016),Max (13/02/2016),Nosferatu (21/01/2016)

  21. #11
    Miembro Destacado
    Avatar de rammstein1984
    Fecha de ingreso
    24 oct, 12
    Edad
    33
    Mensajes
    625
    Última Actividad
    02/06/2018 @ 02:03
    Nacionalidad
    Germany
    Sexo
    Hombre

    Poder de reputación
    7

    Predeterminado Re: Cambiar FPS de un Audio!

    Cita Iniciado por Loco Ver mensaje
    Compadre eso si es mas tranca, en este caso se tiene que agregar las partes en Ingles al audio latino

    es una chambaza compa
    Claro que si compañero es una gran chingadera de trabajo creo le estube solicitando Help al master IACC y el me apoyo en un chingon audio que tengo que todabia no e podido adaptar a una gran movie que poseo por falta de time en fin amigo ojala algun dia no muy lejano pueda o vea como se hace el proceso facil y correctamente, salu2 bro

  22. Los siguientes 3 Usuarios dieron Me Gusta a rammstein1984 por este Post:

    Joker (29/01/2016),Max (13/02/2016),Nosferatu (21/01/2016)

  23. #12
    Uploader
    Avatar de Flaco
    Fecha de ingreso
    25 may, 15
    Ubicación
    Lima, Perú
    Mensajes
    523
    Última Actividad
    @
    Nacionalidad
    Peru
    Sexo
    Hombre

    Poder de reputación
    15

    Predeterminado Re: Cambiar FPS de un Audio!

    Cita Iniciado por TheJoker Ver mensaje
    Flaco no me digas que lo que quieres hacer es esto (Solo que con una película que aun tiene Franjas Negras):

    Original (1920 x 800, porque ya se le quitaron las franjas Negras):


    "Estirada" (1920 x 1080, upscale de la 1920 x 800):

    , no se porque pero todos lo confunden con esto que acabas de poner mi amigo ,pero eso lo sabe hasta un niño de primaria lo que me refería era a las peliculas las cuales tienen franjas negras y no existe opción a estirarlas con el Vlc Player esa era mi inquietud y si existen programas para poder estirarlo

  24. Los siguientes Usuarios dieron Me Gusta a Flaco por este Post:

    Joker (29/01/2016)

  25. #13
    Doctor Jason
    Avatar de Doctor Jason
    Fecha de ingreso
    01 sep, 12
    Ubicación
    Buenos Aires
    Mensajes
    2,407
    Última Actividad
    @
    Nacionalidad
    Argentina
    Sexo
    Hombre

    Poder de reputación
    78

    Predeterminado Re: Cambiar FPS de un Audio!

    Muy Bueno Yaguita!!!

    Yo cuando necesito hacer esto uso el "MeGUI", que además es muy sencillo de utilizar.

  26. Los siguientes 2 Usuarios dieron Me Gusta a Doctor Jason por este Post:

    Joker (29/01/2016),Nosferatu (21/01/2016)

  27. #14
    Súper Moderador
    Avatar de Nosferatu
    Fecha de ingreso
    31 ago, 12
    Ubicación
    Welcome to Hell!!
    Edad
    41
    Mensajes
    2,287
    Última Actividad
    Ayer @ 19:24
    Nacionalidad
    El Salvador
    Sexo
    Hombre

    Poder de reputación
    47

    Predeterminado Re: Cambiar FPS de un Audio!

    Que excelente tuto mi querido Yaga, a muchos nos servirá!!!

    Grande Yaga!!!

    Cita Iniciado por flaco_14 Ver mensaje
    Gracias TheJoker querido, buen tutorial para aquellos que estamos mas perdidos en esto de los audios, me incluyo . A ver si también existe un tuto de como estirar las peliculas que vienen con franjas negras originalmente, aunque dudo mucho que lo haiga .Gracias de nuevo
    Flaco mi viejo, Creo que eso no existe aun, bueno Creo, sinceramente lo único que yo se que podes hacer es hacer un Rippeo en la cual le quites dichas franjas, pero es demasiado trabajo para eso.

    Saludos Mortales!!!

    Este es el servidor usado y recomendados por Club-HD. Si piensan en comprar una cuenta premium, háganlo desde este Banners, de esta manera nos estarían ayudando a seguir con más y mejores aportes. Gracias!



  28. Los siguientes 4 Usuarios dieron Me Gusta a Nosferatu por este Post:

    Flaco (21/01/2016),HemoAr (21/01/2016),Joker (29/01/2016),Max (13/02/2016)

  29. #15
    Gran Miembro
    Avatar de chilenony
    Fecha de ingreso
    19 dic, 14
    Mensajes
    1,788
    Última Actividad
    Ayer @ 20:58
    Nacionalidad
    Chile
    Sexo
    Hombre

    Poder de reputación
    6

    Predeterminado Re: Cambiar FPS de un Audio!

    mi pregunta es la siguiente como podemos saber a cuantas fps corre un audio cuando no tenemos la info de este ....ya que poseo un audio y he tratado de sicronizarlo con un video con el mismo tiempo y se va desincronizando a medida que va corriendo el video

    Format : AC-3
    Format/Info : Audio Coding 3
    File size : 449 MiB
    Duration : 2h 20mn
    Overall bit rate mode : Constant
    Overall bit rate : 448 Kbps

    Audio
    Format : AC-3
    Format/Info : Audio Coding 3
    Mode extension : CM (complete main)
    Format settings, Endianness : Big
    Duration : 2h 20mn
    Bit rate mode : Constant
    Bit rate : 448 Kbps
    Channel(s) : 6 channels
    Channel positions : Front: L C R, Side: L R, LFE
    Sampling rate : 44.1 KHz
    Frame rate : 28.711 fps (1536 spf)
    Compression mode : Lossy
    Stream size : 449 MiB (100%)


    y la info del video es este

    Format : MPEG-4
    Format profile : Base Media
    Codec ID : isom (isom/avc1/iso2)
    File size : 3.99 GiB
    Duration : 2h 20mn
    Overall bit rate : 4 081 Kbps
    Movie name : The Karate Kid
    Performer : Harald Zwart
    Director : Harald Zwart
    Actor : Jaden Smith / Jackie Chan / Taraji P. Henson / Wenwen Han / Rongguang Yu / Zhensu Wu / Zhiheng Wang / Zhenwei Wang
    Screenplay by : Christopher Murphey / Robert Mark Kamen
    Producer : Jerry Weintraub / Will Smith / Jada Pinkett Smith / James Lassiter / Ken Stovitz
    Genre : Kids & Family
    ContentType : Short Film
    Recorded date : 2010
    Encoded date : UTC 2015-12-15 08:54:25
    Tagged date : UTC 2015-12-15 13:03:16
    Cover : Yes
    ContentRating : mpaa|PG|200|
    LongDescription : Work causes a single mother to move to China with her young son; in his new home, the boy embraces kung fu, taught to him by a master.

    Video
    ID : 1
    Format : AVC
    Format/Info : Advanced Video Codec
    Format profile : High@L4.1
    Format settings, CABAC : Yes
    Format settings, ReFrames : 5 frames
    Codec ID : avc1
    Codec ID/Info : Advanced Video Coding
    Duration : 2h 20mn
    Bit rate : 3 437 Kbps
    Maximum bit rate : 17.4 Mbps
    Width : 1 920 pixels
    Height : 800 pixels
    Display aspect ratio : 2.40:1
    Frame rate mode : Constant
    Frame rate : 23.976 (24000/1001) fps
    Color space : YUV
    Chroma subsampling : 4:2:0
    Bit depth : 8 bits
    Scan type : Progressive
    Bits/(Pixel*Frame) : 0.093
    Stream size : 3.36 GiB (84%)
    Writing library : x264 core 148 r2638 7599210
    Encoding settings : cabac=1 / ref=5 / deblock=1:-2:-2 / analyse=0x3:0x133 / me=umh / subme=11 / psy=1 / psy_rd=1.00:0.25 / mixed_ref=1 / me_range=32 / chroma_me=1 / trellis=2 / 8x8dct=1 / cqm=0 / deadzone=21,11 / fast_pskip=0 / chroma_qp_offset=-4 / threads=6 / lookahead_threads=1 / sliced_threads=0 / nr=0 / decimate=1 / interlaced=0 / bluray_compat=0 / constrained_intra=0 / bframes=4 / b_pyramid=2 / b_adapt=2 / b_bias=0 / direct=3 / weightb=1 / open_gop=0 / weightp=2 / keyint=240 / keyint_min=23 / scenecut=40 / intra_refresh=0 / rc_lookahead=60 / rc=2pass / mbtree=1 / bitrate=3437 / ratetol=1.0 / qcomp=0.60 / qpmin=0 / qpmax=69 / qpstep=4 / cplxblur=20.0 / qblur=0.5 / ip_ratio=1.40 / aq=1:1.00
    Language : English
    Encoded date : UTC 2015-12-15 08:54:25
    Tagged date : UTC 2015-12-15 08:56:43
    Menus : 3

    Audio
    ID : 2
    Format : AC-3
    Format/Info : Audio Coding 3
    Mode extension : CM (complete main)
    Format settings, Endianness : Big
    Codec ID : ac-3
    Duration : 2h 20mn
    Bit rate mode : Constant
    Bit rate : 640 Kbps
    Channel(s) : 6 channels
    Channel positions : Front: L C R, Side: L R, LFE
    Sampling rate : 48.0 KHz
    Frame rate : 31.250 fps (1536 spf)
    Bit depth : 16 bits
    Compression mode : Lossy
    Stream size : 641 MiB (16%)
    Title : Surround Sound / Surround Sound
    Language : English
    Default : Yes
    Alternate group : 1
    Encoded date : UTC 2015-12-15 08:56:08
    Tagged date : UTC 2015-12-15 08:56:43

  30. Los siguientes Usuarios dieron Me Gusta a chilenony por este Post:

    Joker (16/02/2016)

  31. #16
    Miembro Destacado
    Avatar de Bisshop69
    Fecha de ingreso
    31 ago, 12
    Mensajes
    351
    Última Actividad
    14/07/2018 @ 15:23
    Nacionalidad
    Argentina
    Sexo
    Hombre

    Poder de reputación
    6

    Predeterminado Re: Cambiar FPS de un Audio!

    Excelente, pero excelente tutorial!!! llevo tiempo intentando dar con eso, un abrazo!
    El Sabio Duda, el Tonto afirma...

  32. Los siguientes Usuarios dieron Me Gusta a Bisshop69 por este Post:

    Joker (16/02/2016)

  33. #17
    Admin
    Avatar de Max
    Fecha de ingreso
    08 ago, 12
    Mensajes
    4,807
    Última Actividad
    hoy @ 02:49
    Nacionalidad
    Japan
    Sexo
    Hombre

    Poder de reputación
    232

    Predeterminado Re: Cambiar FPS de un Audio!

    Extraordinario lo tuyo mi amigo! Ya lo estoy agregando a las pestañas de los tutos del Portal. Gracias mil querido Yaga.

    Cita Iniciado por chilenony Ver mensaje
    mi pregunta es la siguiente como podemos saber a cuantas fps corre un audio cuando no tenemos la info de este ....ya que poseo un audio y he tratado de sicronizarlo con un video con el mismo tiempo y se va desincronizando a medida que va corriendo el video

    Format : AC-3
    Format/Info : Audio Coding 3
    File size : 449 MiB
    Duration : 2h 20mn
    Overall bit rate mode : Constant
    Overall bit rate : 448 Kbps

    Audio
    Format : AC-3
    Format/Info : Audio Coding 3
    Mode extension : CM (complete main)
    Format settings, Endianness : Big
    Duration : 2h 20mn
    Bit rate mode : Constant
    Bit rate : 448 Kbps
    Channel(s) : 6 channels
    Channel positions : Front: L C R, Side: L R, LFE
    Sampling rate : 44.1 KHz
    Frame rate : 28.711 fps (1536 spf)
    Compression mode : Lossy
    Stream size : 449 MiB (100%)


    y la info del video es este

    Format : MPEG-4
    Format profile : Base Media
    Codec ID : isom (isom/avc1/iso2)
    File size : 3.99 GiB
    Duration : 2h 20mn
    Overall bit rate : 4 081 Kbps
    Movie name : The Karate Kid
    Performer : Harald Zwart
    Director : Harald Zwart
    Actor : Jaden Smith / Jackie Chan / Taraji P. Henson / Wenwen Han / Rongguang Yu / Zhensu Wu / Zhiheng Wang / Zhenwei Wang
    Screenplay by : Christopher Murphey / Robert Mark Kamen
    Producer : Jerry Weintraub / Will Smith / Jada Pinkett Smith / James Lassiter / Ken Stovitz
    Genre : Kids & Family
    ContentType : Short Film
    Recorded date : 2010
    Encoded date : UTC 2015-12-15 08:54:25
    Tagged date : UTC 2015-12-15 13:03:16
    Cover : Yes
    ContentRating : mpaa|PG|200|
    LongDescription : Work causes a single mother to move to China with her young son; in his new home, the boy embraces kung fu, taught to him by a master.

    Video
    ID : 1
    Format : AVC
    Format/Info : Advanced Video Codec
    Format profile : High@L4.1
    Format settings, CABAC : Yes
    Format settings, ReFrames : 5 frames
    Codec ID : avc1
    Codec ID/Info : Advanced Video Coding
    Duration : 2h 20mn
    Bit rate : 3 437 Kbps
    Maximum bit rate : 17.4 Mbps
    Width : 1 920 pixels
    Height : 800 pixels
    Display aspect ratio : 2.40:1
    Frame rate mode : Constant
    Frame rate : 23.976 (24000/1001) fps
    Color space : YUV
    Chroma subsampling : 4:2:0
    Bit depth : 8 bits
    Scan type : Progressive
    Bits/(Pixel*Frame) : 0.093
    Stream size : 3.36 GiB (84%)
    Writing library : x264 core 148 r2638 7599210
    Encoding settings : cabac=1 / ref=5 / deblock=1:-2:-2 / analyse=0x3:0x133 / me=umh / subme=11 / psy=1 / psy_rd=1.00:0.25 / mixed_ref=1 / me_range=32 / chroma_me=1 / trellis=2 / 8x8dct=1 / cqm=0 / deadzone=21,11 / fast_pskip=0 / chroma_qp_offset=-4 / threads=6 / lookahead_threads=1 / sliced_threads=0 / nr=0 / decimate=1 / interlaced=0 / bluray_compat=0 / constrained_intra=0 / bframes=4 / b_pyramid=2 / b_adapt=2 / b_bias=0 / direct=3 / weightb=1 / open_gop=0 / weightp=2 / keyint=240 / keyint_min=23 / scenecut=40 / intra_refresh=0 / rc_lookahead=60 / rc=2pass / mbtree=1 / bitrate=3437 / ratetol=1.0 / qcomp=0.60 / qpmin=0 / qpmax=69 / qpstep=4 / cplxblur=20.0 / qblur=0.5 / ip_ratio=1.40 / aq=1:1.00
    Language : English
    Encoded date : UTC 2015-12-15 08:54:25
    Tagged date : UTC 2015-12-15 08:56:43
    Menus : 3

    Audio
    ID : 2
    Format : AC-3
    Format/Info : Audio Coding 3
    Mode extension : CM (complete main)
    Format settings, Endianness : Big
    Codec ID : ac-3
    Duration : 2h 20mn
    Bit rate mode : Constant
    Bit rate : 640 Kbps
    Channel(s) : 6 channels
    Channel positions : Front: L C R, Side: L R, LFE
    Sampling rate : 48.0 KHz
    Frame rate : 31.250 fps (1536 spf)
    Bit depth : 16 bits
    Compression mode : Lossy
    Stream size : 641 MiB (16%)
    Title : Surround Sound / Surround Sound
    Language : English
    Default : Yes
    Alternate group : 1
    Encoded date : UTC 2015-12-15 08:56:08
    Tagged date : UTC 2015-12-15 08:56:43
    Yo te podrías ayudar, pero no tengo tiempo para nada . Ojala que algún buen amigo del Club se tome el tiempo necesario para guiarte.

    Saludos gente!


    Uploaded.net, el filehost recomendado por Club-HD. Si piensan comprar una cuenta premium, pueden hacerlo desde el siguiente banner, de esta manera se ganarían el privilegio de que les resubamos cualquier aporte perdido de Club-HD!



  34. Los siguientes Usuarios dieron Me Gusta a Max por este Post:

    Joker (16/02/2016)

  35. #18
    Súper Moderador
    Avatar de Joker
    Fecha de ingreso
    27 ago, 12
    Ubicación
    Arkham Asylum
    Mensajes
    1,343
    Última Actividad
    @
    Nacionalidad
    Mexico
    Sexo
    Hombre

    Poder de reputación
    62

    Predeterminado Re: Cambiar FPS de un Audio!

    Cita Iniciado por Max Ver mensaje
    Extraordinario lo tuyo mi amigo! Ya lo estoy agregando a las pestañas de los tutos del Portal. Gracias mil querido Yaga.
    Perfecto MAX!!! Para eso hacemos los tutoriales, ya lo vi en la pestaña ... Ojala que le sea util a muchos

    Saludos Master!!!

    Cita Iniciado por Max Ver mensaje
    Yo te podrías ayudar, pero no tengo tiempo para nada . Ojala que algún buen amigo del Club se tome el tiempo necesario para guiarte.

    Saludos gente!
    Yo no tengo idea Max, solo se los FPS cuando esta junto con el vídeo original porque el mediainfo lo da por si solo :S de ahí en mas no se como sacar a que FPS corre el audio si no le echábamos una mano al usuario
    νιsιтα мι ρσsт ∂є sтαη lєє нα¢ιєη∂σ ¢lι¢ αqυι : ----> Cameos de "Stan Lee" en las Películas y Series de Marvel!!!


    "υηα νєz qυє мιяαs α тυ αlяє∂є∂σя тє ρяєgυηтαs sι lє нαяιαs υη ƒανσя α lα sσ¢ιє∂α∂ ∂єsнα¢ιéη∂σтє ∂є тσ∂αs єsαs ρєяsσηαs"



  36. Los siguientes Usuarios dieron Me Gusta a Joker por este Post:

    HemoAr (16/02/2016)

  37. #19
    Gran Miembro
    Avatar de gonzo86
    Fecha de ingreso
    19 dic, 15
    Ubicación
    CDMX
    Edad
    31
    Mensajes
    446
    Última Actividad
    Ayer @ 23:53
    Nacionalidad
    Mexico
    Sexo
    Hombre

    Poder de reputación
    3

    Predeterminado Re: Cambiar FPS de un Audio!

    Gracias, no sabía como y ya lo he usado varias veces desde quelo aprendí aquí!!!

  38. Los siguientes Usuarios dieron Me Gusta a gonzo86 por este Post:

    Joker (09/12/2016)

  39. #20
    Gran Miembro
    Avatar de darth armand
    Fecha de ingreso
    28 ene, 16
    Edad
    22
    Mensajes
    196
    Última Actividad
    22/05/2017 @ 23:08
    Nacionalidad
    Mexico
    Sexo
    Hombre

    Poder de reputación
    0

    Predeterminado Re: Cambiar FPS de un Audio!

    tengo un audio a 28,711fps lo quiero cambiar a 23,976 como le hago es que no me deja

  40. #21
    Gran Miembro
    Avatar de gonzo86
    Fecha de ingreso
    19 dic, 15
    Ubicación
    CDMX
    Edad
    31
    Mensajes
    446
    Última Actividad
    Ayer @ 23:53
    Nacionalidad
    Mexico
    Sexo
    Hombre

    Poder de reputación
    3

    Predeterminado Re: Cambiar FPS de un Audio!

    Cita Iniciado por darth armand Ver mensaje
    tengo un audio a 28,711fps lo quiero cambiar a 23,976 como le hago es que no me deja
    Sigue los pasos con cuidado... siempre te permitira cambiarlo

  41. Los siguientes Usuarios dieron Me Gusta a gonzo86 por este Post:

    Uziel (25/05/2017)

  42. #22
    Miembro Destacado
    Avatar de Zontir
    Fecha de ingreso
    27 sep, 15
    Edad
    24
    Mensajes
    820
    Última Actividad
    13/07/2018 @ 07:35
    Nacionalidad
    Venezuela
    Sexo
    Hombre

    Poder de reputación
    3

    Predeterminado Re: Cambiar FPS de un Audio!

    Cita Iniciado por chilenony Ver mensaje
    mi pregunta es la siguiente como podemos saber a cuantas fps corre un audio cuando no tenemos la info de este ....ya que poseo un audio y he tratado de sicronizarlo con un video con el mismo tiempo y se va desincronizando a medida que va corriendo el video

    Format : AC-3
    Format/Info : Audio Coding 3
    File size : 449 MiB
    Duration : 2h 20mn
    Overall bit rate mode : Constant
    Overall bit rate : 448 Kbps

    Audio
    Format : AC-3
    Format/Info : Audio Coding 3
    Mode extension : CM (complete main)
    Format settings, Endianness : Big
    Duration : 2h 20mn
    Bit rate mode : Constant
    Bit rate : 448 Kbps
    Channel(s) : 6 channels
    Channel positions : Front: L C R, Side: L R, LFE
    Sampling rate : 44.1 KHz
    Frame rate : 28.711 fps (1536 spf)
    Compression mode : Lossy
    Stream size : 449 MiB (100%)


    y la info del video es este

    Format : MPEG-4
    Format profile : Base Media
    Codec ID : isom (isom/avc1/iso2)
    File size : 3.99 GiB
    Duration : 2h 20mn
    Overall bit rate : 4 081 Kbps
    Movie name : The Karate Kid
    Performer : Harald Zwart
    Director : Harald Zwart
    Actor : Jaden Smith / Jackie Chan / Taraji P. Henson / Wenwen Han / Rongguang Yu / Zhensu Wu / Zhiheng Wang / Zhenwei Wang
    Screenplay by : Christopher Murphey / Robert Mark Kamen
    Producer : Jerry Weintraub / Will Smith / Jada Pinkett Smith / James Lassiter / Ken Stovitz
    Genre : Kids & Family
    ContentType : Short Film
    Recorded date : 2010
    Encoded date : UTC 2015-12-15 08:54:25
    Tagged date : UTC 2015-12-15 13:03:16
    Cover : Yes
    ContentRating : mpaa|PG|200|
    LongDescription : Work causes a single mother to move to China with her young son; in his new home, the boy embraces kung fu, taught to him by a master.

    Video
    ID : 1
    Format : AVC
    Format/Info : Advanced Video Codec
    Format profile : High@L4.1
    Format settings, CABAC : Yes
    Format settings, ReFrames : 5 frames
    Codec ID : avc1
    Codec ID/Info : Advanced Video Coding
    Duration : 2h 20mn
    Bit rate : 3 437 Kbps
    Maximum bit rate : 17.4 Mbps
    Width : 1 920 pixels
    Height : 800 pixels
    Display aspect ratio : 2.40:1
    Frame rate mode : Constant
    Frame rate : 23.976 (24000/1001) fps
    Color space : YUV
    Chroma subsampling : 4:2:0
    Bit depth : 8 bits
    Scan type : Progressive
    Bits/(Pixel*Frame) : 0.093
    Stream size : 3.36 GiB (84%)
    Writing library : x264 core 148 r2638 7599210
    Encoding settings : cabac=1 / ref=5 / deblock=1:-2:-2 / analyse=0x3:0x133 / me=umh / subme=11 / psy=1 / psy_rd=1.00:0.25 / mixed_ref=1 / me_range=32 / chroma_me=1 / trellis=2 / 8x8dct=1 / cqm=0 / deadzone=21,11 / fast_pskip=0 / chroma_qp_offset=-4 / threads=6 / lookahead_threads=1 / sliced_threads=0 / nr=0 / decimate=1 / interlaced=0 / bluray_compat=0 / constrained_intra=0 / bframes=4 / b_pyramid=2 / b_adapt=2 / b_bias=0 / direct=3 / weightb=1 / open_gop=0 / weightp=2 / keyint=240 / keyint_min=23 / scenecut=40 / intra_refresh=0 / rc_lookahead=60 / rc=2pass / mbtree=1 / bitrate=3437 / ratetol=1.0 / qcomp=0.60 / qpmin=0 / qpmax=69 / qpstep=4 / cplxblur=20.0 / qblur=0.5 / ip_ratio=1.40 / aq=1:1.00
    Language : English
    Encoded date : UTC 2015-12-15 08:54:25
    Tagged date : UTC 2015-12-15 08:56:43
    Menus : 3

    Audio
    ID : 2
    Format : AC-3
    Format/Info : Audio Coding 3
    Mode extension : CM (complete main)
    Format settings, Endianness : Big
    Codec ID : ac-3
    Duration : 2h 20mn
    Bit rate mode : Constant
    Bit rate : 640 Kbps
    Channel(s) : 6 channels
    Channel positions : Front: L C R, Side: L R, LFE
    Sampling rate : 48.0 KHz
    Frame rate : 31.250 fps (1536 spf)
    Bit depth : 16 bits
    Compression mode : Lossy
    Stream size : 641 MiB (16%)
    Title : Surround Sound / Surround Sound
    Language : English
    Default : Yes
    Alternate group : 1
    Encoded date : UTC 2015-12-15 08:56:08
    Tagged date : UTC 2015-12-15 08:56:43
    Tengo la misma duda. ¿Alguien sabe como hacerlo? Yo me imagino que el fps del audio en este caso es el Frame rate : 28.711 fps (1536 spf) y lo tenemos que colocar como los del video que son Frame rate : 23.976 (24000/1001) fps.
    Corrijanme si me equivoco.
    Estoy tratando de sincronizar el audio de Snowden [Extraido Del DVD] con el video de Snowden 1080p BluRay x264 SPARKS. Pero lamentablemente el audio se desfasa.
    Hice todos los pasos pero me dice "Command line parameter "31.250" is unknown." me imagino porque los fps del audio original que coloque no son correctos.

  43. Los siguientes Usuarios dieron Me Gusta a Zontir por este Post:

    clasaase (20/08/2017)

  44. #23
    Miembro Destacado
    Avatar de Thor_Ragnarok93
    Fecha de ingreso
    21 mar, 17
    Mensajes
    170
    Última Actividad
    hoy @ 03:45
    Nacionalidad
    Chile
    Sexo
    Hombre

    Poder de reputación
    2

    Predeterminado Re: Cambiar FPS de un Audio!

    gracias me funciono perfecto

  45. Los siguientes Usuarios dieron Me Gusta a Thor_Ragnarok93 por este Post:

    Joker (08/04/2018)

  46. #24
    RARBG = Shit


    Avatar de Vizard
    Fecha de ingreso
    19 feb, 16
    Mensajes
    288
    Última Actividad
    @
    Nacionalidad
    Nepal
    Sexo
    Hombre

    Poder de reputación
    20

    Predeterminado Re: Cambiar FPS de un Audio!

    Cita Iniciado por Zontir Ver mensaje
    Tengo la misma duda. ¿Alguien sabe como hacerlo? Yo me imagino que el fps del audio en este caso es el Frame rate : 28.711 fps (1536 spf) y lo tenemos que colocar como los del video que son Frame rate : 23.976 (24000/1001) fps.
    Corrijanme si me equivoco.
    Estoy tratando de sincronizar el audio de Snowden [Extraido Del DVD] con el video de Snowden 1080p BluRay x264 SPARKS. Pero lamentablemente el audio se desfasa.
    Hice todos los pasos pero me dice "Command line parameter "31.250" is unknown." me imagino porque los fps del audio original que coloque no son correctos.
    Estas usando el fps del audio (31.250), en eac3to debes colocar los fps de la fuente de video para cambiar los fps de una pista de video/audio/subs, para los 3 e incluso para los capítulos es esencial saber el fps de video (en el post de Snowden esta especificado: 29.970).
    ¿Por que eac3to tira error con 31.250 fps? por que no es un fps usual en videos/peliculas (de hecho jamás lo he visto).

    Si tienes el fps especificado en el post... y sabiendo el fps de video del release 1080p SPARKS usando UsEac3to deberias haberlo hecho así:

    Nombredenuevoaudio.ac3 -Bitrate -29.970 -ChangeTo23.976

    Ahora para los que no tienen el fps de video fuente su mejor opcion es asumir que el audio corre con algun fps de video conocido como 29.970, 25.000, 24.000 y 23.976 (Son los únicos que admite eac3to creo, puedo equivocarme). Si el fps de video final es 23,976 como usualmente lo es y no sabes el fps del video fuente, intenta con los otros 3.

    Nombredenuevoaudio.ac3 -Bitrate -29.970 -ChangeTo23.976
    Nombredenuevoaudio.ac3 -Bitrate -25.000 -ChangeTo23.976
    Nombredenuevoaudio.ac3 -Bitrate -24.000 -ChangeTo23.976

    Esto me ha funcionado con videos de Youtube, Vimeo, Space Go, TNT Go, etc y en muchos de ellos incluso conociento el fps de video no me ha servido y he tenido que usar alguno de esos 4 anterior mencionados.

  47. #25
    Gran Miembro
    Avatar de spamthiss
    Fecha de ingreso
    20 oct, 16
    Mensajes
    148
    Última Actividad
    Ayer @ 13:22
    Nacionalidad
    Chile
    Sexo
    Hombre

    Poder de reputación
    2

    Predeterminado Re: Cambiar FPS de un Audio!

    Gracias por el tutorial, tengo un audio de un dvd que es a 29.970 fps al cual quiero montarlo a un BDrip de 24 fps, que tendria que hacer? Gracias

Información de tema

Usuarios viendo este tema

Actualmente hay 1 usuarios viendo este tema. (0 miembros y 1 visitantes)

Temas similares

  1. Va a desaparecer club-hd.com? va a cambiar de host, o simplemente dejarán todo a la última hora?
    Por Desmofire en el foro Zona de preguntas y respuestas por los miembros de Club-HD
    Respuestas: 15
    Último mensaje: 21/10/2012, 21:59

Miembros que han leído este tema: 105

Marcadores

Permisos de publicación

  • No puedes crear nuevos temas
  • No puedes responder temas
  • No puedes subir archivos adjuntos
  • No puedes editar tus mensajes
  •