Banner Uploaded Maria

Página 1 de 2 12 ÚltimoÚltimo
Resultados 1 al 25 de 31

Tema: Glass (2019) 2160p 4k UHD HDR Dual Latino-Inglés [Subt. Esp] (Intriga. Thriller)

  1. #1
    HD Brady

    Avatar de Brady
    Fecha de ingreso
    01 jun, 16
    Edad
    23
    Mensajes
    2,033
    Última Actividad
    @
    Nacionalidad
    Mexico
    Sexo
    Hombre

    Poder de reputación
    272

    Predeterminado Glass (2019) 2160p 4k UHD HDR Dual Latino-Inglés [Subt. Esp] (Intriga. Thriller)






    Título Original: Glass
    Año: 2019
    Duración: 129 min.
    País: United States
    Director: M. Night Shyamalan
    Guion: M. Night Shyamalan
    Reparto: James McAvoy, Bruce Willis, Samuel L. Jackson, Sarah Paulson, Anya Taylor-Joy, Spencer Treat Clark, Shayna Ryan, Charlayne Woodard, Luke Kirby, Rob Yang, Brian Donahue, Adam David Thompson, Marisa Brown, Kyli Zion, Diana Silvers, M. Night Shyamalan, Nina Wisner, Serge Didenko, Russell Posner, Leslie Stefanson, Kimberly S. Fairbanks, Rosemary Howard, Johnny Hiram Jamison, Marc H. Glick, Brick Mason, Bostin Christopher, Ukee Washington, Brian Anthony Wilson, Tobias Segal, Tom DiNardo, Timothy Chivalette, Tim Duquette
    Productora: Blumhouse Productions / Blinding Edge Pictures / Universal International Pictures (UI) / Buena Vista International / Perfect World Pictures. Distribuida por Universal International Pictures (UI)
    Género: Intriga. Thriller | Sobrenatural. Superhéroes. Secuela




    Continuando desde donde lo dejó "Múltiple", "Glass" sigue los pasos de David Dunn (Bruce Willis) en su búsqueda de la figura superhumana de "La Bestia". En la sombra, Elijah Price (Samuel L. Jackson) parece emerger como una figura clave que conoce los secretos de ambos. Secuela de "El protegido" y "Múltiple", de M. Night Shyamalan.





    Datos Técnicos
    Video:
    MPEGH HEVC / 2160p / High Profile 5.1 / 6094 kbps

    Audio:
    Español Latino / AC3 5.1 / 640 kbps / 48kHz / Bluray 4k
    Inglés / TrueHD/Atmos 7.1 / 4109/7326 kbps / 48kHz / Bluray 4k
    Inglés / AC3 5.1 / 448 kbps / 48kHz / Bluray 4k

    Subs:
    Español Latino / SubRip / Bluray 4k
    Español Latino Forzados / SubRip / Bluray 4k
    Español Latino / Sup / Bluray 4k
    Español Latino Forzados / Sup / Bluray 4k
    Inglés / Sup / Bluray 4k

    Código:
    General
    Unique ID                                : 162579738082065530041152995240713391773 (0x7A4FB7F5AA09C411C7331BABC6500E9D)
    Format                                   : Matroska
    Format version                           : Version 4
    File size                                : 10.3 GiB
    Duration                                 : 2 h 9 min
    Overall bit rate mode                    : Variable
    Overall bit rate                         : 11.4 Mb/s
    Encoded date                             : UTC 2019-04-12 20:51:14
    Writing application                      : mkvmerge v27.0.0 ('Metropolis') 64-bit
    Writing library                          : libebml v1.3.6 + libmatroska v1.4.9
    Uploader                                 : Brady
    Web                                      : www.club-hd.com
    
    Video
    ID                                       : 1
    Format                                   : HEVC
    Format/Info                              : High Efficiency Video Coding
    Commercial name                          : HDR10
    Format profile                           : Main 10@L5.1@High
    Codec ID                                 : V_MPEGH/ISO/HEVC
    Duration                                 : 2 h 9 min
    Bit rate                                 : 6 094 kb/s
    Width                                    : 3 840 pixels
    Height                                   : 1 604 pixels
    Display aspect ratio                     : 2.40:1
    Frame rate mode                          : Constant
    Frame rate                               : 23.976 (24000/1001) FPS
    Color space                              : YUV
    Chroma subsampling                       : 4:2:0 (Type 2)
    Bit depth                                : 10 bits
    Bits/(Pixel*Frame)                       : 0.041
    Stream size                              : 5.49 GiB (54%)
    Writing library                          : x265 3.0_Au+14-c7e5878bdd31:[Windows][GCC 6.3.0][64 bit] 10bit
    Encoding settings                        : cpuid=1111039 / frame-threads=4 / numa-pools=20 / wpp / no-pmode / no-pme / no-psnr / no-ssim / log-level=2 / input-csp=1 / input-res=3840x1604 / interlace=0 / total-frames=185612 / level-idc=51 / high-tier=1 / uhd-bd=0 / ref=4 / no-allow-non-conformance / repeat-headers / annexb / aud / hrd / info / hash=0 / no-temporal-layers / no-open-gop / min-keyint=1 / keyint=24 / gop-lookahead=0 / bframes=4 / b-adapt=2 / b-pyramid / bframe-bias=0 / rc-lookahead=25 / lookahead-slices=4 / scenecut=40 / radl=0 / no-splice / no-intra-refresh / ctu=64 / min-cu-size=8 / rect / no-amp / max-tu-size=32 / tu-inter-depth=1 / tu-intra-depth=1 / limit-tu=0 / rdoq-level=2 / dynamic-rd=0.00 / no-ssim-rd / signhide / no-tskip / nr-intra=0 / nr-inter=0 / no-constrained-intra / no-strong-intra-smoothing / max-merge=3 / limit-refs=3 / limit-modes / me=3 / subme=3 / merange=57 / temporal-mvp / weightp / no-weightb / no-analyze-src-pics / deblock=-3:-3 / no-sao / no-sao-non-deblock / rd=4 / no-early-skip / rskip / no-fast-intra / no-tskip-fast / no-cu-lossless / no-b-intra / no-splitrd-skip / rdpenalty=0 / psy-rd=2.00 / psy-rdoq=1.00 / no-rd-refine / no-lossless / cbqpoffs=0 / crqpoffs=0 / rc=crf / crf=17.0 / qcomp=0.60 / qpstep=4 / stats-write=0 / stats-read=0 / vbv-maxrate=160000 / vbv-bufsize=160000 / vbv-init=0.9 / crf-max=0.0 / crf-min=0.0 / ipratio=1.40 / pbratio=1.30 / aq-mode=2 / aq-strength=1.00 / cutree / zone-count=0 / no-strict-cbr / qg-size=32 / no-rc-grain / qpmax=69 / qpmin=0 / no-const-vbv / sar=1 / overscan=0 / videoformat=5 / range=0 / colorprim=9 / transfer=16 / colormatrix=9 / chromaloc=1 / chromaloc-top=2 / chromaloc-bottom=2 / display-window=0 / master-display=G(13250,34500)B(7500,3000)R(34000,16000)WP(15635,16450)L(10000000,50) / max-cll=457,182 / min-luma=0 / max-luma=1023 / log2-max-poc-lsb=8 / vui-timing-info / vui-hrd-info / slices=1 / no-opt-qp-pps / no-opt-ref-list-length-pps / no-multi-pass-opt-rps / scenecut-bias=0.05 / no-opt-cu-delta-qp / no-aq-motion / hdr / hdr-opt / no-dhdr10-opt / no-idr-recovery-sei / analysis-reuse-level=5 / scale-factor=0 / refine-intra=0 / refine-inter=0 / refine-mv=0 / refine-ctu-distortion=0 / no-limit-sao / ctu-info=0 / no-lowpass-dct / refine-analysis-type=0 / copy-pic=1 / max-ausize-factor=1.0 / no-dynamic-refine / no-single-sei / no-hevc-aq / no-svt / qp-adaptation-range=1.00
    Language                                 : English
    Default                                  : Yes
    Forced                                   : No
    Color range                              : Limited
    Color primaries                          : BT.2020
    Transfer characteristics                 : PQ
    Matrix coefficients                      : BT.2020 non-constant
    Mastering display color primaries        : Display P3
    Mastering display luminance              : min: 0.0050 cd/m2, max: 1000 cd/m2
    Maximum Content Light Level              : 457 cd/m2
    Maximum Frame-Average Light Level        : 182 cd/m2
    
    Audio #1
    ID                                       : 2
    Format                                   : AC-3
    Format/Info                              : Audio Coding 3
    Commercial name                          : Dolby Digital
    Codec ID                                 : A_AC3
    Duration                                 : 2 h 9 min
    Bit rate mode                            : Constant
    Bit rate                                 : 640 kb/s
    Channel(s)                               : 6 channels
    Channel layout                           : L R C LFE Ls Rs
    Sampling rate                            : 48.0 kHz
    Frame rate                               : 31.250 FPS (1536 SPF)
    Bit depth                                : 16 bits
    Compression mode                         : Lossy
    Stream size                              : 591 MiB (6%)
    Title                                    : Latino AC3 5.1 640 kbps Bluray 4k
    Language                                 : Latin
    Service kind                             : Complete Main
    Default                                  : Yes
    Forced                                   : No
    
    Audio #2
    ID                                       : 3
    Format                                   : MLP FBA 16-ch
    Format/Info                              : Meridian Lossless Packing FBA with 16-channel presentation
    Commercial name                          : Dolby TrueHD with Dolby Atmos
    Codec ID                                 : A_TRUEHD
    Duration                                 : 2 h 9 min
    Bit rate mode                            : Variable
    Bit rate                                 : 4 109 kb/s
    Maximum bit rate                         : 7 326 kb/s
    Channel(s)                               : 8 channels
    Channel layout                           : L R C LFE Ls Rs Lb Rb
    Sampling rate                            : 48.0 kHz
    Frame rate                               : 1 200.000 FPS (40 SPF)
    Compression mode                         : Lossless
    Stream size                              : 3.70 GiB (36%)
    Title                                    : Ingles TrueHD/Atmos 7.1 4109/7326 kbps Bluray 4k
    Language                                 : English
    Default                                  : No
    Forced                                   : No
    Number of dynamic objects                : 11
    Bed channel count                        : 1 channel
    Bed channel configuration                : LFE
    
    Audio #3
    ID                                       : 4
    Format                                   : AC-3
    Format/Info                              : Audio Coding 3
    Commercial name                          : Dolby Digital
    Codec ID                                 : A_AC3
    Duration                                 : 2 h 9 min
    Bit rate mode                            : Constant
    Bit rate                                 : 448 kb/s
    Channel(s)                               : 6 channels
    Channel layout                           : L R C LFE Ls Rs
    Sampling rate                            : 48.0 kHz
    Frame rate                               : 31.250 FPS (1536 SPF)
    Bit depth                                : 16 bits
    Compression mode                         : Lossy
    Stream size                              : 413 MiB (4%)
    Title                                    : Ingles AC3 5.1 448 kbps Bluray 4k
    Language                                 : English
    Service kind                             : Complete Main
    Default                                  : No
    Forced                                   : No
    
    Text #1
    ID                                       : 5
    Format                                   : UTF-8
    Codec ID                                 : S_TEXT/UTF8
    Codec ID/Info                            : UTF-8 Plain Text
    Duration                                 : 2 h 2 min
    Bit rate                                 : 45 b/s
    Count of elements                        : 1224
    Stream size                              : 40.5 KiB (0%)
    Title                                    : Latino
    Language                                 : Latin
    Default                                  : No
    Forced                                   : No
    
    Text #2
    ID                                       : 6
    Format                                   : UTF-8
    Codec ID                                 : S_TEXT/UTF8
    Codec ID/Info                            : UTF-8 Plain Text
    Duration                                 : 2 h 4 min
    Bit rate                                 : 2 b/s
    Count of elements                        : 62
    Stream size                              : 2.08 KiB (0%)
    Title                                    : Forzados
    Language                                 : Latin
    Default                                  : Yes
    Forced                                   : No
    
    Text #3
    ID                                       : 7
    Format                                   : PGS
    Muxing mode                              : zlib
    Codec ID                                 : S_HDMV/PGS
    Codec ID/Info                            : Picture based subtitle format used on BDs/HD-DVDs
    Duration                                 : 2 h 8 min
    Bit rate                                 : 26.9 kb/s
    Count of elements                        : 2450
    Stream size                              : 24.7 MiB (0%)
    Title                                    : Latino
    Language                                 : Latin
    Default                                  : No
    Forced                                   : No
    
    Text #4
    ID                                       : 8
    Format                                   : PGS
    Muxing mode                              : zlib
    Codec ID                                 : S_HDMV/PGS
    Codec ID/Info                            : Picture based subtitle format used on BDs/HD-DVDs
    Duration                                 : 2 h 4 min
    Bit rate                                 : 1 620 b/s
    Count of elements                        : 124
    Stream size                              : 1.45 MiB (0%)
    Title                                    : Forzados
    Language                                 : Latin
    Default                                  : No
    Forced                                   : No
    
    Text #5
    ID                                       : 9
    Format                                   : PGS
    Muxing mode                              : zlib
    Codec ID                                 : S_HDMV/PGS
    Codec ID/Info                            : Picture based subtitle format used on BDs/HD-DVDs
    Duration                                 : 2 h 2 min
    Bit rate                                 : 36.1 kb/s
    Count of elements                        : 3130
    Stream size                              : 31.6 MiB (0%)
    Title                                    : Ingles
    Language                                 : English
    Default                                  : No
    Forced                                   : No













    Links Intercambiables





    Compra tu Membresía VIP y apoya a Club-HD!

    Click Aquí para más información.

    ATENCIÓN! Finalmente tenemos TODO el material de Club-HD disponible por Mega, enlaces 100% activos y online hoy







    Compra tu Membresía VIP y apoya a Club-HD!

    Click Aquí para más información.

    ATENCIÓN! Finalmente tenemos TODO el material de Club-HD disponible por Mega, enlaces 100% activos y online hoy







    1. Primero, deben estár registrados, sino no habrá manera de que puedan ver los Enlaces.

    2. Una vez registrados, sólo deben dejar un simple comentario de Siete (7) letras/carácteres mínimo, o también un simple "Me gusta".

    Con eso ya podrán ver los links sin ningún problema.

    Nota: Usamos este sistema para proteger los links de Club-HD, y hasta la fecha funciona muy bien.





    1. Primero, deben estár registrados, sino no habrá manera de que puedan ver los Enlaces.

    2. Una vez registrados, sólo deben dejar un simple comentario de Siete (7) letras/carácteres mínimo, o también un simple "Me gusta".

    Con eso ya podrán ver los links sin ningún problema.

    Nota: Usamos este sistema para proteger los links de Club-HD, y hasta la fecha funciona muy bien.





    1. Primero, deben estár registrados, sino no habrá manera de que puedan ver los Enlaces.

    2. Una vez registrados, sólo deben dejar un simple comentario de Siete (7) letras/carácteres mínimo, o también un simple "Me gusta".

    Con eso ya podrán ver los links sin ningún problema.

    Nota: Usamos este sistema para proteger los links de Club-HD, y hasta la fecha funciona muy bien.




    Código:
    www.club-hd.com
    Let's Go, Do Your Job.

    Si te gusta mi material en 4K, que mejor que una cuenta de uploaded premium para bajar sin limites y gozar de una pelicula en 4K HDR, no te pierdas esta gran oportunidad, solo ingresa al Banner de abajo y compra tu cuenta Uploaded Premium, no te arrepentiras

  2. Los siguientes 13 Usuarios dieron Me Gusta a Brady por este Post:

    beaubinz (02/05/2019),cripp (22/04/2019),darusando (15/04/2019),fire9194 (24/04/2019),flujo (15/04/2019),FUNKSW (20/04/2019),iugaldel2 (23/04/2019),JavDF1 (04/06/2019),Jesus4K (15/04/2019),Leo (22/04/2019),odoc (19/05/2019),Pte.A.Carmine (29/04/2019),ramayo (15/04/2019)

  3. #2
    Miembro Destacado
    Avatar de costafede
    Fecha de ingreso
    27 sep, 12
    Mensajes
    238
    Última Actividad
    hoy @ 16:23
    Nacionalidad
    Argentina

    Poder de reputación
    7

    Predeterminado Re: Glass (2019) 2160p 4k UHD HDR Dual Latino-Inglés [Subt. Esp] (Intriga. Thriller)

    sos un mostro neneeee

  4. #3
    Gran Miembro
    Avatar de flujo
    Fecha de ingreso
    28 dic, 14
    Mensajes
    6,095
    Última Actividad
    22/06/2019 @ 12:14
    Nacionalidad
    Mexico
    Sexo
    Hombre

    Poder de reputación
    12

    Predeterminado Re: Glass (2019) 2160p 4k UHD HDR Dual Latino-Inglés [Subt. Esp] (Intriga. Thriller)

    gracias

  5. #4
    Gran Miembro
    Avatar de magicseven
    Fecha de ingreso
    12 nov, 18
    Mensajes
    160
    Última Actividad
    21/06/2019 @ 21:21
    Nacionalidad
    Mexico
    Sexo
    Hombre

    Poder de reputación
    1

    Predeterminado Re: Glass (2019) 2160p 4k UHD HDR Dual Latino-Inglés [Subt. Esp] (Intriga. Thriller)

    muchas gracias

  6. #5
    Miembro Destacado
    Avatar de PATRICIOG
    Fecha de ingreso
    29 may, 15
    Mensajes
    2,095
    Última Actividad
    hoy @ 14:31
    Nacionalidad
    Chile
    Sexo
    Hombre

    Poder de reputación
    7

    Predeterminado Re: Glass (2019) 2160p 4k UHD HDR Dual Latino-Inglés [Subt. Esp] (Intriga. Thriller)

    muchas gracias

  7. #6
    Miembro Destacado
    Avatar de joelmax18
    Fecha de ingreso
    28 ago, 12
    Edad
    39
    Mensajes
    1,986
    Última Actividad
    Ayer @ 01:55
    Nacionalidad
    Dominican Republic

    Poder de reputación
    8

    Predeterminado Re: Glass (2019) 2160p 4k UHD HDR Dual Latino-Inglés [Subt. Esp] (Intriga. Thriller)

    gracias

  8. #7
    Gran Miembro
    Avatar de almore
    Fecha de ingreso
    03 ago, 13
    Edad
    45
    Mensajes
    241
    Última Actividad
    20/05/2019 @ 13:15
    Nacionalidad
    Chile
    Sexo
    Hombre

    Poder de reputación
    6

    Predeterminado Re: Glass (2019) 2160p 4k UHD HDR Dual Latino-Inglés [Subt. Esp] (Intriga. Thriller)

    Muchas gracias!

  9. #8
    Gran Miembro
    Avatar de elpobremauri
    Fecha de ingreso
    20 nov, 12
    Mensajes
    555
    Última Actividad
    hoy @ 14:17
    Nacionalidad
    Chile
    Sexo
    Hombre

    Poder de reputación
    7

    Predeterminado Re: Glass (2019) 2160p 4k UHD HDR Dual Latino-Inglés [Subt. Esp] (Intriga. Thriller)


  10. #9
    Gran Miembro
    Avatar de Darkains
    Fecha de ingreso
    27 ago, 12
    Edad
    31
    Mensajes
    422
    Última Actividad
    Ayer @ 22:54
    Nacionalidad
    Chile

    Poder de reputación
    7

    Predeterminado Re: Glass (2019) 2160p 4k UHD HDR Dual Latino-Inglés [Subt. Esp] (Intriga. Thriller)


  11. #10
    Miembro Destacado
    Avatar de Vicure
    Fecha de ingreso
    27 ago, 12
    Mensajes
    1,674
    Última Actividad
    21/06/2019 @ 22:16
    Nacionalidad
    Mexico

    Poder de reputación
    8

    Predeterminado Re: Glass (2019) 2160p 4k UHD HDR Dual Latino-Inglés [Subt. Esp] (Intriga. Thriller)


  12. #11
    Miembro Destacado
    Avatar de j-galicia-h
    Fecha de ingreso
    04 oct, 13
    Mensajes
    1,254
    Última Actividad
    10/06/2019 @ 16:25
    Nacionalidad
    Mexico
    Sexo
    Hombre

    Poder de reputación
    7

    Predeterminado Re: Glass (2019) 2160p 4k UHD HDR Dual Latino-Inglés [Subt. Esp] (Intriga. Thriller)

    gracias amigo bajando buena pelicula

  13. #12
    The Buckminster
    Avatar de Pedrum
    Fecha de ingreso
    28 ago, 12
    Ubicación
    Bahia Blanca
    Edad
    36
    Mensajes
    1,071
    Última Actividad
    22/06/2019 @ 19:54
    Nacionalidad
    Argentina
    Sexo
    Hombre

    Poder de reputación
    52

    Predeterminado Re: Glass (2019) 2160p 4k UHD HDR Dual Latino-Inglés [Subt. Esp] (Intriga. Thriller)


  14. #13
    Gran Miembro
    Avatar de x3ro
    Fecha de ingreso
    01 sep, 12
    Edad
    34
    Mensajes
    522
    Última Actividad
    Ayer @ 01:35
    Nacionalidad
    Chile

    Poder de reputación
    7

    Predeterminado Re: Glass (2019) 2160p 4k UHD HDR Dual Latino-Inglés [Subt. Esp] (Intriga. Thriller)

    muchas gracias

  15. #14
    Gran Miembro
    Avatar de sosalexfame
    Fecha de ingreso
    10 jul, 15
    Ubicación
    Mexico
    Edad
    38
    Mensajes
    1,514
    Última Actividad
    20/06/2019 @ 18:52
    Nacionalidad
    Mexico
    Sexo
    Hombre

    Poder de reputación
    6

    Predeterminado Re: Glass (2019) 2160p 4k UHD HDR Dual Latino-Inglés [Subt. Esp] (Intriga. Thriller)

    gracias

  16. #15
    Miembro Destacado
    Avatar de cripp
    Fecha de ingreso
    27 ago, 12
    Mensajes
    7,002
    Última Actividad
    hoy @ 16:16
    Nacionalidad
    Costa Rica

    Poder de reputación
    17

    Predeterminado Re: Glass (2019) 2160p 4k UHD HDR Dual Latino-Inglés [Subt. Esp] (Intriga. Thriller)

    Gracias por compartir

  17. #16
    Gran Miembro
    Avatar de yoy
    Fecha de ingreso
    20 sep, 12
    Edad
    28
    Mensajes
    373
    Última Actividad
    21/06/2019 @ 15:21
    Nacionalidad
    Peru

    Poder de reputación
    7

    Predeterminado Re: Glass (2019) 2160p 4k UHD HDR Dual Latino-Inglés [Subt. Esp] (Intriga. Thriller)

    gracias

  18. Los siguientes Usuarios dieron Me Gusta a yoy por este Post:

    PABLOTOR (12/06/2019)

  19. #17
    Gran Miembro
    Avatar de cochamameros
    Fecha de ingreso
    13 jun, 16
    Edad
    50
    Mensajes
    154
    Última Actividad
    hoy @ 18:20
    Nacionalidad
    Chile
    Sexo
    Hombre

    Poder de reputación
    4

    Predeterminado Re: Glass (2019) 2160p 4k UHD HDR Dual Latino-Inglés [Subt. Esp] (Intriga. Thriller)

    Cita Iniciado por Brady Ver mensaje





    Título Original: Glass
    Año: 2019
    Duración: 129 min.
    País: United States
    Director: M. Night Shyamalan
    Guion: M. Night Shyamalan
    Reparto: James McAvoy, Bruce Willis, Samuel L. Jackson, Sarah Paulson, Anya Taylor-Joy, Spencer Treat Clark, Shayna Ryan, Charlayne Woodard, Luke Kirby, Rob Yang, Brian Donahue, Adam David Thompson, Marisa Brown, Kyli Zion, Diana Silvers, M. Night Shyamalan, Nina Wisner, Serge Didenko, Russell Posner, Leslie Stefanson, Kimberly S. Fairbanks, Rosemary Howard, Johnny Hiram Jamison, Marc H. Glick, Brick Mason, Bostin Christopher, Ukee Washington, Brian Anthony Wilson, Tobias Segal, Tom DiNardo, Timothy Chivalette, Tim Duquette
    Productora: Blumhouse Productions / Blinding Edge Pictures / Universal International Pictures (UI) / Buena Vista International / Perfect World Pictures. Distribuida por Universal International Pictures (UI)
    Género: Intriga. Thriller | Sobrenatural. Superhéroes. Secuela




    Continuando desde donde lo dejó "Múltiple", "Glass" sigue los pasos de David Dunn (Bruce Willis) en su búsqueda de la figura superhumana de "La Bestia". En la sombra, Elijah Price (Samuel L. Jackson) parece emerger como una figura clave que conoce los secretos de ambos. Secuela de "El protegido" y "Múltiple", de M. Night Shyamalan.





    Datos Técnicos
    Video:
    MPEGH HEVC / 2160p / High Profile 5.1 / 6094 kbps

    Audio:
    Español Latino / AC3 5.1 / 640 kbps / 48kHz / Bluray 4k
    Inglés / TrueHD/Atmos 7.1 / 4109/7326 kbps / 48kHz / Bluray 4k
    Inglés / AC3 5.1 / 448 kbps / 48kHz / Bluray 4k

    Subs:
    Español Latino / SubRip / Bluray 4k
    Español Latino Forzados / SubRip / Bluray 4k
    Español Latino / Sup / Bluray 4k
    Español Latino Forzados / Sup / Bluray 4k
    Inglés / Sup / Bluray 4k

    Código:
    General
    Unique ID                                : 162579738082065530041152995240713391773 (0x7A4FB7F5AA09C411C7331BABC6500E9D)
    Format                                   : Matroska
    Format version                           : Version 4
    File size                                : 10.3 GiB
    Duration                                 : 2 h 9 min
    Overall bit rate mode                    : Variable
    Overall bit rate                         : 11.4 Mb/s
    Encoded date                             : UTC 2019-04-12 20:51:14
    Writing application                      : mkvmerge v27.0.0 ('Metropolis') 64-bit
    Writing library                          : libebml v1.3.6 + libmatroska v1.4.9
    Uploader                                 : Brady
    Web                                      : www.club-hd.com
    
    Video
    ID                                       : 1
    Format                                   : HEVC
    Format/Info                              : High Efficiency Video Coding
    Commercial name                          : HDR10
    Format profile                           : Main 10@L5.1@High
    Codec ID                                 : V_MPEGH/ISO/HEVC
    Duration                                 : 2 h 9 min
    Bit rate                                 : 6 094 kb/s
    Width                                    : 3 840 pixels
    Height                                   : 1 604 pixels
    Display aspect ratio                     : 2.40:1
    Frame rate mode                          : Constant
    Frame rate                               : 23.976 (24000/1001) FPS
    Color space                              : YUV
    Chroma subsampling                       : 4:2:0 (Type 2)
    Bit depth                                : 10 bits
    Bits/(Pixel*Frame)                       : 0.041
    Stream size                              : 5.49 GiB (54%)
    Writing library                          : x265 3.0_Au+14-c7e5878bdd31:[Windows][GCC 6.3.0][64 bit] 10bit
    Encoding settings                        : cpuid=1111039 / frame-threads=4 / numa-pools=20 / wpp / no-pmode / no-pme / no-psnr / no-ssim / log-level=2 / input-csp=1 / input-res=3840x1604 / interlace=0 / total-frames=185612 / level-idc=51 / high-tier=1 / uhd-bd=0 / ref=4 / no-allow-non-conformance / repeat-headers / annexb / aud / hrd / info / hash=0 / no-temporal-layers / no-open-gop / min-keyint=1 / keyint=24 / gop-lookahead=0 / bframes=4 / b-adapt=2 / b-pyramid / bframe-bias=0 / rc-lookahead=25 / lookahead-slices=4 / scenecut=40 / radl=0 / no-splice / no-intra-refresh / ctu=64 / min-cu-size=8 / rect / no-amp / max-tu-size=32 / tu-inter-depth=1 / tu-intra-depth=1 / limit-tu=0 / rdoq-level=2 / dynamic-rd=0.00 / no-ssim-rd / signhide / no-tskip / nr-intra=0 / nr-inter=0 / no-constrained-intra / no-strong-intra-smoothing / max-merge=3 / limit-refs=3 / limit-modes / me=3 / subme=3 / merange=57 / temporal-mvp / weightp / no-weightb / no-analyze-src-pics / deblock=-3:-3 / no-sao / no-sao-non-deblock / rd=4 / no-early-skip / rskip / no-fast-intra / no-tskip-fast / no-cu-lossless / no-b-intra / no-splitrd-skip / rdpenalty=0 / psy-rd=2.00 / psy-rdoq=1.00 / no-rd-refine / no-lossless / cbqpoffs=0 / crqpoffs=0 / rc=crf / crf=17.0 / qcomp=0.60 / qpstep=4 / stats-write=0 / stats-read=0 / vbv-maxrate=160000 / vbv-bufsize=160000 / vbv-init=0.9 / crf-max=0.0 / crf-min=0.0 / ipratio=1.40 / pbratio=1.30 / aq-mode=2 / aq-strength=1.00 / cutree / zone-count=0 / no-strict-cbr / qg-size=32 / no-rc-grain / qpmax=69 / qpmin=0 / no-const-vbv / sar=1 / overscan=0 / videoformat=5 / range=0 / colorprim=9 / transfer=16 / colormatrix=9 / chromaloc=1 / chromaloc-top=2 / chromaloc-bottom=2 / display-window=0 / master-display=G(13250,34500)B(7500,3000)R(34000,16000)WP(15635,16450)L(10000000,50) / max-cll=457,182 / min-luma=0 / max-luma=1023 / log2-max-poc-lsb=8 / vui-timing-info / vui-hrd-info / slices=1 / no-opt-qp-pps / no-opt-ref-list-length-pps / no-multi-pass-opt-rps / scenecut-bias=0.05 / no-opt-cu-delta-qp / no-aq-motion / hdr / hdr-opt / no-dhdr10-opt / no-idr-recovery-sei / analysis-reuse-level=5 / scale-factor=0 / refine-intra=0 / refine-inter=0 / refine-mv=0 / refine-ctu-distortion=0 / no-limit-sao / ctu-info=0 / no-lowpass-dct / refine-analysis-type=0 / copy-pic=1 / max-ausize-factor=1.0 / no-dynamic-refine / no-single-sei / no-hevc-aq / no-svt / qp-adaptation-range=1.00
    Language                                 : English
    Default                                  : Yes
    Forced                                   : No
    Color range                              : Limited
    Color primaries                          : BT.2020
    Transfer characteristics                 : PQ
    Matrix coefficients                      : BT.2020 non-constant
    Mastering display color primaries        : Display P3
    Mastering display luminance              : min: 0.0050 cd/m2, max: 1000 cd/m2
    Maximum Content Light Level              : 457 cd/m2
    Maximum Frame-Average Light Level        : 182 cd/m2
    
    Audio #1
    ID                                       : 2
    Format                                   : AC-3
    Format/Info                              : Audio Coding 3
    Commercial name                          : Dolby Digital
    Codec ID                                 : A_AC3
    Duration                                 : 2 h 9 min
    Bit rate mode                            : Constant
    Bit rate                                 : 640 kb/s
    Channel(s)                               : 6 channels
    Channel layout                           : L R C LFE Ls Rs
    Sampling rate                            : 48.0 kHz
    Frame rate                               : 31.250 FPS (1536 SPF)
    Bit depth                                : 16 bits
    Compression mode                         : Lossy
    Stream size                              : 591 MiB (6%)
    Title                                    : Latino AC3 5.1 640 kbps Bluray 4k
    Language                                 : Latin
    Service kind                             : Complete Main
    Default                                  : Yes
    Forced                                   : No
    
    Audio #2
    ID                                       : 3
    Format                                   : MLP FBA 16-ch
    Format/Info                              : Meridian Lossless Packing FBA with 16-channel presentation
    Commercial name                          : Dolby TrueHD with Dolby Atmos
    Codec ID                                 : A_TRUEHD
    Duration                                 : 2 h 9 min
    Bit rate mode                            : Variable
    Bit rate                                 : 4 109 kb/s
    Maximum bit rate                         : 7 326 kb/s
    Channel(s)                               : 8 channels
    Channel layout                           : L R C LFE Ls Rs Lb Rb
    Sampling rate                            : 48.0 kHz
    Frame rate                               : 1 200.000 FPS (40 SPF)
    Compression mode                         : Lossless
    Stream size                              : 3.70 GiB (36%)
    Title                                    : Ingles TrueHD/Atmos 7.1 4109/7326 kbps Bluray 4k
    Language                                 : English
    Default                                  : No
    Forced                                   : No
    Number of dynamic objects                : 11
    Bed channel count                        : 1 channel
    Bed channel configuration                : LFE
    
    Audio #3
    ID                                       : 4
    Format                                   : AC-3
    Format/Info                              : Audio Coding 3
    Commercial name                          : Dolby Digital
    Codec ID                                 : A_AC3
    Duration                                 : 2 h 9 min
    Bit rate mode                            : Constant
    Bit rate                                 : 448 kb/s
    Channel(s)                               : 6 channels
    Channel layout                           : L R C LFE Ls Rs
    Sampling rate                            : 48.0 kHz
    Frame rate                               : 31.250 FPS (1536 SPF)
    Bit depth                                : 16 bits
    Compression mode                         : Lossy
    Stream size                              : 413 MiB (4%)
    Title                                    : Ingles AC3 5.1 448 kbps Bluray 4k
    Language                                 : English
    Service kind                             : Complete Main
    Default                                  : No
    Forced                                   : No
    
    Text #1
    ID                                       : 5
    Format                                   : UTF-8
    Codec ID                                 : S_TEXT/UTF8
    Codec ID/Info                            : UTF-8 Plain Text
    Duration                                 : 2 h 2 min
    Bit rate                                 : 45 b/s
    Count of elements                        : 1224
    Stream size                              : 40.5 KiB (0%)
    Title                                    : Latino
    Language                                 : Latin
    Default                                  : No
    Forced                                   : No
    
    Text #2
    ID                                       : 6
    Format                                   : UTF-8
    Codec ID                                 : S_TEXT/UTF8
    Codec ID/Info                            : UTF-8 Plain Text
    Duration                                 : 2 h 4 min
    Bit rate                                 : 2 b/s
    Count of elements                        : 62
    Stream size                              : 2.08 KiB (0%)
    Title                                    : Forzados
    Language                                 : Latin
    Default                                  : Yes
    Forced                                   : No
    
    Text #3
    ID                                       : 7
    Format                                   : PGS
    Muxing mode                              : zlib
    Codec ID                                 : S_HDMV/PGS
    Codec ID/Info                            : Picture based subtitle format used on BDs/HD-DVDs
    Duration                                 : 2 h 8 min
    Bit rate                                 : 26.9 kb/s
    Count of elements                        : 2450
    Stream size                              : 24.7 MiB (0%)
    Title                                    : Latino
    Language                                 : Latin
    Default                                  : No
    Forced                                   : No
    
    Text #4
    ID                                       : 8
    Format                                   : PGS
    Muxing mode                              : zlib
    Codec ID                                 : S_HDMV/PGS
    Codec ID/Info                            : Picture based subtitle format used on BDs/HD-DVDs
    Duration                                 : 2 h 4 min
    Bit rate                                 : 1 620 b/s
    Count of elements                        : 124
    Stream size                              : 1.45 MiB (0%)
    Title                                    : Forzados
    Language                                 : Latin
    Default                                  : No
    Forced                                   : No
    
    Text #5
    ID                                       : 9
    Format                                   : PGS
    Muxing mode                              : zlib
    Codec ID                                 : S_HDMV/PGS
    Codec ID/Info                            : Picture based subtitle format used on BDs/HD-DVDs
    Duration                                 : 2 h 2 min
    Bit rate                                 : 36.1 kb/s
    Count of elements                        : 3130
    Stream size                              : 31.6 MiB (0%)
    Title                                    : Ingles
    Language                                 : English
    Default                                  : No
    Forced                                   : No













    Links Intercambiables



    ***Hidden content cannot be quoted.***


    ***Hidden content cannot be quoted.***


    ***Hidden content cannot be quoted.***


    ***Hidden content cannot be quoted.***


    ***Hidden content cannot be quoted.***



    Código:
    www.club-hd.com
    gracias

  20. Los siguientes Usuarios dieron Me Gusta a cochamameros por este Post:

    PABLOTOR (12/06/2019)

  21. #18
    Miembro Junior Avatar de okiweb1
    Fecha de ingreso
    03 may, 19
    Edad
    27
    Mensajes
    7
    Última Actividad
    24/05/2019 @ 18:00
    Nacionalidad
    Colombia
    Sexo
    Hombre

    Poder de reputación
    1

    Predeterminado Re: Glass (2019) 2160p 4k UHD HDR Dual Latino-Inglés [Subt. Esp] (Intriga. Thriller)

    Gracias por compartirla,

  22. #19
    Miembro Destacado
    Avatar de ismar360
    Fecha de ingreso
    28 ago, 12
    Edad
    41
    Mensajes
    2,481
    Última Actividad
    hoy @ 13:11
    Nacionalidad
    El Salvador

    Poder de reputación
    9

    Predeterminado Re: Glass (2019) 2160p 4k UHD HDR Dual Latino-Inglés [Subt. Esp] (Intriga. Thriller)


  23. #20
    Miembro Destacado
    Avatar de kerna
    Fecha de ingreso
    21 sep, 12
    Mensajes
    518
    Última Actividad
    09/06/2019 @ 15:15
    Nacionalidad
    Cameroon

    Poder de reputación
    7

    Predeterminado Re: Glass (2019) 2160p 4k UHD HDR Dual Latino-Inglés [Subt. Esp] (Intriga. Thriller)

    He recibido muchas recomendaciones!

  24. #21
    Miembro Junior Avatar de ritchiedb7
    Fecha de ingreso
    12 may, 19
    Mensajes
    4
    Última Actividad
    19/05/2019 @ 16:21
    Nacionalidad
    Argentina
    Sexo
    Hombre

    Poder de reputación
    1

    Predeterminado Re: Glass (2019) 2160p 4k UHD HDR Dual Latino-Inglés [Subt. Esp] (Intriga. Thriller)

    verificando...

  25. #22
    Miembro VIP en Club-HD!
    Avatar de El_Kaiser
    Fecha de ingreso
    17 feb, 15
    Edad
    39
    Mensajes
    259
    Última Actividad
    20/06/2019 @ 11:55
    Nacionalidad
    El Salvador
    Sexo
    Hombre

    Poder de reputación
    6

    Predeterminado Re: Glass (2019) 2160p 4k UHD HDR Dual Latino-Inglés [Subt. Esp] (Intriga. Thriller)

    Muchas gracias por la pelicula

  26. #23
    Gran Miembro
    Avatar de hassem
    Fecha de ingreso
    30 ago, 12
    Edad
    38
    Mensajes
    1,085
    Última Actividad
    21/06/2019 @ 18:00
    Nacionalidad
    Mexico

    Poder de reputación
    8

    Predeterminado Re: Glass (2019) 2160p 4k UHD HDR Dual Latino-Inglés [Subt. Esp] (Intriga. Thriller)

    gracias por el aporte

  27. #24
    Gran Miembro
    Avatar de odoc
    Fecha de ingreso
    02 sep, 12
    Edad
    36
    Mensajes
    167
    Última Actividad
    hoy @ 16:02
    Nacionalidad
    Colombia
    Sexo
    Hombre

    Poder de reputación
    8

    Predeterminado Re: Glass (2019) 2160p 4k UHD HDR Dual Latino-Inglés [Subt. Esp] (Intriga. Thriller)

    Muchas gracias por el aporte

  28. #25
    Miembro Destacado
    Avatar de carlongy
    Fecha de ingreso
    28 ago, 12
    Edad
    38
    Mensajes
    334
    Última Actividad
    19/06/2019 @ 12:31
    Nacionalidad
    Chile

    Poder de reputación
    7

    Predeterminado Re: Glass (2019) 2160p 4k UHD HDR Dual Latino-Inglés [Subt. Esp] (Intriga. Thriller)

    Gracias!

Información de tema

Usuarios viendo este tema

Actualmente hay 1 usuarios viendo este tema. (0 miembros y 1 visitantes)

Temas similares

  1. Respuestas: 164
    Último mensaje: hoy, 01:52
  2. Respuestas: 69
    Último mensaje: 31/05/2019, 16:42
  3. Respuestas: 9
    Último mensaje: 04/05/2019, 11:20
  4. Respuestas: 89
    Último mensaje: 04/05/2019, 11:19
  5. Respuestas: 17
    Último mensaje: 27/04/2019, 15:51

Miembros que han leído este tema: 109

Marcadores

Permisos de publicación

  • No puedes crear nuevos temas
  • No puedes responder temas
  • No puedes subir archivos adjuntos
  • No puedes editar tus mensajes
  •