Banner Uploaded Klass

Resultados 1 al 10 de 10

Tema: Justice League vs The Fatal Five (2019) 2160p 4k UHD HDR Dual Latino-Inglés [Subt. Esp] (Animación. Acción)

  1. #1
    HD Brady

    Avatar de Brady
    Fecha de ingreso
    01 jun, 16
    Edad
    22
    Mensajes
    1,939
    Última Actividad
    @
    Nacionalidad
    Mexico
    Sexo
    Hombre

    Poder de reputación
    236

    Predeterminado Justice League vs The Fatal Five (2019) 2160p 4k UHD HDR Dual Latino-Inglés [Subt. Esp] (Animación. Acción)






    Título Original: Justice League vs The Fatal Five
    Año: 2019
    Duración: 77 min.
    País: United States
    Director: Sam Liu
    Guion: Alan Burnett, Eric Carrasco, James Krieg (Cómic: Jim Shooter)
    Reparto: Animation
    Productora: Warner Bros. Animation. Distribuida por Warner Bros. Home Entertainment
    Género: Animación. Acción. Ciencia ficción | Superhéroes. Cómic. DC Comics




    El destino del planeta Tierra pende de un hilo cuando los miembros de la Liga de la Justicia se enfrentan a una nueva y peligrosa amenaza: los denominados "Fatal Five". Superman, Batman y Wonder Woman buscan respuestas mientras Mano, Persuader y Tharok aterrorizan la ciudad de Metrópolis tras la pista de una Linterna Verde llamada Jessica Cruz. Con la ayuda de Cruz, los miembros de la banda Fatal Five pretenden liberar a Emerald Empress y a Validus para poder poner así en marcha su siniestro plan. Mientras tanto, la Liga de la Justicia descubre a un poderoso aliado en el peculiar Star Boy, cuyo poder resulta aún inestable. Una épica batalla por el control del planeta está a punto de comenzar.





    Datos Técnicos
    Video:
    MPEGH HEVC / 2160p / High Profile 5.1 / 3370 kbps

    Audio:
    Español Latino / AC3 5.1 / 640 kbps / 48kHz / Bluray 4k
    Inglés / DTS-HD MA/Core 5.1 / 2271/1509 kbps / 48kHz / Bluray 4k
    Inglés / AC3 5.1 / 640 kbps / 48kHz / Bluray 4k

    Subs:
    Español Latino / SubRip / Bluray 4k
    Español Latino Forzados / SubRip / Bluray 4k
    Español Latino / Sup / Bluray 4k
    Español Latino Forzados / Sup / Bluray 4k
    Inglés / Sup / Bluray 4k

    Código:
    General
    Unique ID                                : 115552337333582731780376689813796764447 (0x56EE9216DEB70D7BAAF8CB5C936D3B1F)
    Format                                   : Matroska
    Format version                           : Version 4
    File size                                : 3.41 GiB
    Duration                                 : 1 h 17 min
    Overall bit rate mode                    : Variable
    Overall bit rate                         : 6 300 kb/s
    Encoded date                             : UTC 2019-04-12 20:49:44
    Writing application                      : mkvmerge v27.0.0 ('Metropolis') 64-bit
    Writing library                          : libebml v1.3.6 + libmatroska v1.4.9
    Uploader                                 : Brady
    Web                                      : www.club-hd.com
    
    Video
    ID                                       : 1
    Format                                   : HEVC
    Format/Info                              : High Efficiency Video Coding
    Commercial name                          : HDR10
    Format profile                           : Main 10@L5.1@High
    Codec ID                                 : V_MPEGH/ISO/HEVC
    Duration                                 : 1 h 17 min
    Bit rate                                 : 3 370 kb/s
    Width                                    : 3 840 pixels
    Height                                   : 2 160 pixels
    Display aspect ratio                     : 16:9
    Frame rate mode                          : Constant
    Frame rate                               : 23.976 (24000/1001) FPS
    Color space                              : YUV
    Chroma subsampling                       : 4:2:0 (Type 2)
    Bit depth                                : 10 bits
    Bits/(Pixel*Frame)                       : 0.017
    Stream size                              : 1.82 GiB (53%)
    Writing library                          : x265 3.0_Au+17-b36242b9f354:[Windows][MSVC 1920][64 bit] 10bit
    Encoding settings                        : cpuid=1111039 / frame-threads=6 / numa-pools=36 / wpp / no-pmode / no-pme / no-psnr / no-ssim / log-level=2 / input-csp=1 / input-res=3840x2160 / interlace=0 / total-frames=111480 / level-idc=51 / high-tier=1 / uhd-bd=1 / ref=4 / no-allow-non-conformance / repeat-headers / annexb / aud / hrd / info / hash=0 / no-temporal-layers / no-open-gop / min-keyint=1 / keyint=24 / gop-lookahead=0 / bframes=4 / b-adapt=2 / b-pyramid / bframe-bias=0 / rc-lookahead=25 / lookahead-slices=4 / scenecut=40 / radl=0 / no-splice / no-intra-refresh / ctu=64 / min-cu-size=8 / rect / no-amp / max-tu-size=32 / tu-inter-depth=1 / tu-intra-depth=1 / limit-tu=0 / rdoq-level=2 / dynamic-rd=0.00 / no-ssim-rd / signhide / no-tskip / nr-intra=0 / nr-inter=0 / no-constrained-intra / no-strong-intra-smoothing / max-merge=3 / limit-refs=3 / limit-modes / me=3 / subme=3 / merange=57 / temporal-mvp / weightp / no-weightb / no-analyze-src-pics / deblock=-3:-3 / no-sao / no-sao-non-deblock / rd=4 / no-early-skip / rskip / no-fast-intra / no-tskip-fast / no-cu-lossless / no-b-intra / no-splitrd-skip / rdpenalty=0 / psy-rd=2.00 / psy-rdoq=1.00 / no-rd-refine / no-lossless / cbqpoffs=0 / crqpoffs=0 / rc=crf / crf=17.0 / qcomp=0.60 / qpstep=4 / stats-write=0 / stats-read=0 / vbv-maxrate=160000 / vbv-bufsize=160000 / vbv-init=0.9 / crf-max=0.0 / crf-min=0.0 / ipratio=1.40 / pbratio=1.30 / aq-mode=2 / aq-strength=1.00 / cutree / zone-count=0 / no-strict-cbr / qg-size=32 / no-rc-grain / qpmax=69 / qpmin=0 / no-const-vbv / sar=1 / overscan=0 / videoformat=5 / range=0 / colorprim=9 / transfer=16 / colormatrix=9 / chromaloc=1 / chromaloc-top=2 / chromaloc-bottom=2 / display-window=0 / master-display=G(13250,34500)B(7500,3000)R(34000,16000)WP(15635,16450)L(40000000,50) / max-cll=790,294 / min-luma=0 / max-luma=1023 / log2-max-poc-lsb=8 / vui-timing-info / vui-hrd-info / slices=1 / no-opt-qp-pps / no-opt-ref-list-length-pps / no-multi-pass-opt-rps / scenecut-bias=0.05 / no-opt-cu-delta-qp / no-aq-motion / hdr / hdr-opt / no-dhdr10-opt / no-idr-recovery-sei / analysis-reuse-level=5 / scale-factor=0 / refine-intra=0 / refine-inter=0 / refine-mv=0 / refine-ctu-distortion=0 / no-limit-sao / ctu-info=0 / no-lowpass-dct / refine-analysis-type=0 / copy-pic=1 / max-ausize-factor=1.0 / no-dynamic-refine / no-single-sei / no-hevc-aq / no-svt / qp-adaptation-range=1.00
    Language                                 : English
    Default                                  : Yes
    Forced                                   : No
    Color range                              : Limited
    Color primaries                          : BT.2020
    Transfer characteristics                 : PQ
    Matrix coefficients                      : BT.2020 non-constant
    Mastering display color primaries        : Display P3
    Mastering display luminance              : min: 0.0050 cd/m2, max: 4000 cd/m2
    Maximum Content Light Level              : 790 cd/m2
    Maximum Frame-Average Light Level        : 294 cd/m2
    
    Audio #1
    ID                                       : 2
    Format                                   : AC-3
    Format/Info                              : Audio Coding 3
    Commercial name                          : Dolby Digital
    Codec ID                                 : A_AC3
    Duration                                 : 1 h 17 min
    Bit rate mode                            : Constant
    Bit rate                                 : 640 kb/s
    Channel(s)                               : 6 channels
    Channel layout                           : L R C LFE Ls Rs
    Sampling rate                            : 48.0 kHz
    Frame rate                               : 31.250 FPS (1536 SPF)
    Bit depth                                : 16 bits
    Compression mode                         : Lossy
    Stream size                              : 355 MiB (10%)
    Title                                    : Latino AC3 5.1 640 kbps Bluray 4k
    Language                                 : Latin
    Service kind                             : Complete Main
    Default                                  : Yes
    Forced                                   : No
    
    Audio #2
    ID                                       : 3
    Format                                   : DTS XLL
    Format/Info                              : Digital Theater Systems
    Commercial name                          : DTS-HD Master Audio
    Codec ID                                 : A_DTS
    Duration                                 : 1 h 17 min
    Bit rate mode                            : Variable
    Bit rate                                 : 2 271 kb/s
    Channel(s)                               : 6 channels
    Channel layout                           : C L R Ls Rs LFE
    Sampling rate                            : 48.0 kHz
    Frame rate                               : 93.750 FPS (512 SPF)
    Bit depth                                : 24 bits
    Compression mode                         : Lossless
    Stream size                              : 1.23 GiB (36%)
    Title                                    : Ingles DTS-HD MA/Core 5.1 2271/1509 kbps Bluray 4k
    Language                                 : English
    Default                                  : No
    Forced                                   : No
    
    Text #1
    ID                                       : 4
    Format                                   : UTF-8
    Codec ID                                 : S_TEXT/UTF8
    Codec ID/Info                            : UTF-8 Plain Text
    Duration                                 : 1 h 16 min
    Bit rate                                 : 38 b/s
    Count of elements                        : 671
    Stream size                              : 21.4 KiB (0%)
    Title                                    : Latino
    Language                                 : Latin
    Default                                  : No
    Forced                                   : No
    
    Text #2
    ID                                       : 5
    Format                                   : UTF-8
    Codec ID                                 : S_TEXT/UTF8
    Codec ID/Info                            : UTF-8 Plain Text
    Duration                                 : 1 h 14 min
    Bit rate                                 : 0 b/s
    Count of elements                        : 6
    Stream size                              : 138 Bytes (0%)
    Title                                    : Forzados
    Language                                 : Latin
    Default                                  : Yes
    Forced                                   : No
    
    Text #3
    ID                                       : 6
    Format                                   : PGS
    Muxing mode                              : zlib
    Codec ID                                 : S_HDMV/PGS
    Codec ID/Info                            : Picture based subtitle format used on BDs/HD-DVDs
    Duration                                 : 1 h 16 min
    Bit rate                                 : 21.9 kb/s
    Count of elements                        : 1342
    Stream size                              : 12.0 MiB (0%)
    Title                                    : Latino
    Language                                 : Latin
    Default                                  : No
    Forced                                   : No
    
    Text #4
    ID                                       : 7
    Format                                   : PGS
    Muxing mode                              : zlib
    Codec ID                                 : S_HDMV/PGS
    Codec ID/Info                            : Picture based subtitle format used on BDs/HD-DVDs
    Duration                                 : 1 h 14 min
    Bit rate                                 : 183 b/s
    Count of elements                        : 12
    Stream size                              : 100 KiB (0%)
    Title                                    : Forzados
    Language                                 : Latin
    Default                                  : No
    Forced                                   : No
    
    Text #5
    ID                                       : 8
    Format                                   : PGS
    Muxing mode                              : zlib
    Codec ID                                 : S_HDMV/PGS
    Codec ID/Info                            : Picture based subtitle format used on BDs/HD-DVDs
    Duration                                 : 1 h 16 min
    Bit rate                                 : 25.9 kb/s
    Count of elements                        : 1774
    Stream size                              : 14.2 MiB (0%)
    Title                                    : Ingles
    Language                                 : English
    Default                                  : No
    Forced                                   : No













    Links Intercambiables





    Compra tu Membresía VIP y apoya a Club-HD!

    Click Aquí para más información.

    ATENCIÓN! Finalmente tenemos TODO el material de Club-HD disponible por Mega, enlaces 100% activos y online hoy







    Compra tu Membresía VIP y apoya a Club-HD!

    Click Aquí para más información.

    ATENCIÓN! Finalmente tenemos TODO el material de Club-HD disponible por Mega, enlaces 100% activos y online hoy







    1. Primero, deben estár registrados, sino no habrá manera de que puedan ver los Enlaces.

    2. Una vez registrados, sólo deben dejar un simple comentario de Siete (7) letras/carácteres mínimo, o también un simple "Me gusta".

    Con eso ya podrán ver los links sin ningún problema.

    Nota: Usamos este sistema para proteger los links de Club-HD, y hasta la fecha funciona muy bien.





    1. Primero, deben estár registrados, sino no habrá manera de que puedan ver los Enlaces.

    2. Una vez registrados, sólo deben dejar un simple comentario de Siete (7) letras/carácteres mínimo, o también un simple "Me gusta".

    Con eso ya podrán ver los links sin ningún problema.

    Nota: Usamos este sistema para proteger los links de Club-HD, y hasta la fecha funciona muy bien.





    1. Primero, deben estár registrados, sino no habrá manera de que puedan ver los Enlaces.

    2. Una vez registrados, sólo deben dejar un simple comentario de Siete (7) letras/carácteres mínimo, o también un simple "Me gusta".

    Con eso ya podrán ver los links sin ningún problema.

    Nota: Usamos este sistema para proteger los links de Club-HD, y hasta la fecha funciona muy bien.




    Código:
    www.club-hd.com
    Let's Go, Do Your Job.

    Si te gusta mi material en 4K, que mejor que una cuenta de uploaded premium para bajar sin limites y gozar de una pelicula en 4K HDR, no te pierdas esta gran oportunidad, solo ingresa al Banner de abajo y compra tu cuenta Uploaded Premium, no te arrepentiras

  2. Los siguientes 4 Usuarios dieron Me Gusta a Brady por este Post:

    alesgdl (18/04/2019),flujo (15/04/2019),frmr (16/04/2019),ramayo (15/04/2019)

  3. #2
    Miembro Destacado
    Avatar de Josiba
    Fecha de ingreso
    27 ago, 12
    Edad
    50
    Mensajes
    5,143
    Última Actividad
    hoy @ 00:19
    Nacionalidad
    Costa Rica

    Poder de reputación
    13

    Predeterminado Re: Justice League vs The Fatal Five (2019) 2160p 4k UHD HDR Dual Latino-Inglés [Subt. Esp] (Animación. Acción)


  4. #3
    Gran Miembro
    Avatar de flujo
    Fecha de ingreso
    28 dic, 14
    Mensajes
    5,868
    Última Actividad
    Ayer @ 13:29
    Nacionalidad
    Mexico
    Sexo
    Hombre

    Poder de reputación
    11

    Predeterminado Re: Justice League vs The Fatal Five (2019) 2160p 4k UHD HDR Dual Latino-Inglés [Subt. Esp] (Animación. Acción)

    gracias

  5. #4
    Gran Miembro
    Avatar de magicseven
    Fecha de ingreso
    12 nov, 18
    Mensajes
    118
    Última Actividad
    15/04/2019 @ 15:01
    Nacionalidad
    Mexico
    Sexo
    Hombre

    Poder de reputación
    1

    Predeterminado Re: Justice League vs The Fatal Five (2019) 2160p 4k UHD HDR Dual Latino-Inglés [Subt. Esp] (Animación. Acción)

    muchas gracias

  6. #5
    Miembro Destacado
    Avatar de lordw21
    Fecha de ingreso
    27 ago, 12
    Ubicación
    En algun lugar del Universo
    Mensajes
    1,988
    Última Actividad
    Ayer @ 23:23
    Nacionalidad
    Mexico
    Sexo
    Hombre

    Poder de reputación
    13

    Predeterminado Re: Justice League vs The Fatal Five (2019) 2160p 4k UHD HDR Dual Latino-Inglés [Subt. Esp] (Animación. Acción)


  7. #6
    Miembro Destacado
    Avatar de PATRICIOG
    Fecha de ingreso
    29 may, 15
    Mensajes
    2,040
    Última Actividad
    Ayer @ 22:51
    Nacionalidad
    Chile
    Sexo
    Hombre

    Poder de reputación
    6

    Predeterminado Re: Justice League vs The Fatal Five (2019) 2160p 4k UHD HDR Dual Latino-Inglés [Subt. Esp] (Animación. Acción)


  8. #7
    Miembro Destacado
    Avatar de joelmax18
    Fecha de ingreso
    28 ago, 12
    Edad
    39
    Mensajes
    1,894
    Última Actividad
    Ayer @ 02:06
    Nacionalidad
    Dominican Republic

    Poder de reputación
    8

    Predeterminado Re: Justice League vs The Fatal Five (2019) 2160p 4k UHD HDR Dual Latino-Inglés [Subt. Esp] (Animación. Acción)

    gracias

  9. #8
    Gran Miembro
    Avatar de elpobremauri
    Fecha de ingreso
    20 nov, 12
    Mensajes
    390
    Última Actividad
    hoy @ 00:39
    Nacionalidad
    Chile
    Sexo
    Hombre

    Poder de reputación
    7

    Predeterminado Re: Justice League vs The Fatal Five (2019) 2160p 4k UHD HDR Dual Latino-Inglés [Subt. Esp] (Animación. Acción)


  10. #9
    Miembro Destacado
    Avatar de juniorgarabo
    Fecha de ingreso
    16 sep, 12
    Edad
    35
    Mensajes
    3,573
    Última Actividad
    Ayer @ 21:38
    Nacionalidad
    Dominican Republic
    Sexo
    Hombre

    Poder de reputación
    29

    Predeterminado Re: Justice League vs The Fatal Five (2019) 2160p 4k UHD HDR Dual Latino-Inglés [Subt. Esp] (Animación. Acción)


  11. #10
    Miembro Destacado
    Avatar de Bernal
    Fecha de ingreso
    28 ago, 12
    Edad
    35
    Mensajes
    1,387
    Última Actividad
    Ayer @ 20:18
    Nacionalidad
    Peru
    Sexo
    Hombre

    Poder de reputación
    10

    Predeterminado Re: Justice League vs The Fatal Five (2019) 2160p 4k UHD HDR Dual Latino-Inglés [Subt. Esp] (Animación. Acción)

    las animaciones 4k ripeadas son mas livianas que las 1080p DBrip jajaja ta bueno eso ... gracias
    http://gifsanimados.de/img-gifsanimados.de/k/kof/anyskof.gif

Información de tema

Usuarios viendo este tema

Actualmente hay 1 usuarios viendo este tema. (0 miembros y 1 visitantes)

Temas similares

  1. Respuestas: 50
    Último mensaje: Ayer, 23:57
  2. Respuestas: 32
    Último mensaje: Ayer, 23:01
  3. Respuestas: 17
    Último mensaje: Ayer, 14:35
  4. Respuestas: 55
    Último mensaje: 09/04/2019, 14:12
  5. Respuestas: 19
    Último mensaje: 30/01/2019, 16:40

Miembros que han leído este tema: 31

Marcadores

Permisos de publicación

  • No puedes crear nuevos temas
  • No puedes responder temas
  • No puedes subir archivos adjuntos
  • No puedes editar tus mensajes
  •