Banner Uploaded B.B

Resultados 1 al 19 de 19

Tema: Man On A Ledge (2012) 2160p 4k UHD HDR Dual Latino-Inglés [Subt. Esp] (Acción. Thriller)

  1. #1
    HD Brady

    Avatar de Brady
    Fecha de ingreso
    01 jun, 16
    Edad
    23
    Mensajes
    2,033
    Última Actividad
    @
    Nacionalidad
    Mexico
    Sexo
    Hombre

    Poder de reputación
    272

    Predeterminado Man On A Ledge (2012) 2160p 4k UHD HDR Dual Latino-Inglés [Subt. Esp] (Acción. Thriller)






    Título Original: Man On A Ledge
    Año: 2012
    Duración: 102 min.
    País: United States
    Director: Asger Leth
    Guion: Pablo F. Fenjves
    Reparto: Sam Worthington, Elizabeth Banks, Jamie Bell, Edward Burns, Ed Harris, Titus Welliver, Anthony Mackie, Genesis Rodriguez, William Sadler, Geoffrey Cantor, Jabari Gray, Kyra Sedgwick
    Productora: Di Bonaventura Pictures / Summit Entertainment
    Género: Thriller




    Nick Cassidy (Sam Worthington), un antiguo agente de policía, se escapa de la cárcel y se dirige al Hotel Roosevelt de Nueva York. Al subirse a la cornisa de uno de los pisos más altos, pone en peligro mucho más que su vida. La ciudad entera está a punto de quedarse paralizada, incluidos ciertos individuos que guardan grandes secretos.





    Datos Técnicos
    Video:
    MPEGH HEVC / 2160p / High Profile 5.1 / 29.2 mbps

    Audio:
    Español Latino / AC3 5.1 / 448 kbps / 48kHz / Bluray 4k
    Inglés / TrueHD/Atmos 7.1 / 4148/6540 kbps / 48kHz / Bluray 4k
    Inglés / AC3 EX 5.1 / 640 kbps / 48kHz / Bluray 4k

    Subs:
    Español Latino / SubRip / Bluray 4k
    Español Latino / Sup / Bluray 4k
    Inglés / Sup / Bluray 4k

    Código:
    General
    Unique ID                                : 111720988615913856423507620632089409376 (0x540CAE036345748C330384AC06953760)
    Format                                   : Matroska
    Format version                           : Version 4
    File size                                : 24.7 GiB
    Duration                                 : 1 h 42 min
    Overall bit rate mode                    : Variable
    Overall bit rate                         : 34.6 Mb/s
    Encoded date                             : UTC 2019-04-12 19:44:19
    Writing application                      : mkvmerge v27.0.0 ('Metropolis') 64-bit
    Writing library                          : libebml v1.3.6 + libmatroska v1.4.9
    Uploader                                 : Brady
    Web                                      : www.club-hd.com
    
    Video
    ID                                       : 1
    Format                                   : HEVC
    Format/Info                              : High Efficiency Video Coding
    Commercial name                          : HDR10
    Format profile                           : Main 10@L5.1@High
    Codec ID                                 : V_MPEGH/ISO/HEVC
    Duration                                 : 1 h 42 min
    Bit rate                                 : 29.2 Mb/s
    Width                                    : 3 840 pixels
    Height                                   : 1 600 pixels
    Display aspect ratio                     : 2.40:1
    Frame rate mode                          : Constant
    Frame rate                               : 23.976 (24000/1001) FPS
    Color space                              : YUV
    Chroma subsampling                       : 4:2:0 (Type 2)
    Bit depth                                : 10 bits
    Bits/(Pixel*Frame)                       : 0.199
    Stream size                              : 20.9 GiB (85%)
    Writing library                          : x265 3.0_Au+17-b36242b9f354:[Windows][MSVC 1920][64 bit] 10bit
    Encoding settings                        : cpuid=1111039 / frame-threads=5 / numa-pools=36 / wpp / no-pmode / no-pme / no-psnr / no-ssim / log-level=2 / input-csp=1 / input-res=3840x1600 / interlace=0 / total-frames=147283 / level-idc=51 / high-tier=1 / uhd-bd=0 / ref=4 / no-allow-non-conformance / repeat-headers / annexb / aud / hrd / info / hash=0 / no-temporal-layers / no-open-gop / min-keyint=1 / keyint=24 / gop-lookahead=0 / bframes=4 / b-adapt=2 / b-pyramid / bframe-bias=0 / rc-lookahead=25 / lookahead-slices=4 / scenecut=40 / radl=0 / no-splice / no-intra-refresh / ctu=64 / min-cu-size=8 / rect / no-amp / max-tu-size=32 / tu-inter-depth=1 / tu-intra-depth=1 / limit-tu=0 / rdoq-level=2 / dynamic-rd=0.00 / no-ssim-rd / signhide / no-tskip / nr-intra=0 / nr-inter=0 / no-constrained-intra / no-strong-intra-smoothing / max-merge=3 / limit-refs=3 / limit-modes / me=3 / subme=3 / merange=57 / temporal-mvp / weightp / no-weightb / no-analyze-src-pics / deblock=-3:-3 / no-sao / no-sao-non-deblock / rd=4 / no-early-skip / rskip / no-fast-intra / no-tskip-fast / no-cu-lossless / no-b-intra / no-splitrd-skip / rdpenalty=0 / psy-rd=2.00 / psy-rdoq=1.00 / no-rd-refine / no-lossless / cbqpoffs=0 / crqpoffs=0 / rc=crf / crf=17.0 / qcomp=0.60 / qpstep=4 / stats-write=0 / stats-read=0 / vbv-maxrate=160000 / vbv-bufsize=160000 / vbv-init=0.9 / crf-max=0.0 / crf-min=0.0 / ipratio=1.40 / pbratio=1.30 / aq-mode=2 / aq-strength=1.00 / cutree / zone-count=0 / no-strict-cbr / qg-size=32 / no-rc-grain / qpmax=69 / qpmin=0 / no-const-vbv / sar=1 / overscan=0 / videoformat=5 / range=0 / colorprim=9 / transfer=16 / colormatrix=9 / chromaloc=1 / chromaloc-top=2 / chromaloc-bottom=2 / display-window=0 / master-display=G(13250,34500)B(7500,3000)R(34000,16000)WP(15635,16450)L(10000000,1) / max-cll=1000,327 / min-luma=0 / max-luma=1023 / log2-max-poc-lsb=8 / vui-timing-info / vui-hrd-info / slices=1 / no-opt-qp-pps / no-opt-ref-list-length-pps / no-multi-pass-opt-rps / scenecut-bias=0.05 / no-opt-cu-delta-qp / no-aq-motion / hdr / hdr-opt / no-dhdr10-opt / no-idr-recovery-sei / analysis-reuse-level=5 / scale-factor=0 / refine-intra=0 / refine-inter=0 / refine-mv=0 / refine-ctu-distortion=0 / no-limit-sao / ctu-info=0 / no-lowpass-dct / refine-analysis-type=0 / copy-pic=1 / max-ausize-factor=1.0 / no-dynamic-refine / no-single-sei / no-hevc-aq / no-svt / qp-adaptation-range=1.00
    Language                                 : English
    Default                                  : Yes
    Forced                                   : No
    Color range                              : Limited
    Color primaries                          : BT.2020
    Transfer characteristics                 : PQ
    Matrix coefficients                      : BT.2020 non-constant
    Mastering display color primaries        : Display P3
    Mastering display luminance              : min: 0.0001 cd/m2, max: 1000 cd/m2
    Maximum Content Light Level              : 1000 cd/m2
    Maximum Frame-Average Light Level        : 327 cd/m2
    
    Audio #1
    ID                                       : 2
    Format                                   : AC-3
    Format/Info                              : Audio Coding 3
    Commercial name                          : Dolby Digital
    Codec ID                                 : A_AC3
    Duration                                 : 1 h 42 min
    Bit rate mode                            : Constant
    Bit rate                                 : 448 kb/s
    Channel(s)                               : 6 channels
    Channel layout                           : L R C LFE Ls Rs
    Sampling rate                            : 48.0 kHz
    Frame rate                               : 31.250 FPS (1536 SPF)
    Bit depth                                : 16 bits
    Compression mode                         : Lossy
    Stream size                              : 328 MiB (1%)
    Title                                    : Latino AC3 5.1 640 kbps Bluray 4k
    Language                                 : Latin
    Service kind                             : Complete Main
    Default                                  : Yes
    Forced                                   : No
    
    Audio #2
    ID                                       : 3
    Format                                   : MLP FBA 16-ch
    Format/Info                              : Meridian Lossless Packing FBA with 16-channel presentation
    Commercial name                          : Dolby TrueHD with Dolby Atmos
    Codec ID                                 : A_TRUEHD
    Duration                                 : 1 h 42 min
    Bit rate mode                            : Variable
    Bit rate                                 : 4 148 kb/s
    Maximum bit rate                         : 6 540 kb/s
    Channel(s)                               : 8 channels
    Channel layout                           : L R C LFE Ls Rs Lb Rb
    Sampling rate                            : 48.0 kHz
    Frame rate                               : 1 200.000 FPS (40 SPF)
    Compression mode                         : Lossless
    Stream size                              : 2.97 GiB (12%)
    Title                                    : Ingles TrueHD/Atmos 7.1 4148/6540 kbps Bluray 4k
    Language                                 : English
    Default                                  : No
    Forced                                   : No
    Number of dynamic objects                : 11
    Bed channel count                        : 1 channel
    Bed channel configuration                : LFE
    
    Audio #3
    ID                                       : 4
    Format                                   : AC-3
    Format/Info                              : Audio Coding 3
    Commercial name                          : Dolby Digital
    Codec ID                                 : A_AC3
    Duration                                 : 1 h 42 min
    Bit rate mode                            : Constant
    Bit rate                                 : 640 kb/s
    Channel(s)                               : 6 channels
    Channel layout                           : L R C LFE Ls Rs
    Sampling rate                            : 48.0 kHz
    Frame rate                               : 31.250 FPS (1536 SPF)
    Bit depth                                : 16 bits
    Compression mode                         : Lossy
    Stream size                              : 469 MiB (2%)
    Title                                    : Ingles AC3 EX 5.1 640 kbps Bluray 4k
    Language                                 : English
    Service kind                             : Complete Main
    Default                                  : No
    Forced                                   : No
    
    Text #1
    ID                                       : 5
    Format                                   : UTF-8
    Codec ID                                 : S_TEXT/UTF8
    Codec ID/Info                            : UTF-8 Plain Text
    Duration                                 : 1 h 34 min
    Bit rate                                 : 55 b/s
    Count of elements                        : 1402
    Stream size                              : 38.6 KiB (0%)
    Title                                    : Latino
    Language                                 : Latin
    Default                                  : No
    Forced                                   : No
    
    Text #2
    ID                                       : 6
    Format                                   : PGS
    Muxing mode                              : zlib
    Codec ID                                 : S_HDMV/PGS
    Codec ID/Info                            : Picture based subtitle format used on BDs/HD-DVDs
    Duration                                 : 1 h 34 min
    Bit rate                                 : 37.5 kb/s
    Count of elements                        : 2806
    Stream size                              : 25.3 MiB (0%)
    Title                                    : Latino
    Language                                 : Latin
    Default                                  : No
    Forced                                   : No
    
    Text #3
    ID                                       : 7
    Format                                   : PGS
    Muxing mode                              : zlib
    Codec ID                                 : S_HDMV/PGS
    Codec ID/Info                            : Picture based subtitle format used on BDs/HD-DVDs
    Duration                                 : 1 h 34 min
    Bit rate                                 : 41.7 kb/s
    Count of elements                        : 2682
    Stream size                              : 28.1 MiB (0%)
    Title                                    : Ingles
    Language                                 : English
    Default                                  : No
    Forced                                   : No













    Links Intercambiables





    Compra tu Membresía VIP y apoya a Club-HD!

    Click Aquí para más información.

    ATENCIÓN! Finalmente tenemos TODO el material de Club-HD disponible por Mega, enlaces 100% activos y online hoy







    Compra tu Membresía VIP y apoya a Club-HD!

    Click Aquí para más información.

    ATENCIÓN! Finalmente tenemos TODO el material de Club-HD disponible por Mega, enlaces 100% activos y online hoy







    1. Primero, deben estár registrados, sino no habrá manera de que puedan ver los Enlaces.

    2. Una vez registrados, sólo deben dejar un simple comentario de Siete (7) letras/carácteres mínimo, o también un simple "Me gusta".

    Con eso ya podrán ver los links sin ningún problema.

    Nota: Usamos este sistema para proteger los links de Club-HD, y hasta la fecha funciona muy bien.





    1. Primero, deben estár registrados, sino no habrá manera de que puedan ver los Enlaces.

    2. Una vez registrados, sólo deben dejar un simple comentario de Siete (7) letras/carácteres mínimo, o también un simple "Me gusta".

    Con eso ya podrán ver los links sin ningún problema.

    Nota: Usamos este sistema para proteger los links de Club-HD, y hasta la fecha funciona muy bien.





    1. Primero, deben estár registrados, sino no habrá manera de que puedan ver los Enlaces.

    2. Una vez registrados, sólo deben dejar un simple comentario de Siete (7) letras/carácteres mínimo, o también un simple "Me gusta".

    Con eso ya podrán ver los links sin ningún problema.

    Nota: Usamos este sistema para proteger los links de Club-HD, y hasta la fecha funciona muy bien.




    Código:
    www.club-hd.com
    Let's Go, Do Your Job.

    Si te gusta mi material en 4K, que mejor que una cuenta de uploaded premium para bajar sin limites y gozar de una pelicula en 4K HDR, no te pierdas esta gran oportunidad, solo ingresa al Banner de abajo y compra tu cuenta Uploaded Premium, no te arrepentiras

  2. Los siguientes 10 Usuarios dieron Me Gusta a Brady por este Post:

    Agus18 (24/04/2019),beaubinz (02/05/2019),crack20 (15/04/2019),cripp (22/04/2019),flujo (15/04/2019),FUNKSW (20/04/2019),garmenta (15/04/2019),hojosverdes (17/04/2019),Leo (22/04/2019),Pte.A.Carmine (29/04/2019)

  3. #2
    Miembro Destacado
    Avatar de Josiba
    Fecha de ingreso
    27 ago, 12
    Edad
    50
    Mensajes
    5,334
    Última Actividad
    hoy @ 17:11
    Nacionalidad
    Costa Rica

    Poder de reputación
    13

    Predeterminado Re: Man On A Ledge (2012) 2160p 4k UHD HDR Dual Latino-Inglés [Subt. Esp] (Acción. Thriller)


  4. #3
    Miembro Destacado
    Avatar de virus619
    Fecha de ingreso
    28 ago, 12
    Edad
    30
    Mensajes
    3,954
    Última Actividad
    22/06/2019 @ 19:07
    Nacionalidad
    Chile

    Poder de reputación
    11

    Predeterminado Re: Man On A Ledge (2012) 2160p 4k UHD HDR Dual Latino-Inglés [Subt. Esp] (Acción. Thriller)


  5. #4
    Gran Miembro
    Avatar de flujo
    Fecha de ingreso
    28 dic, 14
    Mensajes
    6,095
    Última Actividad
    hoy @ 21:18
    Nacionalidad
    Mexico
    Sexo
    Hombre

    Poder de reputación
    12

    Predeterminado Re: Man On A Ledge (2012) 2160p 4k UHD HDR Dual Latino-Inglés [Subt. Esp] (Acción. Thriller)

    gracias

  6. #5
    Miembro Destacado
    Avatar de joelmax18
    Fecha de ingreso
    28 ago, 12
    Edad
    39
    Mensajes
    1,986
    Última Actividad
    Ayer @ 01:55
    Nacionalidad
    Dominican Republic

    Poder de reputación
    8

    Predeterminado Re: Man On A Ledge (2012) 2160p 4k UHD HDR Dual Latino-Inglés [Subt. Esp] (Acción. Thriller)

    Gracias

  7. #6
    Miembro Destacado
    Avatar de mathiasfx
    Fecha de ingreso
    17 oct, 12
    Edad
    39
    Mensajes
    631
    Última Actividad
    22/06/2019 @ 17:05
    Nacionalidad
    Argentina
    Sexo
    Hombre

    Poder de reputación
    7

    Predeterminado Re: Man On A Ledge (2012) 2160p 4k UHD HDR Dual Latino-Inglés [Subt. Esp] (Acción. Thriller)

    Genial en 4k cada vez mejor gracias! Conseguis de terror en 4k? Las oclinas tienen ojos estoy buscando. Gracias master

  8. #7
    Miembro Destacado
    Avatar de PATRICIOG
    Fecha de ingreso
    29 may, 15
    Mensajes
    2,095
    Última Actividad
    hoy @ 14:31
    Nacionalidad
    Chile
    Sexo
    Hombre

    Poder de reputación
    7

    Predeterminado Re: Man On A Ledge (2012) 2160p 4k UHD HDR Dual Latino-Inglés [Subt. Esp] (Acción. Thriller)


  9. #8
    Gran Miembro
    Avatar de GASA2010
    Fecha de ingreso
    01 feb, 14
    Mensajes
    893
    Última Actividad
    hoy @ 22:29
    Nacionalidad
    Macau
    Sexo
    Hombre

    Poder de reputación
    6

    Predeterminado Re: Man On A Ledge (2012) 2160p 4k UHD HDR Dual Latino-Inglés [Subt. Esp] (Acción. Thriller)

    gracias

  10. #9
    Gran Miembro
    Avatar de JJCV
    Fecha de ingreso
    26 abr, 15
    Mensajes
    167
    Última Actividad
    22/06/2019 @ 22:12
    Nacionalidad
    Mexico
    Sexo
    Hombre

    Poder de reputación
    5

    Predeterminado Re: Man On A Ledge (2012) 2160p 4k UHD HDR Dual Latino-Inglés [Subt. Esp] (Acción. Thriller)

    Muchas gracias!!

  11. #10
    Gran Miembro
    Avatar de elpobremauri
    Fecha de ingreso
    20 nov, 12
    Mensajes
    555
    Última Actividad
    hoy @ 14:17
    Nacionalidad
    Chile
    Sexo
    Hombre

    Poder de reputación
    7

    Predeterminado Re: Man On A Ledge (2012) 2160p 4k UHD HDR Dual Latino-Inglés [Subt. Esp] (Acción. Thriller)


  12. #11
    Miembro Destacado
    Avatar de juniorgarabo
    Fecha de ingreso
    16 sep, 12
    Edad
    36
    Mensajes
    3,645
    Última Actividad
    Ayer @ 21:12
    Nacionalidad
    Dominican Republic
    Sexo
    Hombre

    Poder de reputación
    29

    Predeterminado Re: Man On A Ledge (2012) 2160p 4k UHD HDR Dual Latino-Inglés [Subt. Esp] (Acción. Thriller)


  13. #12
    Gran Miembro
    Avatar de elpobremauri
    Fecha de ingreso
    20 nov, 12
    Mensajes
    555
    Última Actividad
    hoy @ 14:17
    Nacionalidad
    Chile
    Sexo
    Hombre

    Poder de reputación
    7

    Predeterminado Re: Man On A Ledge (2012) 2160p 4k UHD HDR Dual Latino-Inglés [Subt. Esp] (Acción. Thriller)


  14. #13
    Gran Miembro
    Avatar de elpobremauri
    Fecha de ingreso
    20 nov, 12
    Mensajes
    555
    Última Actividad
    hoy @ 14:17
    Nacionalidad
    Chile
    Sexo
    Hombre

    Poder de reputación
    7

    Predeterminado Re: Man On A Ledge (2012) 2160p 4k UHD HDR Dual Latino-Inglés [Subt. Esp] (Acción. Thriller)


  15. #14
    Gran Miembro
    Avatar de jafont32
    Fecha de ingreso
    07 mar, 16
    Edad
    38
    Mensajes
    699
    Última Actividad
    Ayer @ 07:31
    Nacionalidad
    Argentina
    Sexo
    Hombre

    Poder de reputación
    4

    Predeterminado Re: Man On A Ledge (2012) 2160p 4k UHD HDR Dual Latino-Inglés [Subt. Esp] (Acción. Thriller)

    Gracias

  16. #15
    Gran Miembro
    Avatar de elpobremauri
    Fecha de ingreso
    20 nov, 12
    Mensajes
    555
    Última Actividad
    hoy @ 14:17
    Nacionalidad
    Chile
    Sexo
    Hombre

    Poder de reputación
    7

    Predeterminado Re: Man On A Ledge (2012) 2160p 4k UHD HDR Dual Latino-Inglés [Subt. Esp] (Acción. Thriller)


  17. #16
    Miembro Junior Avatar de mottita
    Fecha de ingreso
    14 ago, 14
    Mensajes
    17
    Última Actividad
    18/04/2019 @ 15:44
    Nacionalidad
    Chile
    Sexo
    Hombre

    Poder de reputación
    5

    Predeterminado Re: Man On A Ledge (2012) 2160p 4k UHD HDR Dual Latino-Inglés [Subt. Esp] (Acción. Thriller)

    Graciassss

  18. #17
    Miembro Destacado
    Avatar de cripp
    Fecha de ingreso
    27 ago, 12
    Mensajes
    7,002
    Última Actividad
    hoy @ 16:16
    Nacionalidad
    Costa Rica

    Poder de reputación
    17

    Predeterminado Re: Man On A Ledge (2012) 2160p 4k UHD HDR Dual Latino-Inglés [Subt. Esp] (Acción. Thriller)

    Gracias por compartir

  19. #18
    Gran Miembro
    Avatar de consuelobarturen
    Fecha de ingreso
    02 ene, 14
    Mensajes
    1,602
    Última Actividad
    hoy @ 00:05
    Nacionalidad
    Peru
    Sexo
    Hombre

    Poder de reputación
    7

    Predeterminado Re: Man On A Ledge (2012) 2160p 4k UHD HDR Dual Latino-Inglés [Subt. Esp] (Acción. Thriller)

    graciassssssss

  20. #19
    Gran Miembro
    Avatar de Brego
    Fecha de ingreso
    05 oct, 14
    Mensajes
    1,555
    Última Actividad
    hoy @ 20:09
    Nacionalidad
    Chile
    Sexo
    Hombre

    Poder de reputación
    6

    Predeterminado Re: Man On A Ledge (2012) 2160p 4k UHD HDR Dual Latino-Inglés [Subt. Esp] (Acción. Thriller)

    Gracias

Información de tema

Usuarios viendo este tema

Actualmente hay 1 usuarios viendo este tema. (0 miembros y 1 visitantes)

Temas similares

  1. Respuestas: 58
    Último mensaje: 14/06/2019, 12:23
  2. Respuestas: 93
    Último mensaje: 18/05/2019, 13:37
  3. Respuestas: 129
    Último mensaje: 06/05/2019, 09:51
  4. Respuestas: 29
    Último mensaje: 17/12/2018, 12:52
  5. Respuestas: 214
    Último mensaje: 19/07/2018, 03:41

Miembros que han leído este tema: 65

Marcadores

Permisos de publicación

  • No puedes crear nuevos temas
  • No puedes responder temas
  • No puedes subir archivos adjuntos
  • No puedes editar tus mensajes
  •