Banner Uploaded Brady

Resultados 1 al 11 de 11

Tema: Surf's Up (2007) 1080p BDRip HEVC Dual Audio Latino - Inglés [Subt.Esp] ( Animación. Comedia )

  1. #1
    Uploader
    Avatar de Klass
    Fecha de ingreso
    27 sep, 15
    Edad
    25
    Mensajes
    612
    Última Actividad
    hoy @ 18:41
    Nacionalidad
    Chile
    Sexo
    Hombre

    Poder de reputación
    42

    Predeterminado Surf's Up (2007) 1080p BDRip HEVC Dual Audio Latino - Inglés [Subt.Esp] ( Animación. Comedia )



    Título original: Surf's Up
    Latino: Los reyes de las olas
    Año: 2007
    Duración: 85 min.
    País: Estados Unidos
    Director: Ash Brannon, Chris Buck
    Reparto: Animation
    Productora: Sony Pictures Animation / Columbia Pictures / Wonder Works Studios
    Genero: Animación. Comedia. Infantil | Deporte. Surf. Falso documental. Animales

    Premios

    2007: Nominada al Oscar: Mejor película de animación
    2007: Premios Annie: 2 premios técnicos. 10 nominaciones


    Sinopsis
    Los pingüinos, que como todo el mundo sabe inventaron el surf, se enfrentan en una arriesgada y espectacular competición: la "Copa Mundial de Surf de Pingüinos". El adolescente pingüino Rockhopper, Cody Maverick, es un surfero en ciernes que se introduce en su primera competición profesional. Seguido por un equipo de cámara para documentar sus experiencias, Cody deja su familia y su hogar en Shiverpool, la Antártida, para viajar a la isla de Pen Gu para el Campeonato de Surf en Memoria de Big Z. En el camino, Cody conoce al surfero de Sheboygan, Chicken Joe, al famoso promotor de surf Reggie Belafonte, el cazatalentos de surf Mikey Abromowitz, y la enérgica vigilante Lani Aliikai, que reconocen la pasión de Cody por el surf, aunque en ocasiones esté un poco mal encauzado. Cody cree que esa voluntad para ganar le dará la admiración y el respeto que desea, pero cuando inesperadamente se enfrenta con un viejo surfero acabado, Cody empieza a encontrar su propio camino...

    6.7/10
















    Código:
    Format : Matroska Format version : Version 4 File size : 3.76 GiB Duration : 1 h 25 min Overall bit rate : 6 299 kb/s Movie name : Surf's Up - www.club-hd.com [KLASS] Encoded date : UTC 2019-04-12 19:29:16 Writing application : mkvmerge v27.0.0 ('Metropolis') 64-bit Writing library : libebml v1.3.6 + libmatroska v1.4.9 Uploader : Klass Web : www.club-hd.com Video ID : 1 Format : HEVC Format/Info : High Efficiency Video Coding Format profile : Main 10@L4@Main Codec ID : V_MPEGH/ISO/HEVC Duration : 1 h 25 min Bit rate : 5 000 kb/s Width : 1 920 pixels Height : 1 040 pixels Display aspect ratio : 1.85:1 Frame rate mode : Constant Frame rate : 23.976 (24000/1001) FPS Color space : YUV Chroma subsampling : 4:2:0 Bit depth : 10 bits Bits/(Pixel*Frame) : 0.104 Stream size : 2.99 GiB (79%) Writing library : x265 2.7+337-54ff74d2b635:[Windows][GCC 7.3.0][64 bit] 10bit Encoding settings : cpuid=1111039 / frame-threads=3 / numa-pools=8 / wpp / no-pmode / no-pme / no-psnr / no-ssim / log-level=2 / input-csp=1 / input-res=1920x1040 / interlace=0 / total-frames=123023 / level-idc=0 / high-tier=1 / uhd-bd=0 / ref=4 / no-allow-non-conformance / no-repeat-headers / annexb / no-aud / no-hrd / info / hash=0 / no-temporal-layers / open-gop / min-keyint=23 / keyint=250 / gop-lookahead=0 / bframes=4 / b-adapt=2 / b-pyramid / bframe-bias=0 / rc-lookahead=25 / lookahead-slices=4 / scenecut=40 / radl=0 / no-intra-refresh / ctu=64 / min-cu-size=8 / rect / no-amp / max-tu-size=32 / tu-inter-depth=1 / tu-intra-depth=1 / limit-tu=0 / rdoq-level=2 / dynamic-rd=0.00 / no-ssim-rd / signhide / no-tskip / nr-intra=0 / nr-inter=0 / no-constrained-intra / strong-intra-smoothing / max-merge=3 / limit-refs=3 / limit-modes / me=3 / subme=3 / merange=57 / temporal-mvp / weightp / no-weightb / no-analyze-src-pics / deblock=0:0 / sao / no-sao-non-deblock / rd=4 / no-early-skip / rskip / no-fast-intra / no-tskip-fast / no-cu-lossless / no-b-intra / no-splitrd-skip / rdpenalty=0 / psy-rd=2.00 / psy-rdoq=1.00 / no-rd-refine / no-lossless / cbqpoffs=0 / crqpoffs=0 / rc=abr / bitrate=5000 / qcomp=0.60 / qpstep=4 / stats-write=0 / stats-read=2 / cplxblur=20.0 / qblur=0.5 / ipratio=1.40 / pbratio=1.30 / aq-mode=2 / aq-strength=1.00 / cutree / zone-count=0 / no-strict-cbr / qg-size=32 / no-rc-grain / qpmax=69 / qpmin=0 / no-const-vbv / sar=0 / overscan=0 / videoformat=5 / range=0 / colorprim=2 / transfer=2 / colormatrix=2 / chromaloc=0 / display-window=0 / max-cll=0,0 / min-luma=0 / max-luma=1023 / log2-max-poc-lsb=8 / vui-timing-info / vui-hrd-info / slices=1 / no-opt-qp-pps / no-opt-ref-list-length-pps / multi-pass-opt-rps / scenecut-bias=0.05 / no-opt-cu-delta-qp / aq-motion / no-hdr / no-hdr-opt / no-dhdr10-opt / no-idr-recovery-sei / analysis-reuse-level=5 / scale-factor=0 / refine-intra=0 / refine-inter=0 / refine-mv=0 / no-limit-sao / ctu-info=0 / no-lowpass-dct / refine-mv-type=0 / copy-pic=1 / max-ausize-factor=1.0 / no-dynamic-refine / no-single-sei Default : Yes Forced : No Audio #1 ID : 2 Format : AC-3 Format/Info : Audio Coding 3 Commercial name : Dolby Digital Codec ID : A_AC3 Duration : 1 h 25 min Bit rate mode : Constant Bit rate : 640 kb/s Channel(s) : 6 channels Channel layout : L R C LFE Ls Rs Sampling rate : 48.0 kHz Frame rate : 31.250 FPS (1536 SPF) Bit depth : 16 bits Compression mode : Lossy Stream size : 391 MiB (10%) Title : Latino Bluray Language : Latin Service kind : Complete Main Default : Yes Forced : No Audio #2 ID : 3 Format : AC-3 Format/Info : Audio Coding 3 Commercial name : Dolby Digital Codec ID : A_AC3 Duration : 1 h 25 min Bit rate mode : Constant Bit rate : 640 kb/s Channel(s) : 6 channels Channel layout : L R C LFE Ls Rs Sampling rate : 48.0 kHz Frame rate : 31.250 FPS (1536 SPF) Bit depth : 16 bits Compression mode : Lossy Stream size : 391 MiB (10%) Title : Inglés Bluray Language : English Service kind : Complete Main Default : No Forced : No Text #1 ID : 4 Format : UTF-8 Codec ID : S_TEXT/UTF8 Codec ID/Info : UTF-8 Plain Text Duration : 1 h 24 min Bit rate : 66 b/s Count of elements : 1136 Stream size : 41.3 KiB (0%) Title : Completos Language : Latin Default : No Forced : No Text #2 ID : 5 Format : PGS Muxing mode : zlib Codec ID : S_HDMV/PGS Codec ID/Info : Picture based subtitle format used on BDs/HD-DVDs Duration : 1 h 24 min Bit rate : 36.8 kb/s Count of elements : 2277 Stream size : 22.3 MiB (1%) Title : Bluray Language : Latin Default : No Forced : No Menu 00:00:00.000 : :Chapter 1 00:06:08.243 : :Chapter 2 00:12:08.603 : :Chapter 3 00:17:43.145 : :Chapter 4 00:23:06.260 : :Chapter 5 00:27:53.005 : :Chapter 6 00:33:00.937 : :Chapter 7 00:38:14.501 : :Chapter 8 00:44:13.484 : :Chapter 9 00:46:43.467 : :Chapter 10 00:51:40.097 : :Chapter 11 00:55:47.469 : :Chapter 12 01:02:08.683 : :Chapter 13 01:07:55.029 : :Chapter 14 01:12:11.077 : :Chapter 15 01:16:24.705 : :Chapter 16

    Contraseña: www.club-hd.com






    Compra tu Membresía VIP y apoya a Club-HD!

    Click Aquí para más información.

    ATENCIÓN! Finalmente tenemos TODO el material de Club-HD disponible por Mega, enlaces 100% activos y online hoy








    Compra tu Membresía VIP y apoya a Club-HD!

    Click Aquí para más información.

    ATENCIÓN! Finalmente tenemos TODO el material de Club-HD disponible por Mega, enlaces 100% activos y online hoy








    1. Primero, deben estár registrados, sino no habrá manera de que puedan ver los Enlaces.

    2. Una vez registrados, sólo deben dejar un simple comentario de Siete (7) letras/carácteres mínimo, o también un simple "Me gusta".

    Con eso ya podrán ver los links sin ningún problema.

    Nota: Usamos este sistema para proteger los links de Club-HD, y hasta la fecha funciona muy bien.






    1. Primero, deben estár registrados, sino no habrá manera de que puedan ver los Enlaces.

    2. Una vez registrados, sólo deben dejar un simple comentario de Siete (7) letras/carácteres mínimo, o también un simple "Me gusta".

    Con eso ya podrán ver los links sin ningún problema.

    Nota: Usamos este sistema para proteger los links de Club-HD, y hasta la fecha funciona muy bien.
    Última edición por Klass; 12/04/2019 a las 17:23
    Uploaded.net, el filehost recomendado por Club-HD. Si piensan comprar una cuenta premium, pueden hacerlo desde el siguiente banner, de esta manera se ganarían el privilegio de que les resubamos cualquier aporte perdido de Club-HD!

  2. Los siguientes 8 Usuarios dieron Me Gusta a Klass por este Post:

    Angel_cb7 (18/04/2019),bastione (12/04/2019),beaubinz (13/04/2019),cardelsan (14/04/2019),cripp (22/04/2019),flujo (13/04/2019),FUNKSW (20/04/2019),Leo (12/04/2019)

  3. #2
    Miembro Destacado
    Avatar de Josiba
    Fecha de ingreso
    27 ago, 12
    Edad
    50
    Mensajes
    5,329
    Última Actividad
    hoy @ 18:20
    Nacionalidad
    Costa Rica

    Poder de reputación
    13

    Predeterminado Re: Surf's Up (2007) 1080p BDRip HEVC Dual Audio Latino - Inglés [Subt.Esp] ( Animación. Comedia )


  4. #3
    Gran Miembro
    Avatar de clubhd73
    Fecha de ingreso
    24 feb, 15
    Mensajes
    1,979
    Última Actividad
    15/06/2019 @ 06:38
    Nacionalidad
    Mexico
    Sexo
    Hombre

    Poder de reputación
    6

    Predeterminado Re: Surf's Up (2007) 1080p BDRip HEVC Dual Audio Latino - Inglés [Subt.Esp] ( Animación. Comedia )

    Gracias

  5. #4
    Miembro Destacado
    Avatar de virus619
    Fecha de ingreso
    28 ago, 12
    Edad
    30
    Mensajes
    3,953
    Última Actividad
    hoy @ 08:19
    Nacionalidad
    Chile

    Poder de reputación
    11

    Predeterminado Re: Surf's Up (2007) 1080p BDRip HEVC Dual Audio Latino - Inglés [Subt.Esp] ( Animación. Comedia )


  6. #5
    Miembro Destacado
    Avatar de SAAEDVI
    Fecha de ingreso
    09 nov, 14
    Mensajes
    934
    Última Actividad
    hoy @ 18:41
    Nacionalidad
    Chile
    Sexo
    Hombre

    Poder de reputación
    5

    Predeterminado Re: Surf's Up (2007) 1080p BDRip HEVC Dual Audio Latino - Inglés [Subt.Esp] ( Animación. Comedia )

    me gusta

  7. #6
    Miembro Destacado
    Avatar de payo7
    Fecha de ingreso
    27 ago, 12
    Edad
    43
    Mensajes
    976
    Última Actividad
    Ayer @ 22:40
    Nacionalidad
    Mexico

    Poder de reputación
    7

    Predeterminado Re: Surf's Up (2007) 1080p BDRip HEVC Dual Audio Latino - Inglés [Subt.Esp] ( Animación. Comedia )

    Gracias

  8. #7
    Miembro
    Avatar de maguf
    Fecha de ingreso
    09 ene, 19
    Edad
    29
    Mensajes
    70
    Última Actividad
    29/04/2019 @ 11:33
    Nacionalidad
    Dominican Republic
    Sexo
    Hombre

    Poder de reputación
    1

    Predeterminado Re: Surf's Up (2007) 1080p BDRip HEVC Dual Audio Latino - Inglés [Subt.Esp] ( Animación. Comedia )


  9. #8
    Gran Miembro
    Avatar de flujo
    Fecha de ingreso
    28 dic, 14
    Mensajes
    6,086
    Última Actividad
    Ayer @ 17:49
    Nacionalidad
    Mexico
    Sexo
    Hombre

    Poder de reputación
    12

    Predeterminado Re: Surf's Up (2007) 1080p BDRip HEVC Dual Audio Latino - Inglés [Subt.Esp] ( Animación. Comedia )

    gracias

  10. #9
    Miembro Destacado
    Avatar de cripp
    Fecha de ingreso
    27 ago, 12
    Mensajes
    6,992
    Última Actividad
    Ayer @ 12:15
    Nacionalidad
    Costa Rica

    Poder de reputación
    16

    Predeterminado Re: Surf's Up (2007) 1080p BDRip HEVC Dual Audio Latino - Inglés [Subt.Esp] ( Animación. Comedia )

    Gracias por compartir

  11. #10
    Gran Miembro
    Avatar de consuelobarturen
    Fecha de ingreso
    02 ene, 14
    Mensajes
    1,599
    Última Actividad
    18/06/2019 @ 15:53
    Nacionalidad
    Peru
    Sexo
    Hombre

    Poder de reputación
    7

    Predeterminado Re: Surf's Up (2007) 1080p BDRip HEVC Dual Audio Latino - Inglés [Subt.Esp] ( Animación. Comedia )

    graciassssssss

  12. #11
    Miembro Destacado
    Avatar de LAPICADERA
    Fecha de ingreso
    28 ago, 12
    Edad
    36
    Mensajes
    4,380
    Última Actividad
    hoy @ 19:06
    Nacionalidad
    Puerto Rico

    Poder de reputación
    21

    Predeterminado Re: Surf's Up (2007) 1080p BDRip HEVC Dual Audio Latino - Inglés [Subt.Esp] ( Animación. Comedia )

    gracias

Información de tema

Usuarios viendo este tema

Actualmente hay 1 usuarios viendo este tema. (0 miembros y 1 visitantes)

Temas similares

  1. Respuestas: 55
    Último mensaje: 18/06/2019, 22:36
  2. Respuestas: 52
    Último mensaje: 14/04/2019, 15:48
  3. Respuestas: 27
    Último mensaje: 09/02/2019, 16:26
  4. Surf's Up (2007) Solo Audio Latino [AC3 5.1] (Extraído de un BDRip)
    Por Dark_shady en el foro Solo Audios Latinos.
    Respuestas: 25
    Último mensaje: 30/10/2018, 12:07
  5. Respuestas: 30
    Último mensaje: 27/02/2017, 00:50

Miembros que han leído este tema: 39

Marcadores

Permisos de publicación

  • No puedes crear nuevos temas
  • No puedes responder temas
  • No puedes subir archivos adjuntos
  • No puedes editar tus mensajes
  •