Banner Uploaded Brady

Resultados 1 al 18 de 18

Tema: Mortal Engines (2018) 3D H-SBS 1080p BDRip Dual Audio Latino-Inglés [Subt. Esp] (Ciencia ficción. Acción. Aventuras)

  1. #1
    Dohko de Libra

    Avatar de HemoAr
    Fecha de ingreso
    08 mar, 13
    Ubicación
    Rozan
    Mensajes
    10,401
    Última Actividad
    @
    Nacionalidad
    Mexico
    Sexo
    Hombre

    Poder de reputación
    533

    Cool Mortal Engines (2018) 3D H-SBS 1080p BDRip Dual Audio Latino-Inglés [Subt. Esp] (Ciencia ficción. Acción. Aventuras)










    Título original: Mortal Engines
    Año: 2018
    Duración: 128 min.
    País: Nueva Zelanda
    Director: Christian Rivers
    Reparto: Hugo Weaving, Hera Hilmar, Robert Sheehan, Jihae, Ronan Raftery, Leila George, Patrick Malahide, Stephen Lang, Joel Tobeck, Frankie Adams, Colin Salmon, Caren Pistorius, Stephen Ure, Andrew Lees, Mark Mitchinson, Calum Gittins, Nathaniel Lees, Mark Hadlow, Sarah Peirse, Regé-Jean Page, Menik Gooneratne
    Productora: Coproducción Nueva Zelanda-Estados Unidos; Universal Pictures / Media Rights Capital (MRC) / Scholastic Productions / Silvertongue Films / Wingnut Films
    Género: Ciencia ficción. Acción. Aventuras | Futuro postapocalíptico. Distopía

    Sinopsis: Miles de años después de la destrucción de la civilización por un cataclismo, la humanidad se ha adaptado y, ahora, existen gigantescas ciudades en movimiento que vagan por la tierra sobre enormes ruedas absorbiendo a los pueblos más pequeños para obtener recursos. En una de esas colosales urbes Tom Natsworthy (Robert Sheehan), proveniente de la clase baja de Londres, deberá luchar por su vida junto a la peligrosa fugitiva Hester Shaw (Hera Hilmar). Dos opuestos, cuyos caminos nunca debieron cruzarse, forman una peculiar alianza destinada a cambiar el curso del futuro.
































    General

    Format : Matroska
    Format version : Version 4
    File size : 9.90 GiB
    Duration : 2 h 8 min
    Overall bit rate : 11.0 Mb/s
    Movie name : Mortal Engines (2018) 3D H-SBS 1080p BDRip Dual Audio Latino-Inglés
    Encoded date : UTC 2019-04-11 22:02:54
    Writing application : mkvmerge v27.0.0 ('Metropolis') 64-bit
    Writing library : libebml v1.3.6 + libmatroska v1.4.9

    Video
    ID : 1
    Format : AVC
    Format/Info : Advanced Video Codec
    Format profile : High@L4.1
    Format settings : CABAC / 3 Ref Frames
    Format settings, CABAC : Yes
    Format settings, RefFrames : 3 frames
    Codec ID : V_MPEG4/ISO/AVC
    Duration : 2 h 8 min
    Bit rate : 9 944 kb/s
    Width : 1 920 pixels
    Height : 1 080 pixels
    Display aspect ratio : 16:9
    Frame rate mode : Constant
    Frame rate : 23.976 (24000/1001) FPS
    Color space : YUV
    Chroma subsampling : 4:2:0
    Bit depth : 8 bits
    Scan type : Progressive
    Bits/(Pixel*Frame) : 0.200
    Stream size : 8.91 GiB (90%)
    Title : Mortal Engines (2018) 3D H-SBS 1080p BDRip Dual Audio Latino-Inglés
    Writing library : x264 core 148
    Encoding settings : cabac=1 / ref=3 / deblock=1:-1:-1 / analyse=0x3:0 / me=hex / subme=5 / psy=1 / psy_rd=1.00:0.00 / mixed_ref=0 / me_range=16 / chroma_me=1 / trellis=1 / 8x8dct=1 / cqm=0 / deadzone=21,11 / fast_pskip=0 / chroma_qp_offset=0 / threads=8 / lookahead_threads=2 / sliced_threads=0 / nr=0 / decimate=1 / interlaced=0 / bluray_compat=0 / constrained_intra=0 / bframes=2 / b_pyramid=0 / b_adapt=1 / b_bias=0 / direct=1 / weightb=0 / open_gop=0 / weightp=0 / keyint=24 / keyint_min=2 / scenecut=40 / intra_refresh=0 / rc=2pass / mbtree=0 / bitrate=9944 / ratetol=1.0 / qcomp=0.60 / qpmin=0 / qpmax=69 / qpstep=4 / cplxblur=20.0 / qblur=0.5 / ip_ratio=1.40 / pb_ratio=1.30 / aq=1:1.00
    Language : English
    Default : Yes
    Forced : No
    Color range : Limited
    Color primaries : BT.709
    Transfer characteristics : BT.709
    Matrix coefficients : BT.709

    Audio #1
    ID : 2
    Format : AC-3
    Format/Info : Audio Coding 3
    Commercial name : Dolby Digital
    Codec ID : A_AC3
    Duration : 2 h 8 min
    Bit rate mode : Constant
    Bit rate : 640 kb/s
    Channel(s) : 6 channels
    Channel layout : L R C LFE Ls Rs
    Sampling rate : 48.0 kHz
    Frame rate : 31.250 FPS (1536 SPF)
    Bit depth : 16 bits
    Compression mode : Lossy
    Stream size : 588 MiB (6%)
    Title : AC3 5.1
    Language : Spanish
    Service kind : Complete Main
    Default : Yes
    Forced : No

    Audio #2
    ID : 3
    Format : AC-3
    Format/Info : Audio Coding 3
    Commercial name : Dolby Digital
    Codec ID : A_AC3
    Duration : 2 h 8 min
    Bit rate mode : Constant
    Bit rate : 448 kb/s
    Channel(s) : 6 channels
    Channel layout : L R C LFE Ls Rs
    Sampling rate : 48.0 kHz
    Frame rate : 31.250 FPS (1536 SPF)
    Bit depth : 16 bits
    Compression mode : Lossy
    Stream size : 411 MiB (4%)
    Title : AC3 5.1
    Language : English
    Service kind : Complete Main
    Default : No
    Forced : No

    Text #1
    ID : 4
    Format : UTF-8
    Codec ID : S_TEXT/UTF8
    Codec ID/Info : UTF-8 Plain Text
    Duration : 1 h 43 min
    Bit rate : 0 b/s
    Count of elements : 20
    Stream size : 625 Bytes (0%)
    Title : Subtitulos_Forzados
    Language : Spanish
    Default : Yes
    Forced : No

    Text #2
    ID : 5
    Format : UTF-8
    Codec ID : S_TEXT/UTF8
    Codec ID/Info : UTF-8 Plain Text
    Duration : 1 h 57 min
    Bit rate : 40 b/s
    Count of elements : 1241
    Stream size : 35.0 KiB (0%)
    Title : Subtitulos_Completos
    Language : Spanish
    Default : No
    Forced : No

    Text #3
    ID : 6
    Format : PGS
    Muxing mode : zlib
    Codec ID : S_HDMV/PGS
    Codec ID/Info : Picture based subtitle format used on BDs/HD-DVDs
    Duration : 2 h 7 min
    Bit rate : 23.3 kb/s
    Count of elements : 2486
    Stream size : 21.3 MiB (0%)
    Title : PGS_Latino
    Language : Spanish
    Default : No
    Forced : No

    Menu
    00:00:00.000 : en:(01)00:00:00:000
    00:09:24.397 : en:(02)00:09:24:397
    00:16:13.305 : en:(03)00:16:13:305
    00:24:20.625 : en:(04)00:24:20:625
    00:31:24.591 : en:(05)00:31:24:591
    00:35:53.067 : en:(06)00:35:53:067
    00:41:27.818 : en:(07)00:41:27:818
    00:44:53.816 : en:(08)00:44:53:816
    00:50:16.805 : en:(09)00:50:16:805
    00:54:21.174 : en:(10)00:54:21:174
    01:00:51.397 : en:(11)01:00:51:397
    01:07:12.069 : en:(12)01:07:12:069
    01:11:12.851 : en:(13)01:11:12:851
    01:17:37.736 : en:(14)01:17:37:736
    01:25:25.620 : en:(15)01:25:25:620
    01:33:30.396 : en:(16)01:33:30:396
    01:39:28.545 : en:(17)01:39:28:545
    01:47:58.263 : en:(18)01:47:58:263
    01:52:11.558 : en:(19)01:52:11:558
    01:58:33.523 : en:(20)01:58:33:523
    02:08:20.442 : en:(21)02:08:20:442





    Contraseña para extraer: www.club-hd.com

    Nota: Los archivos .rev no es necesario descargar al menos que algun .rar este dañado o que este eliminado












    Compra tu Membresía VIP y apoya a Club-HD!

    Click Aquí para más información.

    ATENCIÓN! Finalmente tenemos TODO el material de Club-HD disponible por Mega, enlaces 100% activos y online hoy









    Compra tu Membresía VIP y apoya a Club-HD!

    Click Aquí para más información.

    ATENCIÓN! Finalmente tenemos TODO el material de Club-HD disponible por Mega, enlaces 100% activos y online hoy









    1. Primero, deben estár registrados, sino no habrá manera de que puedan ver los Enlaces.

    2. Una vez registrados, sólo deben dejar un simple comentario de Siete (7) letras/carácteres mínimo, o también un simple "Me gusta".

    Con eso ya podrán ver los links sin ningún problema.

    Nota: Usamos este sistema para proteger los links de Club-HD, y hasta la fecha funciona muy bien.







    1. Primero, deben estár registrados, sino no habrá manera de que puedan ver los Enlaces.

    2. Una vez registrados, sólo deben dejar un simple comentario de Siete (7) letras/carácteres mínimo, o también un simple "Me gusta".

    Con eso ya podrán ver los links sin ningún problema.

    Nota: Usamos este sistema para proteger los links de Club-HD, y hasta la fecha funciona muy bien.







    1. Primero, deben estár registrados, sino no habrá manera de que puedan ver los Enlaces.

    2. Una vez registrados, sólo deben dejar un simple comentario de Siete (7) letras/carácteres mínimo, o también un simple "Me gusta".

    Con eso ya podrán ver los links sin ningún problema.

    Nota: Usamos este sistema para proteger los links de Club-HD, y hasta la fecha funciona muy bien.

    Última edición por HemoAr; 11/04/2019 a las 19:49



    Uploaded.net, el filehost recomendado por Club-HD. Si piensan comprar una cuenta premium, pueden hacerlo desde el siguiente banner, de esta manera se ganarían el privilegio de que les resubamos cualquier aporte perdido de Club-HD!




  2. Los siguientes 6 Usuarios dieron Me Gusta a HemoAr por este Post:

    carlos610 (16/04/2019),cripp (22/04/2019),eljumachi (11/04/2019),flujo (12/04/2019),Leo (12/04/2019),Uziel (11/04/2019)

  3. #2
    Miembro Destacado
    Avatar de PATRICIOG
    Fecha de ingreso
    29 may, 15
    Mensajes
    2,040
    Última Actividad
    20/04/2019 @ 15:06
    Nacionalidad
    Chile
    Sexo
    Hombre

    Poder de reputación
    6

    Predeterminado Re: Mortal Engines (2018) 3D H-SBS 1080p BDRip Dual Audio Latino-Inglés [Subt. Esp] (Ciencia ficción. Acción. Aventuras)

    Muchas Gracias

  4. #3
    Miembro Destacado
    Avatar de eljumachi
    Fecha de ingreso
    27 ago, 12
    Mensajes
    2,097
    Última Actividad
    hoy @ 00:56
    Nacionalidad
    Honduras

    Poder de reputación
    12

    Predeterminado Re: Mortal Engines (2018) 3D H-SBS 1080p BDRip Dual Audio Latino-Inglés [Subt. Esp] (Ciencia ficción. Acción. Aventuras)

    Gracias HemoAr mis preferidas Saludos

  5. #4
    Miembro Destacado
    Avatar de Josiba
    Fecha de ingreso
    27 ago, 12
    Edad
    50
    Mensajes
    5,154
    Última Actividad
    Ayer @ 19:59
    Nacionalidad
    Costa Rica

    Poder de reputación
    13

    Predeterminado Re: Mortal Engines (2018) 3D H-SBS 1080p BDRip Dual Audio Latino-Inglés [Subt. Esp] (Ciencia ficción. Acción. Aventuras)


  6. #5
    Gran Miembro
    Avatar de blankienta
    Fecha de ingreso
    03 dic, 13
    Edad
    20
    Mensajes
    721
    Última Actividad
    13/04/2019 @ 01:03
    Nacionalidad
    Mexico
    Sexo
    Mujer

    Poder de reputación
    6

    Predeterminado Re: Mortal Engines (2018) 3D H-SBS 1080p BDRip Dual Audio Latino-Inglés [Subt. Esp] (Ciencia ficción. Acción. Aventuras)


  7. #6
    Gran Miembro
    Avatar de herbard
    Fecha de ingreso
    28 ago, 12
    Mensajes
    1,053
    Última Actividad
    Ayer @ 22:06
    Nacionalidad
    Peru

    Poder de reputación
    8

    Predeterminado Re: Mortal Engines (2018) 3D H-SBS 1080p BDRip Dual Audio Latino-Inglés [Subt. Esp] (Ciencia ficción. Acción. Aventuras)


  8. #7
    Miembro Destacado
    Avatar de robertocarlom70
    Fecha de ingreso
    17 oct, 12
    Mensajes
    771
    Última Actividad
    Ayer @ 17:55
    Nacionalidad
    Mexico
    Sexo
    Hombre

    Poder de reputación
    7

    Predeterminado Re: Mortal Engines (2018) 3D H-SBS 1080p BDRip Dual Audio Latino-Inglés [Subt. Esp] (Ciencia ficción. Acción. Aventuras)

    excelente aporte, gracias

  9. #8
    Gran Miembro
    Avatar de flujo
    Fecha de ingreso
    28 dic, 14
    Mensajes
    5,886
    Última Actividad
    Ayer @ 17:26
    Nacionalidad
    Mexico
    Sexo
    Hombre

    Poder de reputación
    11

    Predeterminado Re: Mortal Engines (2018) 3D H-SBS 1080p BDRip Dual Audio Latino-Inglés [Subt. Esp] (Ciencia ficción. Acción. Aventuras)

    gracias

  10. #9
    Gran Miembro
    Avatar de claudio f
    Fecha de ingreso
    25 may, 18
    Mensajes
    239
    Última Actividad
    Ayer @ 11:28
    Nacionalidad
    Chile
    Sexo
    Hombre

    Poder de reputación
    1

    Predeterminado Re: Mortal Engines (2018) 3D H-SBS 1080p BDRip Dual Audio Latino-Inglés [Subt. Esp] (Ciencia ficción. Acción. Aventuras)

    muchas gracias

  11. #10
    Gran Miembro
    Avatar de marce1977manya
    Fecha de ingreso
    27 ago, 12
    Edad
    42
    Mensajes
    559
    Última Actividad
    13/04/2019 @ 11:16
    Nacionalidad
    Uruguay

    Poder de reputación
    7

    Predeterminado Re: Mortal Engines (2018) 3D H-SBS 1080p BDRip Dual Audio Latino-Inglés [Subt. Esp] (Ciencia ficción. Acción. Aventuras)

    graciasssssssssssssss

  12. #11
    Miembro Destacado
    Avatar de elefante2011
    Fecha de ingreso
    30 ago, 12
    Ubicación
    Montevideo
    Edad
    50
    Mensajes
    1,445
    Última Actividad
    22/04/2019 @ 14:19
    Nacionalidad
    Uruguay
    Sexo
    Hombre

    Poder de reputación
    8

    Predeterminado Re: Mortal Engines (2018) 3D H-SBS 1080p BDRip Dual Audio Latino-Inglés [Subt. Esp] (Ciencia ficción. Acción. Aventuras)

    Gracias!!!

  13. #12
    Miembro Destacado
    Avatar de juniorgarabo
    Fecha de ingreso
    16 sep, 12
    Edad
    35
    Mensajes
    3,578
    Última Actividad
    Ayer @ 15:00
    Nacionalidad
    Dominican Republic
    Sexo
    Hombre

    Poder de reputación
    29

    Predeterminado Re: Mortal Engines (2018) 3D H-SBS 1080p BDRip Dual Audio Latino-Inglés [Subt. Esp] (Ciencia ficción. Acción. Aventuras)


  14. #13
    Gran Miembro
    Avatar de jafont32
    Fecha de ingreso
    07 mar, 16
    Edad
    38
    Mensajes
    670
    Última Actividad
    22/04/2019 @ 01:49
    Nacionalidad
    Argentina
    Sexo
    Hombre

    Poder de reputación
    4

    Predeterminado Re: Mortal Engines (2018) 3D H-SBS 1080p BDRip Dual Audio Latino-Inglés [Subt. Esp] (Ciencia ficción. Acción. Aventuras)

    Gracias

  15. #14
    Miembro Destacado
    Avatar de candela09
    Fecha de ingreso
    16 jul, 15
    Mensajes
    241
    Última Actividad
    22/04/2019 @ 22:27
    Nacionalidad
    Argentina
    Sexo
    Mujer

    Poder de reputación
    4

    Predeterminado Re: Mortal Engines (2018) 3D H-SBS 1080p BDRip Dual Audio Latino-Inglés [Subt. Esp] (Ciencia ficción. Acción. Aventuras)

    Muchas gracias!!!

  16. #15
    Miembro Destacado
    Avatar de candela09
    Fecha de ingreso
    16 jul, 15
    Mensajes
    241
    Última Actividad
    22/04/2019 @ 22:27
    Nacionalidad
    Argentina
    Sexo
    Mujer

    Poder de reputación
    4

    Predeterminado Re: Mortal Engines (2018) 3D H-SBS 1080p BDRip Dual Audio Latino-Inglés [Subt. Esp] (Ciencia ficción. Acción. Aventuras)

    Cita Iniciado por HemoAr Ver mensaje









    Título original: Mortal Engines
    Año: 2018
    Duración: 128 min.
    País: Nueva Zelanda
    Director: Christian Rivers
    Reparto: Hugo Weaving, Hera Hilmar, Robert Sheehan, Jihae, Ronan Raftery, Leila George, Patrick Malahide, Stephen Lang, Joel Tobeck, Frankie Adams, Colin Salmon, Caren Pistorius, Stephen Ure, Andrew Lees, Mark Mitchinson, Calum Gittins, Nathaniel Lees, Mark Hadlow, Sarah Peirse, Regé-Jean Page, Menik Gooneratne
    Productora: Coproducción Nueva Zelanda-Estados Unidos; Universal Pictures / Media Rights Capital (MRC) / Scholastic Productions / Silver Films / Wingnut Films
    Género: Ciencia ficción. Acción. Aventuras | Futuro postapocalíptico. Distopía

    Sinopsis: Miles de años después de la destrucción de la civilización por un cataclismo, la humanidad se ha adaptado y, ahora, existen gigantescas ciudades en movimiento que vagan por la tierra sobre enormes ruedas absorbiendo a los pueblos más pequeños para obtener recursos. En una de esas colosales urbes Tom Natsworthy (Robert Sheehan), proveniente de la clase baja de Londres, deberá luchar por su vida junto a la peligrosa fugitiva Hester Shaw (Hera Hilmar). Dos opuestos, cuyos caminos nunca debieron cruzarse, forman una peculiar alianza destinada a cambiar el curso del futuro.
































    General

    Format : Matroska
    Format version : Version 4
    File size : 9.90 GiB
    Duration : 2 h 8 min
    Overall bit rate : 11.0 Mb/s
    Movie name : Mortal Engines (2018) 3D H-SBS 1080p BDRip Dual Audio Latino-Inglés
    Encoded date : UTC 2019-04-11 22:02:54
    Writing application : mkvmerge v27.0.0 ('Metropolis') 64-bit
    Writing library : libebml v1.3.6 + libmatroska v1.4.9

    Video
    ID : 1
    Format : AVC
    Format/Info : Advanced Video Codec
    Format profile : High@L4.1
    Format settings : CABAC / 3 Ref Frames
    Format settings, CABAC : Yes
    Format settings, RefFrames : 3 frames
    Codec ID : V_MPEG4/ISO/AVC
    Duration : 2 h 8 min
    Bit rate : 9 944 kb/s
    Width : 1 920 pixels
    Height : 1 080 pixels
    Display aspect ratio : 16:9
    Frame rate mode : Constant
    Frame rate : 23.976 (24000/1001) FPS
    Color space : YUV
    Chroma subsampling : 4:2:0
    Bit depth : 8 bits
    Scan type : Progressive
    Bits/(Pixel*Frame) : 0.200
    Stream size : 8.91 GiB (90%)
    Title : Mortal Engines (2018) 3D H-SBS 1080p BDRip Dual Audio Latino-Inglés
    Writing library : x264 core 148
    Encoding settings : cabac=1 / ref=3 / deblock=1:-1:-1 / analyse=0x3:0 / me=hex / subme=5 / psy=1 / psy_rd=1.00:0.00 / mixed_ref=0 / me_range=16 / chroma_me=1 / trellis=1 / 8x8dct=1 / cqm=0 / deadzone=21,11 / fast_pskip=0 / chroma_qp_offset=0 / threads=8 / lookahead_threads=2 / sliced_threads=0 / nr=0 / decimate=1 / interlaced=0 / bluray_compat=0 / constrained_intra=0 / bframes=2 / b_pyramid=0 / b_adapt=1 / b_bias=0 / direct=1 / weightb=0 / open_gop=0 / weightp=0 / keyint=24 / keyint_min=2 / scenecut=40 / intra_refresh=0 / rc=2pass / mbtree=0 / bitrate=9944 / ratetol=1.0 / qcomp=0.60 / qpmin=0 / qpmax=69 / qpstep=4 / cplxblur=20.0 / qblur=0.5 / ip_ratio=1.40 / pb_ratio=1.30 / aq=1:1.00
    Language : English
    Default : Yes
    Forced : No
    Color range : Limited
    Color primaries : BT.709
    Transfer characteristics : BT.709
    Matrix coefficients : BT.709

    Audio #1
    ID : 2
    Format : AC-3
    Format/Info : Audio Coding 3
    Commercial name : Dolby Digital
    Codec ID : A_AC3
    Duration : 2 h 8 min
    Bit rate mode : Constant
    Bit rate : 640 kb/s
    Channel(s) : 6 channels
    Channel layout : L R C LFE Ls Rs
    Sampling rate : 48.0 kHz
    Frame rate : 31.250 FPS (1536 SPF)
    Bit depth : 16 bits
    Compression mode : Lossy
    Stream size : 588 MiB (6%)
    Title : AC3 5.1
    Language : Spanish
    Service kind : Complete Main
    Default : Yes
    Forced : No

    Audio #2
    ID : 3
    Format : AC-3
    Format/Info : Audio Coding 3
    Commercial name : Dolby Digital
    Codec ID : A_AC3
    Duration : 2 h 8 min
    Bit rate mode : Constant
    Bit rate : 448 kb/s
    Channel(s) : 6 channels
    Channel layout : L R C LFE Ls Rs
    Sampling rate : 48.0 kHz
    Frame rate : 31.250 FPS (1536 SPF)
    Bit depth : 16 bits
    Compression mode : Lossy
    Stream size : 411 MiB (4%)
    Title : AC3 5.1
    Language : English
    Service kind : Complete Main
    Default : No
    Forced : No

    Text #1
    ID : 4
    Format : UTF-8
    Codec ID : S_TEXT/UTF8
    Codec ID/Info : UTF-8 Plain Text
    Duration : 1 h 43 min
    Bit rate : 0 b/s
    Count of elements : 20
    Stream size : 625 Bytes (0%)
    Title : Subtitulos_Forzados
    Language : Spanish
    Default : Yes
    Forced : No

    Text #2
    ID : 5
    Format : UTF-8
    Codec ID : S_TEXT/UTF8
    Codec ID/Info : UTF-8 Plain Text
    Duration : 1 h 57 min
    Bit rate : 40 b/s
    Count of elements : 1241
    Stream size : 35.0 KiB (0%)
    Title : Subtitulos_Completos
    Language : Spanish
    Default : No
    Forced : No

    Text #3
    ID : 6
    Format : PGS
    Muxing mode : zlib
    Codec ID : S_HDMV/PGS
    Codec ID/Info : Picture based subtitle format used on BDs/HD-DVDs
    Duration : 2 h 7 min
    Bit rate : 23.3 kb/s
    Count of elements : 2486
    Stream size : 21.3 MiB (0%)
    Title : PGS_Latino
    Language : Spanish
    Default : No
    Forced : No

    Menu
    00:00:00.000 : en01)00:00:00:000
    00:09:24.397 : en02)00:09:24:397
    00:16:13.305 : en03)00:16:13:305
    00:24:20.625 : en04)00:24:20:625
    00:31:24.591 : en05)00:31:24:591
    00:35:53.067 : en06)00:35:53:067
    00:41:27.818 : en07)00:41:27:818
    00:44:53.816 : en08)00:44:53:816
    00:50:16.805 : en09)00:50:16:805
    00:54:21.174 : en10)00:54:21:174
    01:00:51.397 : en11)01:00:51:397
    01:07:12.069 : en12)01:07:12:069
    01:11:12.851 : en13)01:11:12:851
    01:17:37.736 : en14)01:17:37:736
    01:25:25.620 : en15)01:25:25:620
    01:33:30.396 : en16)01:33:30:396
    01:39:28.545 : en17)01:39:28:545
    01:47:58.263 : en18)01:47:58:263
    01:52:11.558 : en19)01:52:11:558
    01:58:33.523 : en20)01:58:33:523
    02:08:20.442 : en21)02:08:20:442





    Contraseña para extraer: www.club-hd.com

    Nota: Los archivos .rev no es necesario descargar al menos que algun .rar este dañado o que este eliminado










    ***Hidden content cannot be quoted.***




    ***Hidden content cannot be quoted.***




    ***Hidden content cannot be quoted.***




    ***Hidden content cannot be quoted.***




    ***Hidden content cannot be quoted.***
    Muchas gracias!!!

  17. #16
    Miembro Destacado
    Avatar de candela09
    Fecha de ingreso
    16 jul, 15
    Mensajes
    241
    Última Actividad
    22/04/2019 @ 22:27
    Nacionalidad
    Argentina
    Sexo
    Mujer

    Poder de reputación
    4

    Predeterminado Re: Mortal Engines (2018) 3D H-SBS 1080p BDRip Dual Audio Latino-Inglés [Subt. Esp] (Ciencia ficción. Acción. Aventuras)

    Muchas gracias!!!

  18. #17
    Gran Miembro
    Avatar de sosalexfame
    Fecha de ingreso
    10 jul, 15
    Ubicación
    Mexico
    Edad
    37
    Mensajes
    1,492
    Última Actividad
    Ayer @ 19:03
    Nacionalidad
    Mexico
    Sexo
    Hombre

    Poder de reputación
    5

    Predeterminado Re: Mortal Engines (2018) 3D H-SBS 1080p BDRip Dual Audio Latino-Inglés [Subt. Esp] (Ciencia ficción. Acción. Aventuras)

    gracias

  19. #18
    Miembro Destacado
    Avatar de cripp
    Fecha de ingreso
    27 ago, 12
    Mensajes
    6,790
    Última Actividad
    Ayer @ 16:08
    Nacionalidad
    Costa Rica

    Poder de reputación
    16

    Predeterminado Re: Mortal Engines (2018) 3D H-SBS 1080p BDRip Dual Audio Latino-Inglés [Subt. Esp] (Ciencia ficción. Acción. Aventuras)

    Gracias por compartir

Información de tema

Usuarios viendo este tema

Actualmente hay 1 usuarios viendo este tema. (0 miembros y 1 visitantes)

Temas similares

  1. Respuestas: 184
    Último mensaje: Ayer, 19:05
  2. Respuestas: 81
    Último mensaje: 20/04/2019, 10:12
  3. Respuestas: 94
    Último mensaje: 18/04/2019, 19:42
  4. Respuestas: 29
    Último mensaje: 09/04/2019, 20:20

Miembros que han leído este tema: 41

Marcadores

Permisos de publicación

  • No puedes crear nuevos temas
  • No puedes responder temas
  • No puedes subir archivos adjuntos
  • No puedes editar tus mensajes
  •