Banner Uploaded Maria

Página 1 de 2 12 ÚltimoÚltimo
Resultados 1 al 25 de 36

Tema: How to Train Your Dragon (2010) 1080p BDRip HEVC Dual Latino - Inglés [Subt.Esp] ( Animación. Fantástico )

  1. #1
    Uploader
    Avatar de Klass
    Fecha de ingreso
    27 sep, 15
    Edad
    25
    Mensajes
    614
    Última Actividad
    Ayer @ 16:14
    Nacionalidad
    Chile
    Sexo
    Hombre

    Poder de reputación
    42

    Predeterminado How to Train Your Dragon (2010) 1080p BDRip HEVC Dual Latino - Inglés [Subt.Esp] ( Animación. Fantástico )



    Título original: How to Train Your Dragon
    Latino: Como entrenar tu Dragón
    Año: 2010
    Duración: 98 min.
    País: Estados Unidos
    Director: Dean DeBlois, Chris Sanders
    Reparto: Animation
    Productora: DreamWorks Animation / Mad Hatter Entertainment / Vertigo Entertainment
    Genero: Animación. Fantástico. Aventuras. Infantil | Vikingos. Amistad. Dragones. 3-D

    Premios:
    2010: Oscar: Nominada a la Mejor película de animación y mejor banda sonora
    2010: Premios Annie: 10 premios, incluyendo película, director, guión. 16 nominaciones
    2010: 2 Nominaciones a los Premios BAFTA: Mejor película de animación y música
    2010: Satellite Awards: Nominada al Mejor largometraje animado
    2010: Nominada a Critics' Choice Awards: Mejor largometraje de animación
    2010: Asociación de Críticos de Chicago: Nominada a mejor film de animación
    2010: Sindicato de Productores (PGA): Nominada a Mejor película de animación


    Sinopsis
    Ambientada en el mítico mundo de los rudos vikingos y los dragones salvajes, y basada en el libro infantil de Cressida Cowell, esta comedia de acción narra la historia de Hipo, un vikingo adolescente que no encaja exactamente en la antiquísima reputación de su tribu como cazadores de dragones. El mundo de Hipo se trastoca al encontrar a un dragón que le desafía a él y a sus compañeros vikingos, a ver el mundo desde un punto de vista totalmente diferente.

    8.1/10



















    Código:
    Format : Matroska Format version : Version 4 File size : 6.22 GiB Duration : 1 h 37 min Overall bit rate : 9 092 kb/s Movie name : How to Train Your Dragon - www.club-hd.com [KLASS] Encoded date : UTC 2019-04-08 18:17:40 Writing application : mkvmerge v27.0.0 ('Metropolis') 64-bit Writing library : libebml v1.3.6 + libmatroska v1.4.9 Uploader : Klass Web : www.club-hd.com Video ID : 1 Format : HEVC Format/Info : High Efficiency Video Coding Format profile : Main@L4@Main Codec ID : V_MPEGH/ISO/HEVC Duration : 1 h 37 min Bit rate : 7 135 kb/s Width : 1 920 pixels Height : 1 080 pixels Display aspect ratio : 16:9 Frame rate mode : Constant Frame rate : 23.976 (24000/1001) FPS Color space : YUV Chroma subsampling : 4:2:0 Bit depth : 8 bits Bits/(Pixel*Frame) : 0.144 Stream size : 4.88 GiB (78%) Default : Yes Forced : No Audio #1 ID : 2 Format : AC-3 Format/Info : Audio Coding 3 Commercial name : Dolby Digital Codec ID : A_AC3 Duration : 1 h 37 min Bit rate mode : Constant Bit rate : 448 kb/s Channel(s) : 6 channels Channel layout : L R C LFE Ls Rs Sampling rate : 48.0 kHz Frame rate : 31.250 FPS (1536 SPF) Bit depth : 16 bits Compression mode : Lossy Stream size : 314 MiB (5%) Title : Latino Bluray Language : Latin Service kind : Complete Main Default : Yes Forced : No Audio #2 ID : 3 Format : DTS Format/Info : Digital Theater Systems Codec ID : A_DTS Duration : 1 h 37 min Bit rate mode : Constant Bit rate : 1 510 kb/s Channel(s) : 6 channels Channel layout : C L R Ls Rs LFE Sampling rate : 48.0 kHz Frame rate : 93.750 FPS (512 SPF) Bit depth : 24 bits Compression mode : Lossy Stream size : 1.03 GiB (17%) Title : Inglés Bluray Language : English Default : No Forced : No Text #1 ID : 4 Format : UTF-8 Codec ID : S_TEXT/UTF8 Codec ID/Info : UTF-8 Plain Text Duration : 3 s 4 ms Bit rate : 71 b/s Count of elements : 1 Stream size : 27.0 Bytes (0%) Title : Forzados Language : Latin Default : Yes Forced : No Text #2 ID : 5 Format : UTF-8 Codec ID : S_TEXT/UTF8 Codec ID/Info : UTF-8 Plain Text Duration : 1 h 28 min Bit rate : 47 b/s Count of elements : 869 Stream size : 30.8 KiB (0%) Title : Completos Language : Latin Default : No Forced : No Menu 00:00:00.000 : en:CHAPTER01 00:08:39.811 : en:CHAPTER02 00:11:31.983 : en:CHAPTER03 00:15:11.035 : en:CHAPTER04 00:21:57.107 : en:CHAPTER05 00:27:41.702 : en:CHAPTER06 00:33:14.201 : en:CHAPTER07 00:39:07.136 : en:CHAPTER08 00:43:28.731 : en:CHAPTER09 00:47:08.367 : en:CHAPTER10 00:49:47.193 : en:CHAPTER11 00:59:55.801 : en:CHAPTER12 01:04:47.383 : en:CHAPTER13 01:09:28.164 : en:CHAPTER14 01:12:38.187 : en:CHAPTER15 01:23:26.043 : en:CHAPTER16 01:28:54.496 : en:CHAPTER17

    Contraseña: www.club-hd.com






    Compra tu Membresía VIP y apoya a Club-HD!

    Click Aquí para más información.

    ATENCIÓN! Finalmente tenemos TODO el material de Club-HD disponible por Mega, enlaces 100% activos y online hoy








    Compra tu Membresía VIP y apoya a Club-HD!

    Click Aquí para más información.

    ATENCIÓN! Finalmente tenemos TODO el material de Club-HD disponible por Mega, enlaces 100% activos y online hoy








    1. Primero, deben estár registrados, sino no habrá manera de que puedan ver los Enlaces.

    2. Una vez registrados, sólo deben dejar un simple comentario de Siete (7) letras/carácteres mínimo, o también un simple "Me gusta".

    Con eso ya podrán ver los links sin ningún problema.

    Nota: Usamos este sistema para proteger los links de Club-HD, y hasta la fecha funciona muy bien.






    1. Primero, deben estár registrados, sino no habrá manera de que puedan ver los Enlaces.

    2. Una vez registrados, sólo deben dejar un simple comentario de Siete (7) letras/carácteres mínimo, o también un simple "Me gusta".

    Con eso ya podrán ver los links sin ningún problema.

    Nota: Usamos este sistema para proteger los links de Club-HD, y hasta la fecha funciona muy bien.
    Última edición por Klass; 08/04/2019 a las 18:22
    Uploaded.net, el filehost recomendado por Club-HD. Si piensan comprar una cuenta premium, pueden hacerlo desde el siguiente banner, de esta manera se ganarían el privilegio de que les resubamos cualquier aporte perdido de Club-HD!

  2. Los siguientes 14 Usuarios dieron Me Gusta a Klass por este Post:

    beaubinz (09/04/2019),crack20 (09/04/2019),cripp (08/04/2019),dannypirate (11/04/2019),flujo (10/04/2019),freaked (11/04/2019),frmr (24/05/2019),HellSight (27/05/2019),jjchm100683 (09/04/2019),k1blue300c (15/04/2019),Leo (11/04/2019),susaku10 (15/04/2019),terryleal (08/04/2019),virnesto (08/04/2019)

  3. #2
    Miembro Destacado
    Avatar de Josiba
    Fecha de ingreso
    27 ago, 12
    Edad
    50
    Mensajes
    5,334
    Última Actividad
    hoy @ 17:11
    Nacionalidad
    Costa Rica

    Poder de reputación
    13

    Predeterminado Re: How to Train Your Dragon (2010) 1080p BDRip HEVC Dual Latino - Inglés [Subt.Esp] ( Animación. Fantástico )


  4. #3
    Miembro Destacado
    Avatar de cripp
    Fecha de ingreso
    27 ago, 12
    Mensajes
    7,002
    Última Actividad
    hoy @ 16:16
    Nacionalidad
    Costa Rica

    Poder de reputación
    17

    Predeterminado Re: How to Train Your Dragon (2010) 1080p BDRip HEVC Dual Latino - Inglés [Subt.Esp] ( Animación. Fantástico )

    Gracias por compartir

  5. #4
    Miembro VIP en Club-HD!
    Avatar de Enrique-SE
    Fecha de ingreso
    27 ago, 12
    Ubicación
    La Paz
    Mensajes
    435
    Última Actividad
    22/06/2019 @ 11:01
    Nacionalidad
    Mexico
    Sexo
    Hombre

    Poder de reputación
    7

    Predeterminado Re: How to Train Your Dragon (2010) 1080p BDRip HEVC Dual Latino - Inglés [Subt.Esp] ( Animación. Fantástico )


  6. #5
    Gran Miembro
    Avatar de clubhd73
    Fecha de ingreso
    24 feb, 15
    Mensajes
    1,979
    Última Actividad
    15/06/2019 @ 06:38
    Nacionalidad
    Mexico
    Sexo
    Hombre

    Poder de reputación
    6

    Predeterminado Re: How to Train Your Dragon (2010) 1080p BDRip HEVC Dual Latino - Inglés [Subt.Esp] ( Animación. Fantástico )

    Gracias

  7. #6
    Miembro Destacado
    Avatar de jererado
    Fecha de ingreso
    11 jul, 14
    Edad
    39
    Mensajes
    798
    Última Actividad
    21/06/2019 @ 10:58
    Nacionalidad
    Peru
    Sexo
    Hombre

    Poder de reputación
    6

    Predeterminado Re: How to Train Your Dragon (2010) 1080p BDRip HEVC Dual Latino - Inglés [Subt.Esp] ( Animación. Fantástico )

    Gracias

  8. #7
    Miembro Destacado
    Avatar de SAAEDVI
    Fecha de ingreso
    09 nov, 14
    Mensajes
    934
    Última Actividad
    hoy @ 10:54
    Nacionalidad
    Chile
    Sexo
    Hombre

    Poder de reputación
    5

    Predeterminado Re: How to Train Your Dragon (2010) 1080p BDRip HEVC Dual Latino - Inglés [Subt.Esp] ( Animación. Fantástico )

    me gusta

  9. #8
    Miembro Destacado
    Avatar de obstinado
    Fecha de ingreso
    27 ago, 12
    Mensajes
    1,065
    Última Actividad
    Ayer @ 20:10
    Nacionalidad
    Mexico

    Poder de reputación
    8

    Predeterminado Re: How to Train Your Dragon (2010) 1080p BDRip HEVC Dual Latino - Inglés [Subt.Esp] ( Animación. Fantástico )


  10. #9
    Miembro Junior Avatar de terryleal
    Fecha de ingreso
    11 feb, 19
    Mensajes
    20
    Última Actividad
    21/06/2019 @ 23:59
    Nacionalidad
    Mexico
    Sexo
    Hombre

    Poder de reputación
    1

    Predeterminado Re: How to Train Your Dragon (2010) 1080p BDRip HEVC Dual Latino - Inglés [Subt.Esp] ( Animación. Fantástico )

    Cita Iniciado por Klass Ver mensaje


    Título original: How to Train Your Dragon
    Latino: Como entrenar tu Dragón
    Año: 2010
    Duración: 98 min.
    País: Estados Unidos
    Director: Dean DeBlois, Chris Sanders
    Reparto: Animation
    Productora: DreamWorks Animation / Mad Hatter Entertainment / Vertigo Entertainment
    Genero: Animación. Fantástico. Aventuras. Infantil | Vikingos. Amistad. Dragones. 3-D

    Premios:
    2010: Oscar: Nominada a la Mejor película de animación y mejor banda sonora
    2010: Premios Annie: 10 premios, incluyendo película, director, guión. 16 nominaciones
    2010: 2 Nominaciones a los Premios BAFTA: Mejor película de animación y música
    2010: Satellite Awards: Nominada al Mejor largometraje animado
    2010: Nominada a Critics' Choice Awards: Mejor largometraje de animación
    2010: Asociación de Críticos de Chicago: Nominada a mejor film de animación
    2010: Sindicato de Productores (PGA): Nominada a Mejor película de animación


    Sinopsis
    Ambientada en el mítico mundo de los rudos vikingos y los dragones salvajes, y basada en el libro infantil de Cressida Cowell, esta comedia de acción narra la historia de Hipo, un vikingo adolescente que no encaja exactamente en la antiquísima reputación de su tribu como cazadores de dragones. El mundo de Hipo se trastoca al encontrar a un dragón que le desafía a él y a sus compañeros vikingos, a ver el mundo desde un punto de vista totalmente diferente.

    8.1/10



















    Código:
    Format : Matroska Format version : Version 4 File size : 6.22 GiB Duration : 1 h 37 min Overall bit rate : 9 092 kb/s Movie name : How to Train Your Dragon - www.club-hd.com [KLASS] Encoded date : UTC 2019-04-08 18:17:40 Writing application : mkvmerge v27.0.0 ('Metropolis') 64-bit Writing library : libebml v1.3.6 + libmatroska v1.4.9 Uploader : Klass Web : www.club-hd.com Video ID : 1 Format : HEVC Format/Info : High Efficiency Video Coding Format profile : Main@L4@Main Codec ID : V_MPEGH/ISO/HEVC Duration : 1 h 37 min Bit rate : 7 135 kb/s Width : 1 920 pixels Height : 1 080 pixels Display aspect ratio : 16:9 Frame rate mode : Constant Frame rate : 23.976 (24000/1001) FPS Color space : YUV Chroma subsampling : 4:2:0 Bit depth : 8 bits Bits/(Pixel*Frame) : 0.144 Stream size : 4.88 GiB (78%) Default : Yes Forced : No Audio #1 ID : 2 Format : AC-3 Format/Info : Audio Coding 3 Commercial name : Dolby Digital Codec ID : A_AC3 Duration : 1 h 37 min Bit rate mode : Constant Bit rate : 448 kb/s Channel(s) : 6 channels Channel layout : L R C LFE Ls Rs Sampling rate : 48.0 kHz Frame rate : 31.250 FPS (1536 SPF) Bit depth : 16 bits Compression mode : Lossy Stream size : 314 MiB (5%) Title : Latino Bluray Language : Latin Service kind : Complete Main Default : Yes Forced : No Audio #2 ID : 3 Format : DTS Format/Info : Digital Theater Systems Codec ID : A_DTS Duration : 1 h 37 min Bit rate mode : Constant Bit rate : 1 510 kb/s Channel(s) : 6 channels Channel layout : C L R Ls Rs LFE Sampling rate : 48.0 kHz Frame rate : 93.750 FPS (512 SPF) Bit depth : 24 bits Compression mode : Lossy Stream size : 1.03 GiB (17%) Title : Inglés Bluray Language : English Default : No Forced : No Text #1 ID : 4 Format : UTF-8 Codec ID : S_TEXT/UTF8 Codec ID/Info : UTF-8 Plain Text Duration : 3 s 4 ms Bit rate : 71 b/s Count of elements : 1 Stream size : 27.0 Bytes (0%) Title : Forzados Language : Latin Default : Yes Forced : No Text #2 ID : 5 Format : UTF-8 Codec ID : S_TEXT/UTF8 Codec ID/Info : UTF-8 Plain Text Duration : 1 h 28 min Bit rate : 47 b/s Count of elements : 869 Stream size : 30.8 KiB (0%) Title : Completos Language : Latin Default : No Forced : No Menu 00:00:00.000 : en:CHAPTER01 00:08:39.811 : en:CHAPTER02 00:11:31.983 : en:CHAPTER03 00:15:11.035 : en:CHAPTER04 00:21:57.107 : en:CHAPTER05 00:27:41.702 : en:CHAPTER06 00:33:14.201 : en:CHAPTER07 00:39:07.136 : en:CHAPTER08 00:43:28.731 : en:CHAPTER09 00:47:08.367 : en:CHAPTER10 00:49:47.193 : en:CHAPTER11 00:59:55.801 : en:CHAPTER12 01:04:47.383 : en:CHAPTER13 01:09:28.164 : en:CHAPTER14 01:12:38.187 : en:CHAPTER15 01:23:26.043 : en:CHAPTER16 01:28:54.496 : en:CHAPTER17

    Contraseña: www.club-hd.com




    ***Hidden content cannot be quoted.***



    ***Hidden content cannot be quoted.***



    ***Hidden content cannot be quoted.***



    ***Hidden content cannot be quoted.***
    Gracias por el aporte

  11. Los siguientes Usuarios dieron Me Gusta a terryleal por este Post:

    REMREM (09/04/2019)

  12. #10
    Miembro Destacado
    Avatar de virus619
    Fecha de ingreso
    28 ago, 12
    Edad
    30
    Mensajes
    3,954
    Última Actividad
    22/06/2019 @ 19:07
    Nacionalidad
    Chile

    Poder de reputación
    11

    Predeterminado Re: How to Train Your Dragon (2010) 1080p BDRip HEVC Dual Latino - Inglés [Subt.Esp] ( Animación. Fantástico )


  13. #11
    Miembro Destacado
    Avatar de martinvillagra
    Fecha de ingreso
    08 jul, 14
    Mensajes
    1,274
    Última Actividad
    hoy @ 00:02
    Nacionalidad
    Argentina
    Sexo
    Hombre

    Poder de reputación
    8

    Predeterminado Re: How to Train Your Dragon (2010) 1080p BDRip HEVC Dual Latino - Inglés [Subt.Esp] ( Animación. Fantástico )

    Gracias!

  14. #12
    Gran Miembro
    Avatar de matrix
    Fecha de ingreso
    07 jul, 18
    Mensajes
    272
    Última Actividad
    hoy @ 15:39
    Nacionalidad
    Japan
    Sexo
    Hombre

    Poder de reputación
    1

    Predeterminado Re: How to Train Your Dragon (2010) 1080p BDRip HEVC Dual Latino - Inglés [Subt.Esp] ( Animación. Fantástico )

    gracias

  15. #13
    Miembro Destacado
    Avatar de RalphVader
    Fecha de ingreso
    28 ago, 12
    Edad
    44
    Mensajes
    1,109
    Última Actividad
    19/06/2019 @ 10:37
    Nacionalidad
    Mexico

    Poder de reputación
    8

    Predeterminado Re: How to Train Your Dragon (2010) 1080p BDRip HEVC Dual Latino - Inglés [Subt.Esp] ( Animación. Fantástico )

    GRACIAS

  16. #14
    Miembro Destacado
    Avatar de Zero_696
    Fecha de ingreso
    01 sep, 12
    Mensajes
    385
    Última Actividad
    hoy @ 18:32
    Nacionalidad
    Mexico

    Poder de reputación
    7

    Predeterminado Re: How to Train Your Dragon (2010) 1080p BDRip HEVC Dual Latino - Inglés [Subt.Esp] ( Animación. Fantástico )

    Gracias por el aporte

  17. #15
    Miembro Destacado
    Avatar de bricenott
    Fecha de ingreso
    23 dic, 14
    Edad
    43
    Mensajes
    263
    Última Actividad
    Ayer @ 18:06
    Nacionalidad
    Europe
    Sexo
    Hombre

    Poder de reputación
    0

    Predeterminado Re: How to Train Your Dragon (2010) 1080p BDRip HEVC Dual Latino - Inglés [Subt.Esp] ( Animación. Fantástico )

    gracias

  18. #16
    Gran Miembro
    Avatar de morfeoeche
    Fecha de ingreso
    28 ago, 12
    Mensajes
    540
    Última Actividad
    hoy @ 15:53
    Nacionalidad
    Uruguay

    Poder de reputación
    7

    Predeterminado Re: How to Train Your Dragon (2010) 1080p BDRip HEVC Dual Latino - Inglés [Subt.Esp] ( Animación. Fantástico )

    gracias

  19. #17
    Gran Miembro
    Avatar de dastan84
    Fecha de ingreso
    18 sep, 12
    Mensajes
    669
    Última Actividad
    Ayer @ 22:13
    Nacionalidad
    Chile

    Poder de reputación
    7

    Predeterminado Re: How to Train Your Dragon (2010) 1080p BDRip HEVC Dual Latino - Inglés [Subt.Esp] ( Animación. Fantástico )

    gracias

  20. #18
    Miembro Destacado
    Avatar de claudio
    Fecha de ingreso
    01 sep, 12
    Mensajes
    577
    Última Actividad
    20/06/2019 @ 07:16
    Nacionalidad
    Argentina

    Poder de reputación
    7

    Predeterminado Re: How to Train Your Dragon (2010) 1080p BDRip HEVC Dual Latino - Inglés [Subt.Esp] ( Animación. Fantástico )

    gracias

  21. #19
    Miembro Destacado
    Avatar de payo7
    Fecha de ingreso
    27 ago, 12
    Edad
    43
    Mensajes
    987
    Última Actividad
    Ayer @ 21:40
    Nacionalidad
    Mexico

    Poder de reputación
    7

    Predeterminado Re: How to Train Your Dragon (2010) 1080p BDRip HEVC Dual Latino - Inglés [Subt.Esp] ( Animación. Fantástico )

    Gracias

  22. #20
    Miembro Destacado
    Avatar de gibrannr1
    Fecha de ingreso
    25 ene, 16
    Mensajes
    421
    Última Actividad
    hoy @ 02:04
    Nacionalidad
    Mexico
    Sexo
    Hombre

    Poder de reputación
    4

    Predeterminado Re: How to Train Your Dragon (2010) 1080p BDRip HEVC Dual Latino - Inglés [Subt.Esp] ( Animación. Fantástico )


  23. #21
    Gran Miembro
    Avatar de supergogeta2018
    Fecha de ingreso
    21 nov, 18
    Mensajes
    128
    Última Actividad
    21/06/2019 @ 01:56
    Nacionalidad
    Mexico
    Sexo
    Hombre

    Poder de reputación
    1

    Predeterminado Re: How to Train Your Dragon (2010) 1080p BDRip HEVC Dual Latino - Inglés [Subt.Esp] ( Animación. Fantástico )


  24. #22
    Gran Miembro
    Avatar de jrespinoza
    Fecha de ingreso
    27 ago, 12
    Edad
    55
    Mensajes
    1,126
    Última Actividad
    Ayer @ 14:57
    Nacionalidad
    Ecuador

    Poder de reputación
    8

    Predeterminado Re: How to Train Your Dragon (2010) 1080p BDRip HEVC Dual Latino - Inglés [Subt.Esp] ( Animación. Fantástico )

    gracias

  25. #23
    Gran Miembro
    Avatar de eabadia
    Fecha de ingreso
    27 ago, 12
    Mensajes
    1,288
    Última Actividad
    hoy @ 13:15
    Nacionalidad
    Mexico
    Sexo
    Hombre

    Poder de reputación
    8

    Predeterminado Re: How to Train Your Dragon (2010) 1080p BDRip HEVC Dual Latino - Inglés [Subt.Esp] ( Animación. Fantástico )

    bajando

  26. #24
    Gran Miembro
    Avatar de GASA2010
    Fecha de ingreso
    01 feb, 14
    Mensajes
    893
    Última Actividad
    hoy @ 12:53
    Nacionalidad
    Macau
    Sexo
    Hombre

    Poder de reputación
    6

    Predeterminado Re: How to Train Your Dragon (2010) 1080p BDRip HEVC Dual Latino - Inglés [Subt.Esp] ( Animación. Fantástico )

    GRACIAS

  27. #25
    Gran Miembro
    Avatar de flujo
    Fecha de ingreso
    28 dic, 14
    Mensajes
    6,095
    Última Actividad
    22/06/2019 @ 12:14
    Nacionalidad
    Mexico
    Sexo
    Hombre

    Poder de reputación
    12

    Predeterminado Re: How to Train Your Dragon (2010) 1080p BDRip HEVC Dual Latino - Inglés [Subt.Esp] ( Animación. Fantástico )

    gracias

  28. Los siguientes Usuarios dieron Me Gusta a flujo por este Post:

    mt4mars (14/04/2019)

Información de tema

Usuarios viendo este tema

Actualmente hay 1 usuarios viendo este tema. (0 miembros y 1 visitantes)

Temas similares

  1. Respuestas: 197
    Último mensaje: 14/06/2019, 07:21
  2. Respuestas: 432
    Último mensaje: 10/06/2019, 01:52
  3. Respuestas: 515
    Último mensaje: 10/06/2019, 01:35
  4. Respuestas: 439
    Último mensaje: 09/06/2019, 22:30
  5. Respuestas: 51
    Último mensaje: 31/05/2019, 09:35

Miembros que han leído este tema: 97

Marcadores

Permisos de publicación

  • No puedes crear nuevos temas
  • No puedes responder temas
  • No puedes subir archivos adjuntos
  • No puedes editar tus mensajes
  •