Banner Uploaded HemoAr

Resultados 1 al 25 de 25

Tema: Ocean's Eight (2018) 2160p 4k UHD HDR Dual Latino-Inglés [Subt. Esp] (Comedia. Acción)

  1. #1
    HD Brady

    Avatar de Brady
    Fecha de ingreso
    01 jun, 16
    Edad
    22
    Mensajes
    1,732
    Última Actividad
    @
    Nacionalidad
    Mexico
    Sexo
    Hombre

    Poder de reputación
    153

    Predeterminado Ocean's Eight (2018) 2160p 4k UHD HDR Dual Latino-Inglés [Subt. Esp] (Comedia. Acción)






    Título Original: Ocean's Eight
    Año: 2018
    Duración: 110 min.
    País: United States
    Director: Gary Ross
    Guion: Olivia Milch, Gary Ross
    Reparto: Sandra Bullock, Cate Blanchett, Anne Hathaway, Helena Bonham Carter, Mindy Kaling, Rihanna, Awkwafina, Sarah Paulson, Dakota Fanning, Eric West, Denisa Juhos, Leonardo Collaguazo, Bridget Gabbe, Abigail Rich, Douglas Cafran, Olivia Munn, Richard Armitage, Katie Holmes, Common, James Corden, Kim Kardashian, Carl Reiner, Adriana Lima, Anna Wintour, Marko Caka, Carlo Sciortino, Doris McCarthy
    Productora: Warner Bros. / Village Roadshow Pictures / Smoke House Pictures. Distribuida por 20th Century Fox
    Género: Comedia. Acción | Crimen. Robos & Atracos


    SINOPSIS
    Debbie, hermana de Danny Ocean, decide cometer el atraco del siglo en la gala Met anual que se celebra en Nueva York. El primer paso será conseguir al equipo criminal perfecto: Lou, Rose, Daphne Kluger, Nine Ball, Tammy, Amita y Constance.

    TRAILER


    Datos Técnicos
    Video:
    MPEGH HEVC / 2160p / High Profile 5.1 / 18.1 mbps

    Audio:
    Español Latino / AC3 5.1/ 640 kbps / 48kHz / Bluray 4k
    Inglés / TrueHD/Atmos 7.1 / 2782/4275 kbps / 48kHz / Bluray 4k
    Inglés / AC3 5.1/ 640 kbps / 48kHz / Bluray 4k
    Inglés / DTS-HD MA/Core 7.1/5.1 / 4034/1509 kbps / 48kHz / Bluray 4k


    Subs:
    Español Latino / SubRip / Bluray 4k
    Español Latino Forzados / SubRip / Bluray 4k
    Español Latino / Sup / Bluray 4k
    Español Latino Forzados / Sup / Bluray 4k
    Inglés / Sup / Bluray 4k


    Código:
    General
    Unique ID                                : 127072794826753562968567539122351517804 (0x5F99547F4BC337EC77E8994C7646306C)
    Format                                   : Matroska
    Format version                           : Version 4 / Version 2
    File size                                : 20.2 GiB
    Duration                                 : 1 h 50 min
    Overall bit rate mode                    : Variable
    Overall bit rate                         : 26.2 Mb/s
    Encoded date                             : UTC 2018-09-07 02:57:54
    Writing application                      : mkvmerge v20.0.0 ('I Am The Sun') 64-bit
    Writing library                          : libebml v1.3.5 + libmatroska v1.4.8
    Uploader                                 : Brady
    Web                                      : www.club-hd.com
    
    Video
    ID                                       : 1
    Format                                   : HEVC
    Format/Info                              : High Efficiency Video Coding
    Format profile                           : Main 10@L5.1@High
    Codec ID                                 : V_MPEGH/ISO/HEVC
    Duration                                 : 1 h 50 min
    Bit rate                                 : 18.1 Mb/s
    Width                                    : 3 840 pixels
    Height                                   : 1 608 pixels
    Display aspect ratio                     : 2.40:1
    Frame rate mode                          : Constant
    Frame rate                               : 23.976 (24000/1001) FPS
    Color space                              : YUV
    Chroma subsampling                       : 4:2:0 (Type 2)
    Bit depth                                : 10 bits
    Bits/(Pixel*Frame)                       : 0.122
    Stream size                              : 13.9 GiB (69%)
    Writing library                          : x265 2.8+54-79c76e42cb28:[Windows][GCC 7.3.1][64 bit] 10bit
    Encoding settings                        : cpuid=1111039 / frame-threads=16 / numa-pools=24,24,24,24 / wpp / no-pmode / no-pme / no-psnr / no-ssim / log-level=2 / input-csp=1 / input-res=3840x1608 / interlace=0 / total-frames=0 / level-idc=51 / high-tier=1 / uhd-bd=0 / ref=3 / no-allow-non-conformance / repeat-headers / annexb / aud / hrd / info / hash=0 / no-temporal-layers / no-open-gop / min-keyint=1 / keyint=24 / gop-lookahead=0 / bframes=4 / b-adapt=2 / b-pyramid / bframe-bias=0 / rc-lookahead=25 / lookahead-slices=4 / scenecut=40 / radl=0 / no-intra-refresh / ctu=64 / min-cu-size=8 / no-rect / no-amp / max-tu-size=32 / tu-inter-depth=1 / tu-intra-depth=1 / limit-tu=0 / rdoq-level=0 / dynamic-rd=0.00 / no-ssim-rd / signhide / no-tskip / nr-intra=0 / nr-inter=0 / no-constrained-intra / strong-intra-smoothing / max-merge=2 / limit-refs=3 / no-limit-modes / me=1 / subme=2 / merange=57 / temporal-mvp / weightp / no-weightb / no-analyze-src-pics / deblock=0:0 / no-sao / no-sao-non-deblock / rd=3 / no-early-skip / rskip / no-fast-intra / no-tskip-fast / no-cu-lossless / no-b-intra / no-splitrd-skip / rdpenalty=0 / psy-rd=2.00 / psy-rdoq=0.00 / no-rd-refine / no-lossless / cbqpoffs=0 / crqpoffs=0 / rc=crf / crf=16.0 / qcomp=0.60 / qpstep=4 / stats-write=0 / stats-read=0 / vbv-maxrate=160000 / vbv-bufsize=160000 / vbv-init=0.9 / crf-max=0.0 / crf-min=0.0 / ipratio=1.40 / pbratio=1.30 / aq-mode=1 / aq-strength=1.00 / cutree / zone-count=0 / no-strict-cbr / qg-size=32 / no-rc-grain / qpmax=69 / qpmin=0 / no-const-vbv / sar=1 / overscan=0 / videoformat=5 / range=0 / colorprim=9 / transfer=16 / colormatrix=9 / chromaloc=1 / chromaloc-top=2 / chromaloc-bottom=2 / display-window=0 / master-display=G(13250,34500)B(7500,3000)R(34000,16000)WP(15635,16450)L(40000000,50) / max-cll=1360,92 / min-luma=0 / max-luma=1023 / log2-max-poc-lsb=8 / vui-timing-info / vui-hrd-info / slices=1 / opt-qp-pps / opt-ref-list-length-pps / no-multi-pass-opt-rps / scenecut-bias=0.05 / no-opt-cu-delta-qp / no-aq-motion / hdr / hdr-opt / no-dhdr10-opt / no-idr-recovery-sei / analysis-reuse-level=5 / scale-factor=0 / refine-intra=0 / refine-inter=0 / refine-mv=0 / no-limit-sao / ctu-info=0 / no-lowpass-dct / refine-mv-type=0 / copy-pic=1 / max-ausize-factor=1.0 / no-dynamic-refine / no-single-sei
    Language                                 : English
    Default                                  : Yes
    Forced                                   : No
    Color range                              : Limited
    Color primaries                          : BT.2020
    Transfer characteristics                 : PQ
    Matrix coefficients                      : BT.2020 non-constant
    Mastering display color primaries        : Display P3
    Mastering display luminance              : min: 0.0050 cd/m2, max: 4000 cd/m2
    Maximum Content Light Level              : 1360 cd/m2
    Maximum Frame-Average Light Level        : 92 cd/m2
    
    Audio #1
    ID                                       : 2
    Format                                   : AC-3
    Format/Info                              : Audio Coding 3
    Codec ID                                 : A_AC3
    Duration                                 : 1 h 50 min
    Bit rate mode                            : Constant
    Bit rate                                 : 640 kb/s
    Channel(s)                               : 6 channels
    Channel positions                        : Front: L C R, Side: L R, LFE
    Sampling rate                            : 48.0 kHz
    Frame rate                               : 31.250 FPS (1536 SPF)
    Bit depth                                : 16 bits
    Compression mode                         : Lossy
    Stream size                              : 504 MiB (2%)
    Title                                    : Latino AC3 5.1 640 kbps Bluray 4k
    Language                                 : Latin
    Service kind                             : Complete Main
    Default                                  : Yes
    Forced                                   : No
    
    Audio #2
    ID                                       : 3
    Format                                   : TrueHD
    Format profile                           : TrueHD+Atmos / TrueHD
    Codec ID                                 : A_TRUEHD
    Duration                                 : 1 h 50 min
    Bit rate mode                            : Variable
    Bit rate                                 : 2 782 kb/s
    Maximum bit rate                         : 4 275 kb/s
    Channel(s)                               : Object Based / 8 channels
    Channel positions                        : Object Based / Front: L C R, Side: L R, Back: L R, LFE
    Sampling rate                            :  / 48.0 kHz
    Frame rate                               : 1 200.000 FPS (40 SPF)
    Compression mode                         : Lossless
    Stream size                              : 2.14 GiB (11%)
    Title                                    : Ingles TrueHD/Atmos 7.1 2782/4275 kbps Bluray 4k
    Language                                 : English
    Default                                  : No
    Forced                                   : No
    
    Audio #3
    ID                                       : 4
    Format                                   : AC-3
    Format/Info                              : Audio Coding 3
    Codec ID                                 : A_AC3
    Duration                                 : 1 h 50 min
    Bit rate mode                            : Constant
    Bit rate                                 : 640 kb/s
    Channel(s)                               : 6 channels
    Channel positions                        : Front: L C R, Side: L R, LFE
    Sampling rate                            : 48.0 kHz
    Frame rate                               : 31.250 FPS (1536 SPF)
    Bit depth                                : 16 bits
    Compression mode                         : Lossy
    Stream size                              : 504 MiB (2%)
    Title                                    : Ingles AC3 5.1 640 kbps Bluray 4k
    Language                                 : English
    Service kind                             : Complete Main
    Default                                  : No
    Forced                                   : No
    
    Audio #4
    ID                                       : 5
    Format                                   : DTS
    Format/Info                              : Digital Theater Systems
    Format profile                           : MA / Core
    Codec ID                                 : A_DTS
    Duration                                 : 1 h 50 min
    Bit rate mode                            : Variable / Constant
    Bit rate                                 : 4 034 kb/s / 1 509 kb/s
    Channel(s)                               : 8 channels / 6 channels
    Channel positions                        : Front: L C R, Side: L R, Back: L R, LFE / Front: L C R, Side: L R, LFE
    Sampling rate                            : 48.0 kHz
    Frame rate                               : 93.750 FPS (512 SPF)
    Bit depth                                : 24 bits
    Compression mode                         : Lossless / Lossy
    Stream size                              : 3.10 GiB (15%)
    Title                                    : Ingles DTS-HD MA/Core 7.1/5.1 4034/1509 kbps Bluray 4k
    Language                                 : English
    Default                                  : No
    Forced                                   : No
    
    Text #1
    ID                                       : 6
    Format                                   : UTF-8
    Codec ID                                 : S_TEXT/UTF8
    Codec ID/Info                            : UTF-8 Plain Text
    Duration                                 : 1 h 49 min
    Bit rate                                 : 57 b/s
    Count of elements                        : 1642
    Stream size                              : 46.4 KiB (0%)
    Title                                    : Latino
    Language                                 : Latin
    Default                                  : No
    Forced                                   : No
    
    Text #2
    ID                                       : 7
    Format                                   : UTF-8
    Codec ID                                 : S_TEXT/UTF8
    Codec ID/Info                            : UTF-8 Plain Text
    Duration                                 : 1 h 47 min
    Bit rate                                 : 2 b/s
    Count of elements                        : 64
    Stream size                              : 1.74 KiB (0%)
    Title                                    : Forzados
    Language                                 : Latin
    Default                                  : Yes
    Forced                                   : No
    
    Text #3
    ID                                       : 8
    Format                                   : PGS
    Muxing mode                              : zlib
    Codec ID                                 : S_HDMV/PGS
    Codec ID/Info                            : Picture based subtitle format used on BDs/HD-DVDs
    Duration                                 : 1 h 49 min
    Bit rate                                 : 33.0 kb/s
    Count of elements                        : 3284
    Stream size                              : 25.8 MiB (0%)
    Title                                    : Latino
    Language                                 : Latin
    Default                                  : No
    Forced                                   : No
    
    Text #4
    ID                                       : 9
    Format                                   : PGS
    Muxing mode                              : zlib
    Codec ID                                 : S_HDMV/PGS
    Codec ID/Info                            : Picture based subtitle format used on BDs/HD-DVDs
    Duration                                 : 1 h 47 min
    Bit rate                                 : 1 407 b/s
    Count of elements                        : 128
    Stream size                              : 1.08 MiB (0%)
    Title                                    : Forzados
    Language                                 : Latin
    Default                                  : No
    Forced                                   : No
    
    Text #5
    ID                                       : 10
    Format                                   : PGS
    Muxing mode                              : zlib
    Codec ID                                 : S_HDMV/PGS
    Codec ID/Info                            : Picture based subtitle format used on BDs/HD-DVDs
    Duration                                 : 1 h 49 min
    Bit rate                                 : 40.1 kb/s
    Count of elements                        : 3526
    Stream size                              : 31.4 MiB (0%)
    Title                                    : Ingles
    Language                                 : English
    Default                                  : No
    Forced                                   : No











    DESCARGA

    Links Intercambiables





    Compra tu Membresía VIP y apoya a Club-HD!

    Click Aquí para más información.

    ATENCIÓN! Finalmente tenemos TODO el material de Club-HD disponible por Mega, enlaces 100% activos y online hoy







    Compra tu Membresía VIP y apoya a Club-HD!

    Click Aquí para más información.

    ATENCIÓN! Finalmente tenemos TODO el material de Club-HD disponible por Mega, enlaces 100% activos y online hoy







    1. Primero, deben estár registrados, sino no habrá manera de que puedan ver los Enlaces.

    2. Una vez registrados, sólo deben dejar un simple comentario de Siete (7) letras/carácteres mínimo, o también un simple "Me gusta".

    Con eso ya podrán ver los links sin ningún problema.

    Nota: Usamos este sistema para proteger los links de Club-HD, y hasta la fecha funciona muy bien.





    1. Primero, deben estár registrados, sino no habrá manera de que puedan ver los Enlaces.

    2. Una vez registrados, sólo deben dejar un simple comentario de Siete (7) letras/carácteres mínimo, o también un simple "Me gusta".

    Con eso ya podrán ver los links sin ningún problema.

    Nota: Usamos este sistema para proteger los links de Club-HD, y hasta la fecha funciona muy bien.




    Código:
    www.club-hd.com
    Let's Go, Do Your Job.

    Si te gusta mi material en 4K, que mejor que una cuenta de uploaded premium para bajar sin limites y gozar de una pelicula en 4K HDR, no te pierdas esta gran oportunidad, solo ingresa al Banner de abajo y compra tu cuenta Uploaded Premium, no te arrepentiras

  2. Los siguientes 13 Usuarios dieron Me Gusta a Brady por este Post:

    beaubinz (09/09/2018),Chris2000 (29/09/2018),CompuTV (07/09/2018),cripp (07/09/2018),Flaco (07/09/2018),flujo (08/09/2018),Frafel (11/09/2018),frmr (08/09/2018),jm8421 (24/09/2018),Leo (08/09/2018),oscarteach (09/09/2018),Pte.A.Carmine (10/09/2018),rodig (08/09/2018)

  3. #2
    Gran Miembro
    Avatar de josefo08
    Fecha de ingreso
    14 abr, 14
    Edad
    47
    Mensajes
    1,166
    Última Actividad
    17/11/2018 @ 21:04
    Nacionalidad
    Colombia
    Sexo
    Hombre

    Poder de reputación
    6

    Predeterminado Re: Ocean's Eight (2018) 2160p 4k UHD HDR Dual Latino-Inglés [Subt. Esp] (Comedia. Acción)


  4. #3
    Miembro Destacado
    Avatar de joelmax18
    Fecha de ingreso
    28 ago, 12
    Edad
    38
    Mensajes
    1,717
    Última Actividad
    15/11/2018 @ 02:12
    Nacionalidad
    Dominican Republic

    Poder de reputación
    8

    Predeterminado Re: Ocean's Eight (2018) 2160p 4k UHD HDR Dual Latino-Inglés [Subt. Esp] (Comedia. Acción)

    gracias

  5. #4
    Miembro Destacado
    Avatar de Josiba
    Fecha de ingreso
    27 ago, 12
    Edad
    50
    Mensajes
    4,601
    Última Actividad
    hoy @ 07:48
    Nacionalidad
    Costa Rica

    Poder de reputación
    12

    Predeterminado Re: Ocean's Eight (2018) 2160p 4k UHD HDR Dual Latino-Inglés [Subt. Esp] (Comedia. Acción)


  6. #5
    Miembro Destacado
    Avatar de cripp
    Fecha de ingreso
    28 ago, 12
    Mensajes
    6,049
    Última Actividad
    16/11/2018 @ 18:54
    Nacionalidad
    Costa Rica

    Poder de reputación
    16

    Predeterminado Re: Ocean's Eight (2018) 2160p 4k UHD HDR Dual Latino-Inglés [Subt. Esp] (Comedia. Acción)

    Gracias por compartir

  7. #6
    Gran Miembro
    Avatar de Zephiroth
    Fecha de ingreso
    28 ago, 12
    Mensajes
    1,377
    Última Actividad
    15/11/2018 @ 01:49
    Nacionalidad
    Mexico
    Sexo
    Hombre

    Poder de reputación
    8

    Predeterminado Re: Ocean's Eight (2018) 2160p 4k UHD HDR Dual Latino-Inglés [Subt. Esp] (Comedia. Acción)

    descargando

  8. #7
    Miembro Destacado
    Avatar de muruagam
    Fecha de ingreso
    29 ago, 12
    Ubicación
    Buenos Aires
    Edad
    45
    Mensajes
    1,351
    Última Actividad
    hoy @ 09:34
    Nacionalidad
    Argentina
    Sexo
    Hombre

    Poder de reputación
    8

    Predeterminado Re: Ocean's Eight (2018) 2160p 4k UHD HDR Dual Latino-Inglés [Subt. Esp] (Comedia. Acción)


  9. #8
    Miembro Destacado
    Avatar de JCAvila
    Fecha de ingreso
    07 sep, 12
    Edad
    38
    Mensajes
    4,021
    Última Actividad
    hoy @ 09:28
    Nacionalidad
    Mexico

    Poder de reputación
    13

    Predeterminado Re: Ocean's Eight (2018) 2160p 4k UHD HDR Dual Latino-Inglés [Subt. Esp] (Comedia. Acción)

    gracias!

  10. #9
    Miembro Destacado
    Avatar de jairfon28
    Fecha de ingreso
    27 ago, 12
    Edad
    28
    Mensajes
    665
    Última Actividad
    14/11/2018 @ 06:47
    Nacionalidad
    Colombia

    Poder de reputación
    7

    Predeterminado Re: Ocean's Eight (2018) 2160p 4k UHD HDR Dual Latino-Inglés [Subt. Esp] (Comedia. Acción)


  11. #10
    Gran Miembro
    Avatar de GASA2010
    Fecha de ingreso
    01 feb, 14
    Mensajes
    732
    Última Actividad
    17/11/2018 @ 14:17
    Nacionalidad
    Macau
    Sexo
    Hombre

    Poder de reputación
    5

    Predeterminado Re: Ocean's Eight (2018) 2160p 4k UHD HDR Dual Latino-Inglés [Subt. Esp] (Comedia. Acción)

    GRACIAS

  12. #11
    Miembro Destacado
    Avatar de PATRICIOG
    Fecha de ingreso
    29 may, 15
    Mensajes
    1,844
    Última Actividad
    17/11/2018 @ 19:00
    Nacionalidad
    Chile
    Sexo
    Hombre

    Poder de reputación
    5

    Predeterminado Re: Ocean's Eight (2018) 2160p 4k UHD HDR Dual Latino-Inglés [Subt. Esp] (Comedia. Acción)


  13. #12
    Gran Miembro
    Avatar de flujo
    Fecha de ingreso
    28 dic, 14
    Mensajes
    5,179
    Última Actividad
    hoy @ 02:00
    Nacionalidad
    Mexico
    Sexo
    Hombre

    Poder de reputación
    10

    Predeterminado Re: Ocean's Eight (2018) 2160p 4k UHD HDR Dual Latino-Inglés [Subt. Esp] (Comedia. Acción)

    gracias

  14. #13
    Miembro Destacado
    Avatar de juniorgarabo
    Fecha de ingreso
    16 sep, 12
    Edad
    35
    Mensajes
    3,319
    Última Actividad
    Ayer @ 19:12
    Nacionalidad
    Dominican Republic
    Sexo
    Hombre

    Poder de reputación
    29

    Predeterminado Re: Ocean's Eight (2018) 2160p 4k UHD HDR Dual Latino-Inglés [Subt. Esp] (Comedia. Acción)


  15. #14
    Miembro Destacado
    Avatar de ismar360
    Fecha de ingreso
    28 ago, 12
    Edad
    40
    Mensajes
    2,332
    Última Actividad
    hoy @ 03:26
    Nacionalidad
    El Salvador

    Poder de reputación
    9

    Predeterminado Re: Ocean's Eight (2018) 2160p 4k UHD HDR Dual Latino-Inglés [Subt. Esp] (Comedia. Acción)


  16. #15
    Gran Miembro
    Avatar de sosalexfame
    Fecha de ingreso
    10 jul, 15
    Ubicación
    Mexico
    Edad
    37
    Mensajes
    1,342
    Última Actividad
    Ayer @ 19:16
    Nacionalidad
    Mexico
    Sexo
    Hombre

    Poder de reputación
    5

    Predeterminado Re: Ocean's Eight (2018) 2160p 4k UHD HDR Dual Latino-Inglés [Subt. Esp] (Comedia. Acción)

    gracias

  17. #16
    Miembro Destacado
    Avatar de tincho2273
    Fecha de ingreso
    27 ago, 12
    Ubicación
    Rosario
    Mensajes
    375
    Última Actividad
    Ayer @ 16:06
    Nacionalidad
    Argentina

    Poder de reputación
    7

    Predeterminado Re: Ocean's Eight (2018) 2160p 4k UHD HDR Dual Latino-Inglés [Subt. Esp] (Comedia. Acción)


  18. #17
    Gran Miembro
    Avatar de fewac
    Fecha de ingreso
    26 abr, 13
    Mensajes
    1,655
    Última Actividad
    14/11/2018 @ 05:36
    Nacionalidad
    Mexico
    Sexo
    Hombre

    Poder de reputación
    7

    Predeterminado Re: Ocean's Eight (2018) 2160p 4k UHD HDR Dual Latino-Inglés [Subt. Esp] (Comedia. Acción)

    Gracias!!!

  19. #18
    Miembro VIP en Club-HD!
    Avatar de LANINADULCE
    Fecha de ingreso
    28 ago, 12
    Edad
    39
    Mensajes
    2,908
    Última Actividad
    11/11/2018 @ 03:33
    Nacionalidad
    Mexico
    Sexo
    Hombre

    Poder de reputación
    14

    Predeterminado Re: Ocean's Eight (2018) 2160p 4k UHD HDR Dual Latino-Inglés [Subt. Esp] (Comedia. Acción)


  20. #19
    Miembro Destacado
    Avatar de j-galicia-h
    Fecha de ingreso
    04 oct, 13
    Mensajes
    1,208
    Última Actividad
    hoy @ 00:39
    Nacionalidad
    Mexico
    Sexo
    Hombre

    Poder de reputación
    7

    Predeterminado Re: Ocean's Eight (2018) 2160p 4k UHD HDR Dual Latino-Inglés [Subt. Esp] (Comedia. Acción)

    gracias amigo bajando buena pelicula

  21. #20
    Gran Miembro
    Avatar de darthritchie
    Fecha de ingreso
    22 nov, 15
    Edad
    35
    Mensajes
    191
    Última Actividad
    17/11/2018 @ 16:06
    Nacionalidad
    Chile
    Sexo
    Hombre

    Poder de reputación
    4

    Predeterminado Re: Ocean's Eight (2018) 2160p 4k UHD HDR Dual Latino-Inglés [Subt. Esp] (Comedia. Acción)

    Muchas gracias

  22. #21
    Miembro Destacado
    Avatar de kill_b911
    Fecha de ingreso
    30 ago, 12
    Ubicación
    Hurlingham
    Edad
    51
    Mensajes
    1,044
    Última Actividad
    Ayer @ 16:04
    Nacionalidad
    Argentina
    Sexo
    Hombre

    Poder de reputación
    8

    Predeterminado Re: Ocean's Eight (2018) 2160p 4k UHD HDR Dual Latino-Inglés [Subt. Esp] (Comedia. Acción)


  23. #22
    Gran Miembro
    Avatar de troyano2010
    Fecha de ingreso
    20 may, 14
    Edad
    38
    Mensajes
    872
    Última Actividad
    31/10/2018 @ 18:12
    Nacionalidad
    Chile
    Sexo
    Hombre

    Poder de reputación
    7

    Predeterminado Re: Ocean's Eight (2018) 2160p 4k UHD HDR Dual Latino-Inglés [Subt. Esp] (Comedia. Acción)


  24. #23
    Miembro
    Avatar de rulero
    Fecha de ingreso
    05 ene, 18
    Mensajes
    72
    Última Actividad
    06/11/2018 @ 09:33
    Nacionalidad
    Afghanistan
    Sexo
    Mujer

    Poder de reputación
    1

    Predeterminado Re: Ocean's Eight (2018) 2160p 4k UHD HDR Dual Latino-Inglés [Subt. Esp] (Comedia. Acción)

    muchas gracias

  25. #24
    Gran Miembro
    Avatar de Dyyn
    Fecha de ingreso
    01 sep, 12
    Edad
    25
    Mensajes
    126
    Última Actividad
    03/11/2018 @ 23:31
    Nacionalidad
    Chile

    Poder de reputación
    7

    Predeterminado Re: Ocean's Eight (2018) 2160p 4k UHD HDR Dual Latino-Inglés [Subt. Esp] (Comedia. Acción)


  26. #25
    Miembro Destacado
    Avatar de rockhdzv
    Fecha de ingreso
    02 sep, 12
    Mensajes
    1,884
    Última Actividad
    07/11/2018 @ 14:29
    Nacionalidad
    Mexico

    Poder de reputación
    8

    Predeterminado Re: Ocean's Eight (2018) 2160p 4k UHD HDR Dual Latino-Inglés [Subt. Esp] (Comedia. Acción)

    descargando

Información de tema

Usuarios viendo este tema

Actualmente hay 1 usuarios viendo este tema. (0 miembros y 1 visitantes)

Temas similares

  1. Respuestas: 43
    Último mensaje: 13/11/2018, 14:15
  2. Respuestas: 92
    Último mensaje: 04/11/2018, 22:59
  3. Respuestas: 156
    Último mensaje: 21/10/2018, 00:48
  4. Respuestas: 80
    Último mensaje: 06/10/2018, 20:38
  5. Respuestas: 22
    Último mensaje: 16/08/2018, 02:45

Miembros que han leído este tema: 94

Marcadores

Permisos de publicación

  • No puedes crear nuevos temas
  • No puedes responder temas
  • No puedes subir archivos adjuntos
  • No puedes editar tus mensajes
  •