Banner Uploaded HemoAr

Resultados 1 al 10 de 10

Tema: Avatar:The Last Airbender Book 2: Earth (2006) BDrip 1080p HEVC.8 bits Dual (Latino-Ingles) [Sin Subt]

  1. #1
    Uploader
    Avatar de RUEDAS
    Fecha de ingreso
    01 sep, 12
    Edad
    38
    Mensajes
    648
    Última Actividad
    hoy @ 16:02
    Nacionalidad
    Chile

    Poder de reputación
    10

    Predeterminado Avatar:The Last Airbender Book 2: Earth (2006) BDrip 1080p HEVC.8 bits Dual (Latino-Ingles) [Sin Subt]




    FICHA TECNICA



    Título original: Avatar: The Last Airbender (Avatar: The Legend of Aang) (TV Series)
    Año: 2006
    Duración: 24 min.
    País: Estados Unidos
    Dirección: Michael Dante DiMartino (Creator), Bryan Konietzko (Creator), Lauren MacMullan, Dave Filoni, Giancarlo Volpe, Ethan Spaulding, Joaquim Dos Santos
    Guion: Michael Dante DiMartino, Aaron Ehasz, Tim Hedrick, Bryan Konietzko, John O'Bryan, Giancarlo Volpe
    Música: Benjamin Wynn, Jeremy Zuckerman
    Fotografía: Animation
    Reparto: Animation
    Productora: Nickelodeon Animation Studios
    Género: Serie de TV. Animación. Fantástico. Aventuras | Artes marciales



    SINOPSIS


    En esta temporada Aang se concentra en la búsqueda de un maestro tierra, quien resulta ser Toph. La que los persigue con más frecuencia esta vez es Azula, hermana de Zuko. Pronto nuevos objetivos cruzan sus mentes, como encontrar a Appa y dar la noticia del Día del Sol Negro. En esta temporada se presentan personajes como los Maestros Agua del Pantano, Long Feng, el Rey de la Tierra, Xin Fu, Mai, Ty Lee, los Dai Lee, entre otros, y se dan a conocer nuevos lugares como la Ciudad de Ba Sing Se, el Paso de la Serpiente, el Templo Aire del Este, etc. Aang aprende Tierra Control a partir del noveno episodio, y lo sigue aprendiendo durante el siguiente libro.



    MEDIAINFO

    Format : Matroska
    Format version : Version 4 / Version 2
    File size : 484 MiB
    Duration : 24 min 7 s
    Overall bit rate : 2 803 kb/s
    Encoded date : UTC 2018-08-31T19:30:19Z
    Writing application : HandBrake 1.0.7 2017040900
    Writing library : Lavf57.7.2

    Video
    ID : 1
    Format : HEVC
    Format/Info : High Efficiency Video Coding
    Format profile : Main@L4@Main
    Codec ID : V_MPEGH/ISO/HEVC
    Duration : 24 min 7 s
    Bit rate : 1 014 kb/s
    Width : 1 440 pixels
    Height : 1 080 pixels
    Display aspect ratio : 4:3
    Frame rate mode : Constant
    Frame rate : 23.976 (24000/1001) FPS
    Color space : YUV
    Chroma subsampling : 4:2:0
    Bit depth : 8 bits
    Bits/(Pixel*Frame) : 0.027
    Stream size : 175 MiB (36%)
    Writing library : x265 2.1:[Windows][GCC 5.3.1][64 bit] 8bit
    Encoding settings : wpp / ctu=64 / min-cu-size=8 / max-tu-size=32 / tu-intra-depth=1 / tu-inter-depth=1 / me=3 / subme=4 / merange=57 / no-rect / no-amp / max-merge=2 / temporal-mvp / no-early-skip / rskip / rdpenalty=0 / no-tskip / no-tskip-fast / strong-intra-smoothing / no-lossless / no-cu-lossless / no-constrained-intra / no-fast-intra / open-gop / no-temporal-layers / interlace=0 / keyint=240 / min-keyint=24 / scenecut=40 / rc-lookahead=20 / lookahead-slices=6 / bframes=7 / bframe-bias=0 / b-adapt=2 / ref=6 / limit-refs=3 / no-limit-modes / weightp / no-weightb / aq-mode=1 / qg-size=32 / aq-strength=1.00 / cbqpoffs=0 / crqpoffs=0 / rd=3 / psy-rd=2.00 / rdoq-level=0 / psy-rdoq=0.00 / log2-max-poc-lsb=8 / no-rd-refine / signhide / deblock=0:0 / sao / no-sao-non-deblock / b-pyramid / cutree / no-intra-refresh / rc=crf / crf=21.0 / qcomp=0.60 / qpmin=0 / qpmax=69 / qpstep=4 / ipratio=1.40 / pbratio=1.30
    Default : Yes
    Forced : No
    Color range : Limited
    Color primaries : BT.709
    Transfer characteristics : BT.709
    Matrix coefficients : BT.709

    Audio #1
    ID : 2
    Format : DTS
    Format/Info : Digital Theater Systems
    Codec ID : A_DTS
    Duration : 24 min 7 s
    Bit rate mode : Constant
    Bit rate : 1 509 kb/s
    Channel(s) : 2 channels
    Channel positions : Front: L R
    Sampling rate : 48.0 kHz
    Frame rate : 93.750 FPS (512 SPF)
    Bit depth : 24 bits
    Compression mode : Lossy
    Stream size : 260 MiB (54%)
    Title : Stereo
    Language : English
    Default : Yes
    Forced : No

    Audio #2
    ID : 3
    Format : AC-3
    Format/Info : Audio Coding 3
    Codec ID : A_AC3
    Duration : 24 min 7 s
    Bit rate mode : Constant
    Bit rate : 224 kb/s
    Channel(s) : 2 channels
    Channel positions : Front: L R
    Sampling rate : 48.0 kHz
    Frame rate : 31.250 FPS (1536 SPF)
    Bit depth : 16 bits
    Compression mode : Lossy
    Stream size : 38.7 MiB (8%)
    Title : Stereo
    Language : Spanish
    Service kind : Complete Main
    Default : No
    Forced : No






    CAPTURAS








    NOTA: EL BLURAY CONTIENE SOLO SUBTITULOS EN INGLES, DE IGUAL FORMA DEJE EL DTS EN INGLES







    Compra tu Membresía VIP y apoya a Club-HD!

    Click Aquí para más información.

    ATENCIÓN! Finalmente tenemos TODO el material de Club-HD disponible por Mega, enlaces 100% activos y online hoy










    Compra tu Membresía VIP y apoya a Club-HD!

    Click Aquí para más información.

    ATENCIÓN! Finalmente tenemos TODO el material de Club-HD disponible por Mega, enlaces 100% activos y online hoy











    1. Primero, deben estár registrados, sino no habrá manera de que puedan ver los Enlaces.

    2. Una vez registrados, sólo deben dejar un simple comentario de Siete (7) letras/carácteres mínimo.

    Con eso ya podrán ver los links sin ningún problema.

    Nota: Usamos este sistema para proteger los links de Club-HD, y hasta la fecha funciona muy bien.







    1. Primero, deben estár registrados, sino no habrá manera de que puedan ver los Enlaces.

    2. Una vez registrados, sólo deben dejar un simple comentario de Siete (7) letras/carácteres mínimo.

    Con eso ya podrán ver los links sin ningún problema.

    Nota: Usamos este sistema para proteger los links de Club-HD, y hasta la fecha funciona muy bien.



    PASSWORD
    www.club-hd.com






    Uploaded.net, el filehost recomendado por Club-HD. Si piensan comprar una cuenta premium, pueden hacerlo desde el siguiente banner, de esta manera se ganarían el privilegio de que les resubamos cualquier aporte perdido de Club-HD!





    Última edición por RUEDAS; 10/09/2018 a las 20:24

  2. Los siguientes 3 Usuarios dieron Me Gusta a RUEDAS por este Post:

    Bernal (07/09/2018),REMREM (06/09/2018),Revolver (06/09/2018)

  3. #2
    Miembro Destacado
    Avatar de Bernal
    Fecha de ingreso
    28 ago, 12
    Edad
    34
    Mensajes
    1,225
    Última Actividad
    hoy @ 16:57
    Nacionalidad
    Peru
    Sexo
    Hombre

    Poder de reputación
    10

    Predeterminado Re: Avatar:The Last Airbender Book 2: Earth (2006) BDrip 1080p HEVC.8 bits Dual (Latino-Ingles) [Sin Subt]

    gracias por la serie .. muy buena calidad
    http://gifsanimados.de/img-gifsanimados.de/k/kof/anyskof.gif

  4. #3
    Miembro
    Avatar de cloud13
    Fecha de ingreso
    28 jun, 18
    Edad
    38
    Mensajes
    90
    Última Actividad
    hoy @ 00:26
    Nacionalidad
    Colombia
    Sexo
    Hombre

    Poder de reputación
    0

    Predeterminado Re: Avatar:The Last Airbender Book 2: Earth (2006) BDrip 1080p HEVC.8 bits Dual (Latino-Ingles) [Sin Subt]

    gracias

  5. #4
    Gran Miembro
    Avatar de lordsaddler18
    Fecha de ingreso
    10 feb, 15
    Edad
    26
    Mensajes
    152
    Última Actividad
    14/09/2018 @ 00:17
    Nacionalidad
    Venezuela
    Sexo
    Hombre

    Poder de reputación
    4

    Predeterminado Re: Avatar:The Last Airbender Book 2: Earth (2006) BDrip 1080p HEVC.8 bits Dual (Latino-Ingles) [Sin Subt]

    Gracias

  6. #5
    Miembro Destacado
    Avatar de Dragonaluro
    Fecha de ingreso
    30 ago, 12
    Mensajes
    777
    Última Actividad
    Ayer @ 17:50
    Nacionalidad
    Mexico

    Poder de reputación
    7

    Predeterminado Re: Avatar:The Last Airbender Book 2: Earth (2006) BDrip 1080p HEVC.8 bits Dual (Latino-Ingles) [Sin Subt]

    Descargando Saludos...

  7. #6
    Gran Miembro
    Avatar de marcobrav
    Fecha de ingreso
    02 sep, 12
    Edad
    42
    Mensajes
    675
    Última Actividad
    12/09/2018 @ 20:19
    Nacionalidad
    Chile

    Poder de reputación
    7

    Predeterminado Re: Avatar:The Last Airbender Book 2: Earth (2006) BDrip 1080p HEVC.8 bits Dual (Latino-Ingles) [Sin Subt]

    Descargando, gracias.

  8. #7
    Miembro Destacado
    Avatar de ismar360
    Fecha de ingreso
    28 ago, 12
    Edad
    40
    Mensajes
    2,272
    Última Actividad
    Ayer @ 23:47
    Nacionalidad
    El Salvador

    Poder de reputación
    9

    Predeterminado Re: Avatar:The Last Airbender Book 2: Earth (2006) BDrip 1080p HEVC.8 bits Dual (Latino-Ingles) [Sin Subt]


  9. #8
    Gran Miembro
    Avatar de Pte.A.Carmine
    Fecha de ingreso
    02 sep, 17
    Ubicación
    Jiutepec, Morelos; MÉXICO
    Mensajes
    100
    Última Actividad
    Ayer @ 23:34
    Nacionalidad
    Mexico
    Sexo
    Hombre

    Poder de reputación
    2

    Predeterminado Re: Avatar:The Last Airbender Book 2: Earth (2006) BDrip 1080p HEVC.8 bits Dual (Latino-Ingles) [Sin Subt]

    Grax.

  10. #9
    Miembro Destacado
    Avatar de kano
    Fecha de ingreso
    29 ago, 12
    Edad
    27
    Mensajes
    431
    Última Actividad
    hoy @ 17:33
    Nacionalidad
    Chile

    Poder de reputación
    7

    Predeterminado Re: Avatar:The Last Airbender Book 2: Earth (2006) BDrip 1080p HEVC.8 bits Dual (Latino-Ingles) [Sin Subt]

    By Kano

  11. #10
    Miembro
    Avatar de MasterSombrA
    Fecha de ingreso
    17 feb, 17
    Mensajes
    84
    Última Actividad
    17/09/2018 @ 14:36
    Nacionalidad
    Mexico
    Sexo
    Hombre

    Poder de reputación
    2

    Predeterminado Re: Avatar:The Last Airbender Book 2: Earth (2006) BDrip 1080p HEVC.8 bits Dual (Latino-Ingles) [Sin Subt]

    gracias amigo

Información de tema

Usuarios viendo este tema

Actualmente hay 1 usuarios viendo este tema. (0 miembros y 1 visitantes)

Temas similares

  1. Respuestas: 24
    Último mensaje: 17/09/2018, 14:26
  2. Respuestas: 639
    Último mensaje: 12/09/2018, 03:15
  3. Respuestas: 100
    Último mensaje: 09/09/2018, 09:19
  4. Respuestas: 32
    Último mensaje: 31/07/2018, 03:26
  5. Respuestas: 190
    Último mensaje: 30/11/2017, 14:46

Miembros que han leído este tema: 50

Marcadores

Permisos de publicación

  • No puedes crear nuevos temas
  • No puedes responder temas
  • No puedes subir archivos adjuntos
  • No puedes editar tus mensajes
  •