Banner Uploaded Yon

Página 1 de 2 12 ÚltimoÚltimo
Resultados 1 al 25 de 32

Tema: Rampage (2018) 2160p 4k UHD HDR Dual Latino-Inglés [Subt. Esp] (Acción. Ciencia Ficción)

  1. #1
    HD Brady

    Avatar de Brady
    Fecha de ingreso
    01 jun, 16
    Edad
    22
    Mensajes
    1,536
    Última Actividad
    hoy @ 01:43
    Nacionalidad
    Mexico
    Sexo
    Hombre

    Poder de reputación
    70

    Predeterminado Rampage (2018) 2160p 4k UHD HDR Dual Latino-Inglés [Subt. Esp] (Acción. Ciencia Ficción)






    Título Original: Rampage
    Año: 2018
    Duración: 107 min.
    País: United States
    Director: Brad Peyton
    Guion: Ryan Engle, Ryan Condal, Carlton Cuse
    Reparto: Dwayne "The Rock" Johnson, Naomie Harris, Jeffrey Dean Morgan, Malin Akerman, Joe Manganiello, Marley Shelton, Jake Lacy, Jack Quaid, Breanne Hill, Matt Gerald, P.J. Byrne, Destiny Lopez, Jason Liles, James Sterling, Michael David Yuhl, Allyssa Brooke, Daniel Craig Baker, Anthony Collins, Laura Distin, Giota Trakas, Mac Wells, Pete Burris, Brad Spiers
    Productora: New Line Cinema / Wrigley Pictures
    Género: Acción. Ciencia ficción | Monstruos. Videojuego


    SINOPSIS
    El primatólogo Davis Okoye (Johnson), un hombre que mantiene las distancias con otras personas, tiene un sólido vínculo con George, el extraordinariamente inteligente gorila de espalda plateada al que ha estado cuidando desde que nació. Pero cuando un experimento genético sale mal, este apacible simio se convierte en una enorme y embravecida criatura. Para empeorar más las cosas, pronto se descubre que existen otros animales con la misma alteración, y estos depredadores alfa recién creados comienzan a arrasar Norteamérica destruyendo todo lo que interpone en su camino.

    TRAILER


    Datos Técnicos
    Video:
    MPEGH HEVC / 2160p / High Profile 5.1 / 27.9 mbps

    Audio:
    Español Latino / AC3 5.1 / 448 kbps / 48kHz / Bluray 4k
    Inglés / TrueHD/Atmos 7.1 / 3279/5205 kbps / 48kHz / Bluray 4k
    Inglés / AC3 5.1/ 448 kbps / 48kHz / Bluray 4k

    Subs:
    Español Latino / SubRip / Bluray 4k
    Español Latino Forzados / SubRip / Bluray 4k
    Español Latino / Sup / Bluray 4k
    Español Latino Forzados / Sup / Bluray 4k
    Inglés / Sup / Bluray 4k


    Código:
    General
    Unique ID                                : 111911213144303223174159192163368318224 (0x543150CE7C812EB56FD3B1D7DEF03510)
    Format                                   : Matroska
    Format version                           : Version 4 / Version 2
    File size                                : 24.1 GiB
    Duration                                 : 1 h 47 min
    Overall bit rate mode                    : Variable
    Overall bit rate                         : 32.2 Mb/s
    Encoded date                             : UTC 2018-07-11 11:42:40
    Writing application                      : mkvmerge v20.0.0 ('I Am The Sun') 64-bit
    Writing library                          : libebml v1.3.5 + libmatroska v1.4.8
    Uploader                                 : Brady
    Web                                      : www.club-hd.com
    
    Video
    ID                                       : 1
    Format                                   : HEVC
    Format/Info                              : High Efficiency Video Coding
    Format profile                           : Main 10@L5.1@High
    Codec ID                                 : V_MPEGH/ISO/HEVC
    Duration                                 : 1 h 47 min
    Bit rate                                 : 27.9 Mb/s
    Width                                    : 3 840 pixels
    Height                                   : 1 600 pixels
    Display aspect ratio                     : 2.40:1
    Frame rate mode                          : Constant
    Frame rate                               : 23.976 (24000/1001) FPS
    Color space                              : YUV
    Chroma subsampling                       : 4:2:0 (Type 2)
    Bit depth                                : 10 bits
    Bits/(Pixel*Frame)                       : 0.189
    Stream size                              : 20.9 GiB (87%)
    Writing library                          : x265 2.6+22-ff02513b92c0:[Windows][GCC 6.3.0][64 bit] 10bit
    Encoding settings                        : cpuid=1173503 / frame-threads=4 / numa-pools=20 / wpp / no-pmode / no-pme / no-psnr / no-ssim / log-level=2 / input-csp=1 / input-res=3840x1600 / interlace=0 / total-frames=154312 / level-idc=51 / high-tier=1 / uhd-bd=0 / ref=4 / no-allow-non-conformance / repeat-headers / annexb / aud / hrd / info / hash=0 / no-temporal-layers / no-open-gop / min-keyint=1 / keyint=24 / gop-lookahead=0 / bframes=4 / b-adapt=2 / b-pyramid / bframe-bias=0 / rc-lookahead=25 / lookahead-slices=4 / scenecut=40 / radl=0 / no-intra-refresh / ctu=64 / min-cu-size=8 / rect / no-amp / max-tu-size=32 / tu-inter-depth=1 / tu-intra-depth=1 / limit-tu=0 / rdoq-level=2 / dynamic-rd=0.00 / no-ssim-rd / signhide / no-tskip / nr-intra=0 / nr-inter=0 / no-constrained-intra / no-strong-intra-smoothing / max-merge=3 / limit-refs=3 / limit-modes / me=3 / subme=3 / merange=57 / temporal-mvp / weightp / no-weightb / no-analyze-src-pics / deblock=-3:-3 / no-sao / no-sao-non-deblock / rd=4 / no-early-skip / rskip / no-fast-intra / no-tskip-fast / no-cu-lossless / no-b-intra / no-splitrd-skip / rdpenalty=0 / psy-rd=2.00 / psy-rdoq=1.00 / no-rd-refine / no-lossless / cbqpoffs=0 / crqpoffs=0 / rc=crf / crf=17.0 / qcomp=0.60 / qpstep=4 / stats-write=0 / stats-read=0 / vbv-maxrate=160000 / vbv-bufsize=160000 / vbv-init=0.9 / crf-max=0.0 / crf-min=0.0 / ipratio=1.40 / pbratio=1.30 / aq-mode=1 / aq-strength=1.00 / cutree / zone-count=0 / no-strict-cbr / qg-size=32 / no-rc-grain / qpmax=69 / qpmin=0 / no-const-vbv / sar=1 / overscan=0 / videoformat=5 / range=0 / colorprim=9 / transfer=16 / colormatrix=9 / chromaloc=1 / chromaloc-top=2 / chromaloc-bottom=2 / display-window=0 / master-display=G(13250,34500)B(7500,3000)R(34000,16000)WP(15635,16450)L(10000000,1) / max-cll=494,364 / min-luma=0 / max-luma=1023 / log2-max-poc-lsb=8 / vui-timing-info / vui-hrd-info / slices=1 / no-opt-qp-pps / no-opt-ref-list-length-pps / no-multi-pass-opt-rps / scenecut-bias=0.05 / no-opt-cu-delta-qp / no-aq-motion / hdr / hdr-opt / no-dhdr10-opt / analysis-save=(null) / analysis-load=(null) / analysis-reuse-level=5 / scale-factor=0 / refine-intra=0 / refine-inter=0 / refine-mv=0 / no-limit-sao / ctu-info=0 / no-lowpass-dct / refine-mv-type=0 / copy-pic=1
    Language                                 : English
    Default                                  : Yes
    Forced                                   : No
    Color range                              : Limited
    Color primaries                          : BT.2020
    Transfer characteristics                 : PQ
    Matrix coefficients                      : BT.2020 non-constant
    Mastering display color primaries        : Display P3
    Mastering display luminance              : min: 0.0001 cd/m2, max: 1000 cd/m2
    Maximum Content Light Level              : 494 cd/m2
    Maximum Frame-Average Light Level        : 364 cd/m2
    
    Audio #1
    ID                                       : 2
    Format                                   : AC-3
    Format/Info                              : Audio Coding 3
    Codec ID                                 : A_AC3
    Duration                                 : 1 h 47 min
    Bit rate mode                            : Constant
    Bit rate                                 : 448 kb/s
    Channel(s)                               : 6 channels
    Channel positions                        : Front: L C R, Side: L R, LFE
    Sampling rate                            : 48.0 kHz
    Frame rate                               : 31.250 FPS (1536 SPF)
    Bit depth                                : 16 bits
    Compression mode                         : Lossy
    Stream size                              : 344 MiB (1%)
    Title                                    : Latino AC3 5.1 448 kbps Bluray 4k
    Language                                 : Latin
    Service kind                             : Complete Main
    Default                                  : Yes
    Forced                                   : No
    
    Audio #2
    ID                                       : 3
    Format                                   : TrueHD
    Format profile                           : TrueHD+Atmos / TrueHD
    Codec ID                                 : A_TRUEHD
    Duration                                 : 1 h 47 min
    Bit rate mode                            : Variable
    Bit rate                                 : 3 279 kb/s
    Maximum bit rate                         : 5 205 kb/s
    Channel(s)                               : Object Based / 8 channels
    Channel positions                        : Object Based / Front: L C R, Side: L R, Back: L R, LFE
    Sampling rate                            :  / 48.0 kHz
    Frame rate                               : 1 200.000 FPS (40 SPF)
    Compression mode                         : Lossless
    Stream size                              : 2.46 GiB (10%)
    Title                                    : Ingles TrueHD/Atmos 7.1 3279/5205 kbps Bluray 4k
    Language                                 : English
    Default                                  : No
    Forced                                   : No
    
    Audio #3
    ID                                       : 4
    Format                                   : AC-3
    Format/Info                              : Audio Coding 3
    Codec ID                                 : A_AC3
    Duration                                 : 1 h 47 min
    Bit rate mode                            : Constant
    Bit rate                                 : 448 kb/s
    Channel(s)                               : 6 channels
    Channel positions                        : Front: L C R, Side: L R, LFE
    Sampling rate                            : 48.0 kHz
    Frame rate                               : 31.250 FPS (1536 SPF)
    Bit depth                                : 16 bits
    Compression mode                         : Lossy
    Stream size                              : 344 MiB (1%)
    Title                                    : Ingles AC3 5.1 448 kbps Bluray 4k
    Language                                 : English
    Service kind                             : Complete Main
    Default                                  : No
    Forced                                   : No
    
    Text #1
    ID                                       : 5
    Format                                   : UTF-8
    Codec ID                                 : S_TEXT/UTF8
    Codec ID/Info                            : UTF-8 Plain Text
    Duration                                 : 1 h 38 min
    Bit rate                                 : 52 b/s
    Count of elements                        : 1273
    Stream size                              : 38.0 KiB (0%)
    Title                                    : Latino
    Language                                 : Latin
    Default                                  : No
    Forced                                   : No
    
    Text #2
    ID                                       : 6
    Format                                   : UTF-8
    Codec ID                                 : S_TEXT/UTF8
    Codec ID/Info                            : UTF-8 Plain Text
    Duration                                 : 1 h 32 min
    Bit rate                                 : 1 b/s
    Count of elements                        : 27
    Stream size                              : 1.10 KiB (0%)
    Title                                    : Forzados
    Language                                 : Latin
    Default                                  : Yes
    Forced                                   : No
    
    Text #3
    ID                                       : 7
    Format                                   : PGS
    Muxing mode                              : zlib
    Codec ID                                 : S_HDMV/PGS
    Codec ID/Info                            : Picture based subtitle format used on BDs/HD-DVDs
    Duration                                 : 1 h 46 min
    Bit rate                                 : 28.1 kb/s
    Count of elements                        : 2552
    Stream size                              : 21.4 MiB (0%)
    Title                                    : Latino
    Language                                 : Latin
    Default                                  : No
    Forced                                   : No
    
    Text #4
    ID                                       : 8
    Format                                   : PGS
    Muxing mode                              : zlib
    Codec ID                                 : S_HDMV/PGS
    Codec ID/Info                            : Picture based subtitle format used on BDs/HD-DVDs
    Duration                                 : 1 h 46 min
    Bit rate                                 : 837 b/s
    Count of elements                        : 56
    Stream size                              : 655 KiB (0%)
    Title                                    : Forzados
    Language                                 : Latin
    Default                                  : No
    Forced                                   : No
    
    Text #5
    ID                                       : 9
    Format                                   : PGS
    Muxing mode                              : zlib
    Codec ID                                 : S_HDMV/PGS
    Codec ID/Info                            : Picture based subtitle format used on BDs/HD-DVDs
    Duration                                 : 1 h 45 min
    Bit rate                                 : 34.6 kb/s
    Count of elements                        : 3088
    Stream size                              : 26.1 MiB (0%)
    Title                                    : Ingles
    Language                                 : English
    Default                                  : No
    Forced                                   : No











    DESCARGA

    Links Intercambiables





    Compra tu Membresía VIP y apoya a Club-HD!

    Click Aquí para más información.

    ATENCIÓN! Finalmente tenemos TODO el material de Club-HD disponible por Mega, enlaces 100% activos y online hoy







    Compra tu Membresía VIP y apoya a Club-HD!

    Click Aquí para más información.

    ATENCIÓN! Finalmente tenemos TODO el material de Club-HD disponible por Mega, enlaces 100% activos y online hoy







    1. Primero, deben estár registrados, sino no habrá manera de que puedan ver los Enlaces.

    2. Una vez registrados, sólo deben dejar un simple comentario de Siete (7) letras/carácteres mínimo, o también un simple "Me gusta".

    Con eso ya podrán ver los links sin ningún problema.

    Nota: Usamos este sistema para proteger los links de Club-HD, y hasta la fecha funciona muy bien.





    1. Primero, deben estár registrados, sino no habrá manera de que puedan ver los Enlaces.

    2. Una vez registrados, sólo deben dejar un simple comentario de Siete (7) letras/carácteres mínimo, o también un simple "Me gusta".

    Con eso ya podrán ver los links sin ningún problema.

    Nota: Usamos este sistema para proteger los links de Club-HD, y hasta la fecha funciona muy bien.




    Código:
    www.club-hd.com
    Let's Go, Do Your Job.

    Si te gusta mi material en 4K, que mejor que una cuenta de uploaded premium para bajar sin limites y gozar de una pelicula en 4K HDR, no te pierdas esta gran oportunidad, solo ingresa al Banner de abajo y compra tu cuenta Uploaded Premium, no te arrepentiras

  2. Los siguientes 14 Usuarios dieron Me Gusta a Brady por este Post:

    basiccaos (12/07/2018),cripp (12/07/2018),edelartem (13/07/2018),fire9194 (13/07/2018),Flaco (12/07/2018),flujo (12/07/2018),Frafel (14/07/2018),JUANADOLFO007 (13/07/2018),kempes54 (12/07/2018),Leo (12/07/2018),lfgarcia (12/07/2018),Max (14/07/2018),Pte.A.Carmine (Ayer),RickAnto (12/07/2018)

  3. #2
    Miembro Destacado
    Avatar de Josiba
    Fecha de ingreso
    27 ago, 12
    Edad
    49
    Mensajes
    4,121
    Última Actividad
    Ayer @ 18:55
    Nacionalidad
    Costa Rica

    Poder de reputación
    11

    Predeterminado Re: Rampage (2018) 2160p 4k UHD HDR Dual Latino-Inglés [Subt. Esp] (Acción. Ciencia Ficción)


  4. #3
    Miembro VIP en Club-HD!
    Avatar de kempes54
    Fecha de ingreso
    28 ago, 12
    Mensajes
    421
    Última Actividad
    Ayer @ 20:03
    Nacionalidad
    Mexico
    Sexo
    Hombre

    Poder de reputación
    8

    Predeterminado Re: Rampage (2018) 2160p 4k UHD HDR Dual Latino-Inglés [Subt. Esp] (Acción. Ciencia Ficción)

    Brady el Master de los 4K!!

  5. #4
    Gran Miembro
    Avatar de basiccaos
    Fecha de ingreso
    11 ago, 15
    Edad
    48
    Mensajes
    158
    Última Actividad
    Ayer @ 06:06
    Nacionalidad
    Spain
    Sexo
    Hombre

    Poder de reputación
    3

    Predeterminado Re: Rampage (2018) 2160p 4k UHD HDR Dual Latino-Inglés [Subt. Esp] (Acción. Ciencia Ficción)

    Muchas gracias! Bajando.

  6. #5
    Miembro Destacado
    Avatar de RalphVader
    Fecha de ingreso
    28 ago, 12
    Edad
    43
    Mensajes
    1,004
    Última Actividad
    Ayer @ 18:26
    Nacionalidad
    Mexico

    Poder de reputación
    7

    Predeterminado Re: Rampage (2018) 2160p 4k UHD HDR Dual Latino-Inglés [Subt. Esp] (Acción. Ciencia Ficción)

    MUCHAS GRACIAS

  7. #6
    Miembro Destacado
    Avatar de mathiasfx
    Fecha de ingreso
    17 oct, 12
    Edad
    38
    Mensajes
    531
    Última Actividad
    12/07/2018 @ 09:21
    Nacionalidad
    Argentina
    Sexo
    Hombre

    Poder de reputación
    6

    Predeterminado Re: Rampage (2018) 2160p 4k UHD HDR Dual Latino-Inglés [Subt. Esp] (Acción. Ciencia Ficción)

    que bueno el 4k

  8. #7
    Miembro Destacado
    Avatar de joelmax18
    Fecha de ingreso
    28 ago, 12
    Edad
    38
    Mensajes
    1,510
    Última Actividad
    Ayer @ 22:14
    Nacionalidad
    Dominican Republic

    Poder de reputación
    7

    Predeterminado Re: Rampage (2018) 2160p 4k UHD HDR Dual Latino-Inglés [Subt. Esp] (Acción. Ciencia Ficción)

    gracias

  9. #8
    Miembro Destacado
    Avatar de PATRICIOG
    Fecha de ingreso
    29 may, 15
    Mensajes
    1,579
    Última Actividad
    Ayer @ 14:58
    Nacionalidad
    Chile
    Sexo
    Hombre

    Poder de reputación
    5

    Predeterminado Re: Rampage (2018) 2160p 4k UHD HDR Dual Latino-Inglés [Subt. Esp] (Acción. Ciencia Ficción)

    Muchas Gracias.

  10. #9
    Miembro Destacado
    Avatar de canales5113
    Fecha de ingreso
    30 ago, 12
    Edad
    36
    Mensajes
    1,242
    Última Actividad
    13/07/2018 @ 20:01
    Nacionalidad
    Honduras

    Poder de reputación
    7

    Predeterminado Re: Rampage (2018) 2160p 4k UHD HDR Dual Latino-Inglés [Subt. Esp] (Acción. Ciencia Ficción)

    gracias

  11. #10
    Miembro Destacado
    Avatar de JCAvila
    Fecha de ingreso
    07 sep, 12
    Edad
    38
    Mensajes
    3,748
    Última Actividad
    Ayer @ 21:09
    Nacionalidad
    Mexico

    Poder de reputación
    10

    Predeterminado Re: Rampage (2018) 2160p 4k UHD HDR Dual Latino-Inglés [Subt. Esp] (Acción. Ciencia Ficción)

    gracias!

  12. #11
    Gran Miembro
    Avatar de daniel6232
    Fecha de ingreso
    11 jul, 13
    Edad
    27
    Mensajes
    459
    Última Actividad
    14/07/2018 @ 19:30
    Nacionalidad
    Mexico
    Sexo
    Hombre

    Poder de reputación
    6

    Predeterminado Re: Rampage (2018) 2160p 4k UHD HDR Dual Latino-Inglés [Subt. Esp] (Acción. Ciencia Ficción)

    descargando gracias por el aporte

  13. #12
    Miembro Destacado
    Avatar de cripp
    Fecha de ingreso
    27 ago, 12
    Mensajes
    5,549
    Última Actividad
    13/07/2018 @ 11:51
    Nacionalidad
    Costa Rica

    Poder de reputación
    14

    Predeterminado Re: Rampage (2018) 2160p 4k UHD HDR Dual Latino-Inglés [Subt. Esp] (Acción. Ciencia Ficción)

    Gracias por compartir

  14. #13
    Gran Miembro
    Avatar de flujo
    Fecha de ingreso
    28 dic, 14
    Mensajes
    4,601
    Última Actividad
    Ayer @ 13:05
    Nacionalidad
    Mexico
    Sexo
    Hombre

    Poder de reputación
    9

    Predeterminado Re: Rampage (2018) 2160p 4k UHD HDR Dual Latino-Inglés [Subt. Esp] (Acción. Ciencia Ficción)

    gracias, muchas gracias

  15. #14
    Miembro Destacado
    Avatar de B.A
    Fecha de ingreso
    12 mar, 18
    Edad
    19
    Mensajes
    96
    Última Actividad
    hoy @ 01:33
    Nacionalidad
    Mexico
    Sexo
    Hombre

    Poder de reputación
    1

    Predeterminado Re: Rampage (2018) 2160p 4k UHD HDR Dual Latino-Inglés [Subt. Esp] (Acción. Ciencia Ficción)

    Gracias

  16. #15
    Miembro
    Avatar de mario e
    Fecha de ingreso
    16 nov, 17
    Mensajes
    54
    Última Actividad
    Ayer @ 18:57
    Nacionalidad
    Mexico
    Sexo
    Hombre

    Poder de reputación
    1

    Predeterminado Re: Rampage (2018) 2160p 4k UHD HDR Dual Latino-Inglés [Subt. Esp] (Acción. Ciencia Ficción)


  17. #16
    Gran Miembro
    Avatar de yoy
    Fecha de ingreso
    20 sep, 12
    Edad
    27
    Mensajes
    356
    Última Actividad
    12/07/2018 @ 14:36
    Nacionalidad
    Peru

    Poder de reputación
    6

    Predeterminado Re: Rampage (2018) 2160p 4k UHD HDR Dual Latino-Inglés [Subt. Esp] (Acción. Ciencia Ficción)

    gracias

  18. #17
    Miembro Destacado
    Avatar de Bernal
    Fecha de ingreso
    28 ago, 12
    Edad
    34
    Mensajes
    1,138
    Última Actividad
    Ayer @ 15:44
    Nacionalidad
    Peru
    Sexo
    Hombre

    Poder de reputación
    8

    Predeterminado Re: Rampage (2018) 2160p 4k UHD HDR Dual Latino-Inglés [Subt. Esp] (Acción. Ciencia Ficción)

    una peliculaza como pa verlo en esta calidad
    http://gifsanimados.de/img-gifsanimados.de/k/kof/anyskof.gif

  19. #18
    Miembro Destacado
    Avatar de tsubasa100
    Fecha de ingreso
    04 sep, 12
    Mensajes
    2,394
    Última Actividad
    Ayer @ 22:25
    Nacionalidad
    Chile

    Poder de reputación
    8

    Predeterminado Re: Rampage (2018) 2160p 4k UHD HDR Dual Latino-Inglés [Subt. Esp] (Acción. Ciencia Ficción)

    Gracias

  20. #19
    Gran Miembro
    Avatar de fernando4555
    Fecha de ingreso
    14 jul, 15
    Edad
    47
    Mensajes
    521
    Última Actividad
    14/07/2018 @ 19:08
    Nacionalidad
    Mexico
    Sexo
    Hombre

    Poder de reputación
    4

    Predeterminado Re: Rampage (2018) 2160p 4k UHD HDR Dual Latino-Inglés [Subt. Esp] (Acción. Ciencia Ficción)


  21. #20
    Gran Miembro
    Avatar de Dj-Cabeza
    Fecha de ingreso
    28 ago, 12
    Edad
    29
    Mensajes
    225
    Última Actividad
    12/07/2018 @ 22:58
    Nacionalidad
    Argentina

    Poder de reputación
    6

    Predeterminado Re: Rampage (2018) 2160p 4k UHD HDR Dual Latino-Inglés [Subt. Esp] (Acción. Ciencia Ficción)

    Gracias!!!!!

  22. #21
    Miembro Destacado
    Avatar de kill_b911
    Fecha de ingreso
    30 ago, 12
    Ubicación
    Hurlingham
    Edad
    50
    Mensajes
    928
    Última Actividad
    Ayer @ 16:17
    Nacionalidad
    Argentina
    Sexo
    Hombre

    Poder de reputación
    6

    Predeterminado Re: Rampage (2018) 2160p 4k UHD HDR Dual Latino-Inglés [Subt. Esp] (Acción. Ciencia Ficción)


  23. #22
    Gran Miembro
    Avatar de fewac
    Fecha de ingreso
    26 abr, 13
    Mensajes
    1,325
    Última Actividad
    13/07/2018 @ 04:37
    Nacionalidad
    Mexico
    Sexo
    Hombre

    Poder de reputación
    7

    Predeterminado Re: Rampage (2018) 2160p 4k UHD HDR Dual Latino-Inglés [Subt. Esp] (Acción. Ciencia Ficción)

    Gracias!!!

  24. #23
    Gran Miembro
    Avatar de sosalexfame
    Fecha de ingreso
    10 jul, 15
    Ubicación
    Mexico
    Edad
    37
    Mensajes
    1,177
    Última Actividad
    Ayer @ 20:58
    Nacionalidad
    Mexico
    Sexo
    Hombre

    Poder de reputación
    5

    Predeterminado Re: Rampage (2018) 2160p 4k UHD HDR Dual Latino-Inglés [Subt. Esp] (Acción. Ciencia Ficción)

    gracias

  25. #24
    Gran Miembro
    Avatar de Darkains
    Fecha de ingreso
    27 ago, 12
    Edad
    30
    Mensajes
    387
    Última Actividad
    13/07/2018 @ 14:28
    Nacionalidad
    Chile

    Poder de reputación
    6

    Predeterminado Re: Rampage (2018) 2160p 4k UHD HDR Dual Latino-Inglés [Subt. Esp] (Acción. Ciencia Ficción)


  26. #25
    Gran Miembro
    Avatar de GASA2010
    Fecha de ingreso
    01 feb, 14
    Mensajes
    664
    Última Actividad
    13/07/2018 @ 16:52
    Nacionalidad
    Macau
    Sexo
    Hombre

    Poder de reputación
    5

    Predeterminado Re: Rampage (2018) 2160p 4k UHD HDR Dual Latino-Inglés [Subt. Esp] (Acción. Ciencia Ficción)

    GRACIAS

Información de tema

Usuarios viendo este tema

Actualmente hay 1 usuarios viendo este tema. (0 miembros y 1 visitantes)

Temas similares

  1. Respuestas: 160
    Último mensaje: hoy, 00:28
  2. Respuestas: 32
    Último mensaje: hoy, 00:06
  3. Respuestas: 87
    Último mensaje: Ayer, 14:13
  4. Respuestas: 197
    Último mensaje: 08/07/2018, 05:12
  5. Respuestas: 38
    Último mensaje: 28/06/2018, 18:35

Miembros que han leído este tema: 96

Marcadores

Permisos de publicación

  • No puedes crear nuevos temas
  • No puedes responder temas
  • No puedes subir archivos adjuntos
  • No puedes editar tus mensajes
  •