Banner Uploaded Vizard

Resultados 1 al 21 de 21

Tema: Mission: Impossible 5 - Rogue Nation (2015) 2160p 4k UHD HDR Dual Latino-Inglés [Subt. Esp] (Acción. Thriller)

  1. #1
    HD Brady

    Avatar de Brady
    Fecha de ingreso
    01 jun, 16
    Edad
    22
    Mensajes
    1,546
    Última Actividad
    hoy @ 12:59
    Nacionalidad
    Mexico
    Sexo
    Hombre

    Poder de reputación
    72

    Predeterminado Mission: Impossible 5 - Rogue Nation (2015) 2160p 4k UHD HDR Dual Latino-Inglés [Subt. Esp] (Acción. Thriller)






    Título Original: Mission: Impossible - Rogue Nation
    Año: 2015
    Duración: 131 min.
    País: United States
    Director: Christopher McQuarrie
    Guion: Christopher McQuarrie (Historia: Christopher McQuarrie, Drew Pearce. Personajes: Bruce Geller)
    Reparto: Tom Cruise, Rebecca Ferguson, Simon Pegg, Jeremy Renner, Sean Harris, Ving Rhames, Alec Baldwin, Simon McBurney, Jens Hultén, Tom Hollander, Hermione Corfield, Jingchu Zhang
    Productora: Coproducción Estados Unidos-China-Hong Kong; Paramount Pictures / Skydance Productions / China Movie Channel / Bad Robot / Alibaba Pictures
    Género: Acción. Thriller | Espionaje. Secuela


    SINOPSIS
    Con la FMI disuelta y Ethan Hunt (Tom Cruise) abandonado a su suerte, el equipo tiene que enfrentarse contra el Sindicato, una red de agentes especiales altamente preparados y entrenados. Estos grupos están empeñados en crear un nuevo orden mundial mediante una serie de ataques terroristas cada vez más graves. Ethan reúne a su equipo y une sus fuerzas con la agente británica renegada Ilsa Faust (Rebecca Ferguson), quien puede que sea o no miembro de esta nación secreta, mientras el grupo se va enfrentando a su misión más imposible hasta la fecha... Quinta entrega de la saga Misión Imposible.

    TRAILER


    Datos Técnicos
    Video:
    MPEGH HEVC / 2160p / High Profile 5.1 / 27.3 mbps

    Audio:
    Español Latino / AC3 5.1 / 640 kbps / 48kHz / Bluray 4k
    Inglés / TrueHD/Atmos 7.1 / 4895/8736 kbps / 48kHz / Bluray 4k
    Inglés / AC3 5.1/ 640 kbps / 48kHz / Bluray 4k

    Subs:
    Español Latino / Sup / Bluray 4k
    Inglés / Sup / Bluray 4k


    Código:
    General
    Unique ID                                : 12668981260840768785783123286005936793 (0x987F500691518940273240E0F5C7299)
    Format                                   : Matroska
    Format version                           : Version 4 / Version 2
    File size                                : 30.9 GiB
    Duration                                 : 2 h 11 min
    Overall bit rate mode                    : Variable
    Overall bit rate                         : 33.6 Mb/s
    Encoded date                             : UTC 2018-07-07 07:23:37
    Writing application                      : mkvmerge v20.0.0 ('I Am The Sun') 64-bit
    Writing library                          : libebml v1.3.5 + libmatroska v1.4.8
    Uploader                                 : Brady
    Web                                      : www.club-hd.com
    
    Video
    ID                                       : 1
    Format                                   : HEVC
    Format/Info                              : High Efficiency Video Coding
    Format profile                           : Main 10@L5.1@High
    Codec ID                                 : V_MPEGH/ISO/HEVC
    Duration                                 : 2 h 11 min
    Bit rate                                 : 27.3 Mb/s
    Width                                    : 3 840 pixels
    Height                                   : 1 600 pixels
    Display aspect ratio                     : 2.40:1
    Frame rate mode                          : Constant
    Frame rate                               : 23.976 (24000/1001) FPS
    Color space                              : YUV
    Chroma subsampling                       : 4:2:0 (Type 2)
    Bit depth                                : 10 bits
    Bits/(Pixel*Frame)                       : 0.186
    Stream size                              : 25.1 GiB (81%)
    Writing library                          : x265 2.8+10-703eade86b53:[Windows][GCC 8.1.0][64 bit] 10bit
    Encoding settings                        : cpuid=1176575 / frame-threads=5 / numa-pools=32 / wpp / no-pmode / no-pme / no-psnr / no-ssim / log-level=2 / input-csp=1 / input-res=3840x1600 / interlace=0 / total-frames=189263 / level-idc=51 / high-tier=1 / uhd-bd=0 / ref=4 / no-allow-non-conformance / repeat-headers / annexb / aud / hrd / info / hash=0 / no-temporal-layers / no-open-gop / min-keyint=24 / keyint=240 / gop-lookahead=0 / bframes=4 / b-adapt=2 / b-pyramid / bframe-bias=0 / rc-lookahead=25 / lookahead-slices=4 / scenecut=40 / radl=0 / no-intra-refresh / ctu=64 / min-cu-size=8 / rect / no-amp / max-tu-size=32 / tu-inter-depth=1 / tu-intra-depth=1 / limit-tu=0 / rdoq-level=2 / dynamic-rd=0.00 / no-ssim-rd / signhide / no-tskip / nr-intra=0 / nr-inter=0 / no-constrained-intra / no-strong-intra-smoothing / max-merge=3 / limit-refs=3 / limit-modes / me=3 / subme=3 / merange=57 / temporal-mvp / weightp / no-weightb / no-analyze-src-pics / deblock=-3:-3 / no-sao / no-sao-non-deblock / rd=4 / no-early-skip / rskip / no-fast-intra / no-tskip-fast / no-cu-lossless / no-b-intra / no-splitrd-skip / rdpenalty=0 / psy-rd=2.00 / psy-rdoq=1.00 / no-rd-refine / no-lossless / cbqpoffs=0 / crqpoffs=0 / rc=crf / crf=18.0 / qcomp=0.60 / qpstep=4 / stats-write=0 / stats-read=0 / vbv-maxrate=160000 / vbv-bufsize=160000 / vbv-init=0.9 / crf-max=0.0 / crf-min=0.0 / ipratio=1.40 / pbratio=1.30 / aq-mode=1 / aq-strength=1.00 / cutree / zone-count=0 / no-strict-cbr / qg-size=32 / no-rc-grain / qpmax=69 / qpmin=0 / no-const-vbv / sar=1 / overscan=0 / videoformat=5 / range=0 / colorprim=9 / transfer=16 / colormatrix=9 / chromaloc=1 / chromaloc-top=2 / chromaloc-bottom=2 / display-window=0 / master-display=G(13250,34500)B(7500,3000)R(34000,16000)WP(15635,16450)L(10000000,1) / max-cll=0,0 / min-luma=0 / max-luma=1023 / log2-max-poc-lsb=8 / vui-timing-info / vui-hrd-info / slices=1 / no-opt-qp-pps / no-opt-ref-list-length-pps / no-multi-pass-opt-rps / scenecut-bias=0.05 / no-opt-cu-delta-qp / no-aq-motion / hdr / hdr-opt / no-dhdr10-opt / no-idr-recovery-sei / analysis-reuse-level=5 / scale-factor=0 / refine-intra=0 / refine-inter=0 / refine-mv=0 / no-limit-sao / ctu-info=0 / no-lowpass-dct / refine-mv-type=0 / copy-pic=1 / max-ausize-factor=1.0 / no-dynamic-refine / no-single-sei
    Language                                 : English
    Default                                  : Yes
    Forced                                   : No
    Color range                              : Limited
    Color primaries                          : BT.2020
    Transfer characteristics                 : PQ
    Matrix coefficients                      : BT.2020 non-constant
    Mastering display color primaries        : Display P3
    Mastering display luminance              : min: 0.0001 cd/m2, max: 1000 cd/m2
    
    Audio #1
    ID                                       : 2
    Format                                   : AC-3
    Format/Info                              : Audio Coding 3
    Codec ID                                 : A_AC3
    Duration                                 : 2 h 11 min
    Bit rate mode                            : Constant
    Bit rate                                 : 640 kb/s
    Channel(s)                               : 6 channels
    Channel positions                        : Front: L C R, Side: L R, LFE
    Sampling rate                            : 48.0 kHz
    Frame rate                               : 31.250 FPS (1536 SPF)
    Bit depth                                : 16 bits
    Compression mode                         : Lossy
    Stream size                              : 602 MiB (2%)
    Title                                    : Latino AC3 5.1 640 kbps Bluray 4k
    Language                                 : Latin
    Service kind                             : Complete Main
    Default                                  : Yes
    Forced                                   : No
    
    Audio #2
    ID                                       : 3
    Format                                   : TrueHD
    Format profile                           : TrueHD+Atmos / TrueHD
    Codec ID                                 : A_TRUEHD
    Duration                                 : 2 h 11 min
    Bit rate mode                            : Variable
    Bit rate                                 : 4 895 kb/s
    Maximum bit rate                         : 8 736 kb/s
    Channel(s)                               : Object Based / 8 channels
    Channel positions                        : Object Based / Front: L C R, Side: L R, Back: L R, LFE
    Sampling rate                            :  / 48.0 kHz
    Frame rate                               : 1 200.000 FPS (40 SPF)
    Compression mode                         : Lossless
    Stream size                              : 4.50 GiB (15%)
    Title                                    : Ingles TrueHD/Atmos 7.1 8736 kbps Bluray 4k
    Language                                 : English
    Default                                  : No
    Forced                                   : No
    
    Audio #3
    ID                                       : 4
    Format                                   : AC-3
    Format/Info                              : Audio Coding 3
    Codec ID                                 : A_AC3
    Duration                                 : 2 h 11 min
    Bit rate mode                            : Constant
    Bit rate                                 : 640 kb/s
    Channel(s)                               : 6 channels
    Channel positions                        : Front: L C R, Side: L R, LFE
    Sampling rate                            : 48.0 kHz
    Frame rate                               : 31.250 FPS (1536 SPF)
    Bit depth                                : 16 bits
    Compression mode                         : Lossy
    Stream size                              : 602 MiB (2%)
    Title                                    : Ingles AC3 5.1 640 kbps Bluray 4k
    Language                                 : English
    Service kind                             : Complete Main
    Default                                  : No
    Forced                                   : No
    
    Text #1
    ID                                       : 5
    Format                                   : PGS
    Muxing mode                              : zlib
    Codec ID                                 : S_HDMV/PGS
    Codec ID/Info                            : Picture based subtitle format used on BDs/HD-DVDs
    Duration                                 : 2 h 4 min
    Bit rate                                 : 24.5 kb/s
    Count of elements                        : 2433
    Stream size                              : 21.8 MiB (0%)
    Title                                    : Latino
    Language                                 : Latin
    Default                                  : No
    Forced                                   : No
    
    Text #2
    ID                                       : 6
    Format                                   : PGS
    Muxing mode                              : zlib
    Codec ID                                 : S_HDMV/PGS
    Codec ID/Info                            : Picture based subtitle format used on BDs/HD-DVDs
    Duration                                 : 2 h 3 min
    Bit rate                                 : 26.0 kb/s
    Count of elements                        : 2413
    Stream size                              : 22.9 MiB (0%)
    Title                                    : Ingles
    Language                                 : English
    Default                                  : No
    Forced                                   : No











    DESCARGA

    Links Intercambiables





    Compra tu Membresía VIP y apoya a Club-HD!

    Click Aquí para más información.

    ATENCIÓN! Finalmente tenemos TODO el material de Club-HD disponible por Mega, enlaces 100% activos y online hoy







    Compra tu Membresía VIP y apoya a Club-HD!

    Click Aquí para más información.

    ATENCIÓN! Finalmente tenemos TODO el material de Club-HD disponible por Mega, enlaces 100% activos y online hoy







    1. Primero, deben estár registrados, sino no habrá manera de que puedan ver los Enlaces.

    2. Una vez registrados, sólo deben dejar un simple comentario de Siete (7) letras/carácteres mínimo, o también un simple "Me gusta".

    Con eso ya podrán ver los links sin ningún problema.

    Nota: Usamos este sistema para proteger los links de Club-HD, y hasta la fecha funciona muy bien.





    1. Primero, deben estár registrados, sino no habrá manera de que puedan ver los Enlaces.

    2. Una vez registrados, sólo deben dejar un simple comentario de Siete (7) letras/carácteres mínimo, o también un simple "Me gusta".

    Con eso ya podrán ver los links sin ningún problema.

    Nota: Usamos este sistema para proteger los links de Club-HD, y hasta la fecha funciona muy bien.




    Código:
    www.club-hd.com
    Let's Go, Do Your Job.

    Si te gusta mi material en 4K, que mejor que una cuenta de uploaded premium para bajar sin limites y gozar de una pelicula en 4K HDR, no te pierdas esta gran oportunidad, solo ingresa al Banner de abajo y compra tu cuenta Uploaded Premium, no te arrepentiras

  2. Los siguientes 9 Usuarios dieron Me Gusta a Brady por este Post:

    alexisfs (21/07/2018),beaubinz (12/07/2018),cripp (11/07/2018),flujo (11/07/2018),goma22 (17/07/2018),Leo (12/07/2018),Max (14/07/2018),Pte.A.Carmine (15/07/2018),zamwise (17/07/2018)

  3. #2
    Gran Miembro
    Avatar de ulisesbretana
    Fecha de ingreso
    27 ago, 12
    Edad
    33
    Mensajes
    427
    Última Actividad
    hoy @ 02:20
    Nacionalidad
    United States

    Poder de reputación
    6

    Predeterminado Re: Mission: Impossible 5 - Rogue Nation (2015) 2160p 4k UHD HDR Dual Latino-Inglés [Subt. Esp] (Acción. Thriller)


  4. #3
    Miembro Destacado
    Avatar de Josiba
    Fecha de ingreso
    27 ago, 12
    Edad
    49
    Mensajes
    4,138
    Última Actividad
    hoy @ 08:20
    Nacionalidad
    Costa Rica

    Poder de reputación
    11

    Predeterminado Re: Mission: Impossible 5 - Rogue Nation (2015) 2160p 4k UHD HDR Dual Latino-Inglés [Subt. Esp] (Acción. Thriller)


  5. #4
    Miembro Destacado
    Avatar de samuelabad
    Fecha de ingreso
    27 ago, 12
    Mensajes
    1,215
    Última Actividad
    Ayer @ 12:45
    Nacionalidad
    Dominican Republic

    Poder de reputación
    7

    Predeterminado Re: Mission: Impossible 5 - Rogue Nation (2015) 2160p 4k UHD HDR Dual Latino-Inglés [Subt. Esp] (Acción. Thriller)

    Gracias

  6. #5
    Miembro Destacado
    Avatar de tsubasa100
    Fecha de ingreso
    04 sep, 12
    Mensajes
    2,404
    Última Actividad
    hoy @ 14:04
    Nacionalidad
    Chile

    Poder de reputación
    8

    Predeterminado Re: Mission: Impossible 5 - Rogue Nation (2015) 2160p 4k UHD HDR Dual Latino-Inglés [Subt. Esp] (Acción. Thriller)

    gracias

  7. #6
    Miembro Destacado
    Avatar de joelmax18
    Fecha de ingreso
    28 ago, 12
    Edad
    38
    Mensajes
    1,524
    Última Actividad
    hoy @ 12:56
    Nacionalidad
    Dominican Republic

    Poder de reputación
    7

    Predeterminado Re: Mission: Impossible 5 - Rogue Nation (2015) 2160p 4k UHD HDR Dual Latino-Inglés [Subt. Esp] (Acción. Thriller)

    gracias

  8. #7
    Miembro Destacado
    Avatar de JCAvila
    Fecha de ingreso
    07 sep, 12
    Edad
    38
    Mensajes
    3,765
    Última Actividad
    Ayer @ 19:43
    Nacionalidad
    Mexico

    Poder de reputación
    11

    Predeterminado Re: Mission: Impossible 5 - Rogue Nation (2015) 2160p 4k UHD HDR Dual Latino-Inglés [Subt. Esp] (Acción. Thriller)

    gracias!

  9. #8
    Miembro Destacado
    Avatar de PATRICIOG
    Fecha de ingreso
    29 may, 15
    Mensajes
    1,591
    Última Actividad
    Ayer @ 21:47
    Nacionalidad
    Chile
    Sexo
    Hombre

    Poder de reputación
    5

    Predeterminado Re: Mission: Impossible 5 - Rogue Nation (2015) 2160p 4k UHD HDR Dual Latino-Inglés [Subt. Esp] (Acción. Thriller)


  10. #9
    Miembro Destacado
    Avatar de cripp
    Fecha de ingreso
    27 ago, 12
    Mensajes
    5,564
    Última Actividad
    20/07/2018 @ 13:57
    Nacionalidad
    Costa Rica

    Poder de reputación
    14

    Predeterminado Re: Mission: Impossible 5 - Rogue Nation (2015) 2160p 4k UHD HDR Dual Latino-Inglés [Subt. Esp] (Acción. Thriller)

    Gracias por compartir

  11. #10
    Gran Miembro
    Avatar de flujo
    Fecha de ingreso
    28 dic, 14
    Mensajes
    4,623
    Última Actividad
    hoy @ 10:14
    Nacionalidad
    Mexico
    Sexo
    Hombre

    Poder de reputación
    9

    Predeterminado Re: Mission: Impossible 5 - Rogue Nation (2015) 2160p 4k UHD HDR Dual Latino-Inglés [Subt. Esp] (Acción. Thriller)

    gracias

  12. #11
    Miembro Destacado
    Avatar de Tony Stark
    Fecha de ingreso
    28 ago, 12
    Mensajes
    1,555
    Última Actividad
    21/07/2018 @ 23:32
    Nacionalidad
    Mexico
    Sexo
    Hombre

    Poder de reputación
    7

    Predeterminado Re: Mission: Impossible 5 - Rogue Nation (2015) 2160p 4k UHD HDR Dual Latino-Inglés [Subt. Esp] (Acción. Thriller)


  13. #12
    Miembro Destacado
    Avatar de muruagam
    Fecha de ingreso
    29 ago, 12
    Ubicación
    Buenos Aires
    Edad
    44
    Mensajes
    1,287
    Última Actividad
    hoy @ 08:38
    Nacionalidad
    Argentina
    Sexo
    Hombre

    Poder de reputación
    7

    Predeterminado Re: Mission: Impossible 5 - Rogue Nation (2015) 2160p 4k UHD HDR Dual Latino-Inglés [Subt. Esp] (Acción. Thriller)


  14. #13
    Gran Miembro
    Avatar de Alan Maiden
    Fecha de ingreso
    01 ago, 15
    Mensajes
    564
    Última Actividad
    hoy @ 08:41
    Nacionalidad
    Argentina
    Sexo
    Hombre

    Poder de reputación
    4

    Predeterminado Re: Mission: Impossible 5 - Rogue Nation (2015) 2160p 4k UHD HDR Dual Latino-Inglés [Subt. Esp] (Acción. Thriller)

    Gracias!!

  15. #14
    Miembro Destacado
    Avatar de kill_b911
    Fecha de ingreso
    30 ago, 12
    Ubicación
    Hurlingham
    Edad
    50
    Mensajes
    930
    Última Actividad
    hoy @ 14:24
    Nacionalidad
    Argentina
    Sexo
    Hombre

    Poder de reputación
    6

    Predeterminado Re: Mission: Impossible 5 - Rogue Nation (2015) 2160p 4k UHD HDR Dual Latino-Inglés [Subt. Esp] (Acción. Thriller)


  16. #15
    Gran Miembro
    Avatar de jramirez05
    Fecha de ingreso
    01 sep, 12
    Mensajes
    222
    Última Actividad
    hoy @ 00:29
    Nacionalidad
    Costa Rica

    Poder de reputación
    6

    Predeterminado Re: Mission: Impossible 5 - Rogue Nation (2015) 2160p 4k UHD HDR Dual Latino-Inglés [Subt. Esp] (Acción. Thriller)

    gracias

  17. #16
    Miembro Destacado
    Avatar de beaubinz
    Fecha de ingreso
    28 ago, 12
    Ubicación
    Lima
    Edad
    36
    Mensajes
    1,151
    Última Actividad
    21/07/2018 @ 21:32
    Nacionalidad
    Peru
    Sexo
    Hombre

    Poder de reputación
    7

    Predeterminado Re: Mission: Impossible 5 - Rogue Nation (2015) 2160p 4k UHD HDR Dual Latino-Inglés [Subt. Esp] (Acción. Thriller)


  18. #17
    Gran Miembro
    Avatar de fewac
    Fecha de ingreso
    26 abr, 13
    Mensajes
    1,345
    Última Actividad
    hoy @ 02:35
    Nacionalidad
    Mexico
    Sexo
    Hombre

    Poder de reputación
    7

    Predeterminado Re: Mission: Impossible 5 - Rogue Nation (2015) 2160p 4k UHD HDR Dual Latino-Inglés [Subt. Esp] (Acción. Thriller)

    Gracias!!!

  19. #18
    Gran Miembro
    Avatar de Dj-Cabeza
    Fecha de ingreso
    28 ago, 12
    Edad
    29
    Mensajes
    225
    Última Actividad
    21/07/2018 @ 12:25
    Nacionalidad
    Argentina

    Poder de reputación
    6

    Predeterminado Re: Mission: Impossible 5 - Rogue Nation (2015) 2160p 4k UHD HDR Dual Latino-Inglés [Subt. Esp] (Acción. Thriller)

    Gracias!!!

  20. #19
    Gran Miembro
    Avatar de sosalexfame
    Fecha de ingreso
    10 jul, 15
    Ubicación
    Mexico
    Edad
    37
    Mensajes
    1,182
    Última Actividad
    hoy @ 02:44
    Nacionalidad
    Mexico
    Sexo
    Hombre

    Poder de reputación
    5

    Predeterminado Re: Mission: Impossible 5 - Rogue Nation (2015) 2160p 4k UHD HDR Dual Latino-Inglés [Subt. Esp] (Acción. Thriller)

    gracias

  21. #20
    Miembro Destacado
    Avatar de juniorgarabo
    Fecha de ingreso
    16 sep, 12
    Edad
    35
    Mensajes
    3,117
    Última Actividad
    Ayer @ 16:50
    Nacionalidad
    Dominican Republic
    Sexo
    Hombre

    Poder de reputación
    24

    Predeterminado Re: Mission: Impossible 5 - Rogue Nation (2015) 2160p 4k UHD HDR Dual Latino-Inglés [Subt. Esp] (Acción. Thriller)


  22. #21
    Gran Miembro
    Avatar de xikoh99
    Fecha de ingreso
    16 sep, 12
    Ubicación
    Santiago
    Edad
    28
    Mensajes
    1,312
    Última Actividad
    hoy @ 14:18
    Nacionalidad
    Chile
    Sexo
    Hombre

    Poder de reputación
    7

    Predeterminado Re: Mission: Impossible 5 - Rogue Nation (2015) 2160p 4k UHD HDR Dual Latino-Inglés [Subt. Esp] (Acción. Thriller)


Información de tema

Usuarios viendo este tema

Actualmente hay 1 usuarios viendo este tema. (0 miembros y 1 visitantes)

Temas similares

  1. Respuestas: 259
    Último mensaje: 19/03/2018, 11:09
  2. Respuestas: 284
    Último mensaje: 20/12/2017, 11:05
  3. Respuestas: 104
    Último mensaje: 31/08/2017, 03:34
  4. Respuestas: 359
    Último mensaje: 31/03/2017, 05:12
  5. Trailer Oficial: Mission: Impossible - Rogue Nation (2015)
    Por HemoAr en el foro Trailers de Películas de los próximos estrenos!
    Respuestas: 2
    Último mensaje: 27/03/2015, 14:38

Miembros que han leído este tema: 62

Marcadores

Permisos de publicación

  • No puedes crear nuevos temas
  • No puedes responder temas
  • No puedes subir archivos adjuntos
  • No puedes editar tus mensajes
  •