Banner Uploaded Nacho

Resultados 1 al 19 de 19

Tema: Mission: Impossible IV - Ghost Protocol (2011) 2160p 4k UHD HDR Dual Latino-Inglés [Subt. Esp] (Acción. Thriller)

  1. #1
    HD Brady

    Avatar de Brady
    Fecha de ingreso
    01 jun, 16
    Edad
    22
    Mensajes
    1,537
    Última Actividad
    hoy @ 00:34
    Nacionalidad
    Mexico
    Sexo
    Hombre

    Poder de reputación
    70

    Predeterminado Mission: Impossible IV - Ghost Protocol (2011) 2160p 4k UHD HDR Dual Latino-Inglés [Subt. Esp] (Acción. Thriller)






    Título Original: Mission: Impossible - Ghost Protocol
    Año: 2011
    Duración: 127 min.
    País: United States
    Director: Brad Bird
    Guion: Josh Applebaum, Andre Nemec (Personajes: Bruce Geller)
    Reparto: Tom Cruise, Paula Patton, Jeremy Renner, Simon Pegg, Michael Nyqvist, Anil Kapoor, Léa Seydoux, Josh Holloway, Vladimir Mashkov, Tom Wilkinson, Samuli Edelmann, Ivan Shvedoff, Miraj Grbic, Ving Rhames
    Productora: Paramount Pictures
    Género: Acción. Thriller | Espionaje. Secuela


    SINOPSIS
    Cuarta entrega de la serie cinematográfica Misión imposible. El agente Ethan Hunt, acusado de un atentado terrorista con bombas contra el Kremlin, es desautorizado junto con toda la organización, al poner en marcha el Presidente el “Protocolo Fantasma”. Abandonado a su suerte y sin recursos, el objetivo de Ethan es rehabilitar el buen nombre de su agencia e impedir un nuevo ataque. Pero Ethan emprende esta misión con un equipo formado por fugitivos, cuyos motivos personales no conoce bien.

    TRAILER


    Datos Técnicos
    Video:
    MPEGH HEVC / 2160p / High Profile 5.1 / 28.6 mbps

    Audio:
    Español Latino / AC3 5.1 / 640 kbps / 48kHz / Bluray 4k
    Inglés / TrueHD 7.1 / 4492/6759 kbps / 48kHz / Bluray 4k
    Inglés / AC3 5.1/ 640 kbps / 48kHz / Bluray 4k

    Subs:
    Español Latino / Sup / Bluray 4k
    Español Latino Forzados / Sup / Bluray 4k
    Inglés / Sup / Bluray 4k


    Código:
    General
    Unique ID                                : 177401322096648327926229514219123755210 (0x8576407895C68718B983E1433FDDC8CA)
    Format                                   : Matroska
    Format version                           : Version 4 / Version 2
    File size                                : 32.0 GiB
    Duration                                 : 2 h 12 min
    Overall bit rate mode                    : Variable
    Overall bit rate                         : 34.4 Mb/s
    Encoded date                             : UTC 2018-07-05 22:20:30
    Writing application                      : mkvmerge v20.0.0 ('I Am The Sun') 64-bit
    Writing library                          : libebml v1.3.5 + libmatroska v1.4.8
    Uploader                                 : Brady
    Web                                      : www.club-hd.com
    
    Video
    ID                                       : 1
    Format                                   : HEVC
    Format/Info                              : High Efficiency Video Coding
    Format profile                           : Main 10@L5.1@High
    Codec ID                                 : V_MPEGH/ISO/HEVC
    Duration                                 : 2 h 12 min
    Bit rate                                 : 28.6 Mb/s
    Width                                    : 3 840 pixels
    Height                                   : 1 600 pixels
    Display aspect ratio                     : 2.40:1
    Frame rate mode                          : Constant
    Frame rate                               : 23.976 (24000/1001) FPS
    Color space                              : YUV
    Chroma subsampling                       : 4:2:0 (Type 2)
    Bit depth                                : 10 bits
    Bits/(Pixel*Frame)                       : 0.194
    Stream size                              : 26.5 GiB (83%)
    Writing library                          : x265 2.8+10-703eade86b53:[Windows][GCC 8.1.0][64 bit] 10bit
    Encoding settings                        : cpuid=1111039 / frame-threads=4 / numa-pools=16 / wpp / no-pmode / no-pme / no-psnr / no-ssim / log-level=2 / input-csp=1 / input-res=3840x1600 / interlace=0 / total-frames=191232 / level-idc=51 / high-tier=1 / uhd-bd=0 / ref=4 / no-allow-non-conformance / repeat-headers / annexb / aud / hrd / info / hash=0 / no-temporal-layers / no-open-gop / min-keyint=24 / keyint=240 / gop-lookahead=0 / bframes=4 / b-adapt=2 / b-pyramid / bframe-bias=0 / rc-lookahead=25 / lookahead-slices=4 / scenecut=40 / radl=0 / no-intra-refresh / ctu=64 / min-cu-size=8 / rect / no-amp / max-tu-size=32 / tu-inter-depth=1 / tu-intra-depth=1 / limit-tu=0 / rdoq-level=2 / dynamic-rd=0.00 / no-ssim-rd / signhide / no-tskip / nr-intra=0 / nr-inter=0 / no-constrained-intra / no-strong-intra-smoothing / max-merge=3 / limit-refs=3 / limit-modes / me=3 / subme=3 / merange=57 / temporal-mvp / weightp / no-weightb / no-analyze-src-pics / deblock=-3:-3 / no-sao / no-sao-non-deblock / rd=4 / no-early-skip / rskip / no-fast-intra / no-tskip-fast / no-cu-lossless / no-b-intra / no-splitrd-skip / rdpenalty=0 / psy-rd=2.00 / psy-rdoq=1.00 / no-rd-refine / no-lossless / cbqpoffs=0 / crqpoffs=0 / rc=crf / crf=18.5 / qcomp=0.60 / qpstep=4 / stats-write=0 / stats-read=0 / vbv-maxrate=160000 / vbv-bufsize=160000 / vbv-init=0.9 / crf-max=0.0 / crf-min=0.0 / ipratio=1.40 / pbratio=1.30 / aq-mode=1 / aq-strength=1.00 / cutree / zone-count=0 / no-strict-cbr / qg-size=32 / no-rc-grain / qpmax=69 / qpmin=0 / no-const-vbv / sar=1 / overscan=0 / videoformat=5 / range=0 / colorprim=9 / transfer=16 / colormatrix=9 / chromaloc=1 / chromaloc-top=2 / chromaloc-bottom=2 / display-window=0 / master-display=G(13250,34500)B(7500,3000)R(34000,16000)WP(15635,16450)L(10000000,1) / max-cll=0,0 / min-luma=0 / max-luma=1023 / log2-max-poc-lsb=8 / vui-timing-info / vui-hrd-info / slices=1 / no-opt-qp-pps / no-opt-ref-list-length-pps / no-multi-pass-opt-rps / scenecut-bias=0.05 / no-opt-cu-delta-qp / no-aq-motion / hdr / hdr-opt / no-dhdr10-opt / no-idr-recovery-sei / analysis-reuse-level=5 / scale-factor=0 / refine-intra=0 / refine-inter=0 / refine-mv=0 / no-limit-sao / ctu-info=0 / no-lowpass-dct / refine-mv-type=0 / copy-pic=1 / max-ausize-factor=1.0 / no-dynamic-refine / no-single-sei
    Language                                 : English
    Default                                  : Yes
    Forced                                   : No
    Color range                              : Limited
    Color primaries                          : BT.2020
    Transfer characteristics                 : PQ
    Matrix coefficients                      : BT.2020 non-constant
    Mastering display color primaries        : Display P3
    Mastering display luminance              : min: 0.0001 cd/m2, max: 1000 cd/m2
    
    Audio #1
    ID                                       : 2
    Format                                   : AC-3
    Format/Info                              : Audio Coding 3
    Codec ID                                 : A_AC3
    Duration                                 : 2 h 12 min
    Bit rate mode                            : Constant
    Bit rate                                 : 640 kb/s
    Channel(s)                               : 6 channels
    Channel positions                        : Front: L C R, Side: L R, LFE
    Sampling rate                            : 48.0 kHz
    Frame rate                               : 31.250 FPS (1536 SPF)
    Bit depth                                : 16 bits
    Compression mode                         : Lossy
    Stream size                              : 609 MiB (2%)
    Title                                    : Latino AC3 5.1 640 kbps Bluray 4k
    Language                                 : Latin
    Service kind                             : Complete Main
    Default                                  : Yes
    Forced                                   : No
    
    Audio #2
    ID                                       : 3
    Format                                   : TrueHD
    Codec ID                                 : A_TRUEHD
    Duration                                 : 2 h 12 min
    Bit rate mode                            : Variable
    Bit rate                                 : 4 492 kb/s
    Maximum bit rate                         : 6 759 kb/s
    Channel(s)                               : 8 channels
    Channel positions                        : Front: L C R, Side: L R, Back: L R, LFE
    Sampling rate                            : 48.0 kHz
    Frame rate                               : 1 200.000 FPS (40 SPF)
    Compression mode                         : Lossless
    Stream size                              : 4.17 GiB (13%)
    Title                                    : Ingles TrueHD 7.1 6759 kbps Bluray 4k
    Language                                 : English
    Default                                  : No
    Forced                                   : No
    
    Audio #3
    ID                                       : 4
    Format                                   : AC-3
    Format/Info                              : Audio Coding 3
    Codec ID                                 : A_AC3
    Duration                                 : 2 h 12 min
    Bit rate mode                            : Constant
    Bit rate                                 : 640 kb/s
    Channel(s)                               : 6 channels
    Channel positions                        : Front: L C R, Side: L R, LFE
    Sampling rate                            : 48.0 kHz
    Frame rate                               : 31.250 FPS (1536 SPF)
    Bit depth                                : 16 bits
    Compression mode                         : Lossy
    Stream size                              : 609 MiB (2%)
    Title                                    : Ingles AC3 5.1 640 kbps Bluray 4k
    Language                                 : English
    Service kind                             : Complete Main
    Default                                  : No
    Forced                                   : No
    
    Text #1
    ID                                       : 5
    Format                                   : PGS
    Muxing mode                              : zlib
    Codec ID                                 : S_HDMV/PGS
    Codec ID/Info                            : Picture based subtitle format used on BDs/HD-DVDs
    Duration                                 : 2 h 4 min
    Bit rate                                 : 13.3 kb/s
    Count of elements                        : 2452
    Stream size                              : 11.8 MiB (0%)
    Title                                    : Latino
    Language                                 : Latin
    Default                                  : No
    Forced                                   : No
    
    Text #2
    ID                                       : 6
    Format                                   : PGS
    Muxing mode                              : zlib
    Codec ID                                 : S_HDMV/PGS
    Codec ID/Info                            : Picture based subtitle format used on BDs/HD-DVDs
    Duration                                 : 1 h 55 min
    Bit rate                                 : 920 b/s
    Count of elements                        : 192
    Stream size                              : 776 KiB (0%)
    Title                                    : Forzados
    Language                                 : Latin
    Default                                  : Yes
    Forced                                   : No
    
    Text #3
    ID                                       : 7
    Format                                   : PGS
    Muxing mode                              : zlib
    Codec ID                                 : S_HDMV/PGS
    Codec ID/Info                            : Picture based subtitle format used on BDs/HD-DVDs
    Duration                                 : 2 h 2 min
    Bit rate                                 : 14.7 kb/s
    Count of elements                        : 2537
    Stream size                              : 12.9 MiB (0%)
    Title                                    : Ingles
    Language                                 : English
    Default                                  : No
    Forced                                   : No











    DESCARGA

    Links Intercambiables





    Compra tu Membresía VIP y apoya a Club-HD!

    Click Aquí para más información.

    ATENCIÓN! Finalmente tenemos TODO el material de Club-HD disponible por Mega, enlaces 100% activos y online hoy







    Compra tu Membresía VIP y apoya a Club-HD!

    Click Aquí para más información.

    ATENCIÓN! Finalmente tenemos TODO el material de Club-HD disponible por Mega, enlaces 100% activos y online hoy







    1. Primero, deben estár registrados, sino no habrá manera de que puedan ver los Enlaces.

    2. Una vez registrados, sólo deben dejar un simple comentario de Siete (7) letras/carácteres mínimo, o también un simple "Me gusta".

    Con eso ya podrán ver los links sin ningún problema.

    Nota: Usamos este sistema para proteger los links de Club-HD, y hasta la fecha funciona muy bien.





    1. Primero, deben estár registrados, sino no habrá manera de que puedan ver los Enlaces.

    2. Una vez registrados, sólo deben dejar un simple comentario de Siete (7) letras/carácteres mínimo, o también un simple "Me gusta".

    Con eso ya podrán ver los links sin ningún problema.

    Nota: Usamos este sistema para proteger los links de Club-HD, y hasta la fecha funciona muy bien.




    Código:
    www.club-hd.com
    Let's Go, Do Your Job.

    Si te gusta mi material en 4K, que mejor que una cuenta de uploaded premium para bajar sin limites y gozar de una pelicula en 4K HDR, no te pierdas esta gran oportunidad, solo ingresa al Banner de abajo y compra tu cuenta Uploaded Premium, no te arrepentiras

  2. Los siguientes 6 Usuarios dieron Me Gusta a Brady por este Post:

    beaubinz (12/07/2018),cripp (11/07/2018),flujo (11/07/2018),Leo (12/07/2018),Max (14/07/2018),Pte.A.Carmine (15/07/2018)

  3. #2
    Miembro Destacado
    Avatar de Josiba
    Fecha de ingreso
    27 ago, 12
    Edad
    49
    Mensajes
    4,121
    Última Actividad
    Ayer @ 20:08
    Nacionalidad
    Costa Rica

    Poder de reputación
    11

    Predeterminado Re: Mission: Impossible IV - Ghost Protocol (2011) 2160p 4k UHD HDR Dual Latino-Inglés [Subt. Esp] (Acción. Thriller)


  4. #3
    Miembro Destacado
    Avatar de samuelabad
    Fecha de ingreso
    27 ago, 12
    Mensajes
    1,210
    Última Actividad
    Ayer @ 18:12
    Nacionalidad
    Dominican Republic

    Poder de reputación
    7

    Predeterminado Re: Mission: Impossible IV - Ghost Protocol (2011) 2160p 4k UHD HDR Dual Latino-Inglés [Subt. Esp] (Acción. Thriller)

    Graicasd

  5. #4
    Miembro Destacado
    Avatar de tsubasa100
    Fecha de ingreso
    04 sep, 12
    Mensajes
    2,394
    Última Actividad
    Ayer @ 23:46
    Nacionalidad
    Chile

    Poder de reputación
    8

    Predeterminado Re: Mission: Impossible IV - Ghost Protocol (2011) 2160p 4k UHD HDR Dual Latino-Inglés [Subt. Esp] (Acción. Thriller)

    gracias

  6. #5
    Gran Miembro
    Avatar de jafont32
    Fecha de ingreso
    07 mar, 16
    Edad
    37
    Mensajes
    476
    Última Actividad
    15/07/2018 @ 22:03
    Nacionalidad
    Argentina
    Sexo
    Hombre

    Poder de reputación
    3

    Predeterminado Re: Mission: Impossible IV - Ghost Protocol (2011) 2160p 4k UHD HDR Dual Latino-Inglés [Subt. Esp] (Acción. Thriller)

    Gracias

  7. #6
    Miembro Destacado
    Avatar de joelmax18
    Fecha de ingreso
    28 ago, 12
    Edad
    38
    Mensajes
    1,511
    Última Actividad
    Ayer @ 16:20
    Nacionalidad
    Dominican Republic

    Poder de reputación
    7

    Predeterminado Re: Mission: Impossible IV - Ghost Protocol (2011) 2160p 4k UHD HDR Dual Latino-Inglés [Subt. Esp] (Acción. Thriller)

    gracias

  8. #7
    Miembro Destacado
    Avatar de RESIDENT_EVIL
    Fecha de ingreso
    28 ago, 12
    Mensajes
    1,266
    Última Actividad
    14/07/2018 @ 21:56
    Nacionalidad
    Mexico

    Poder de reputación
    7

    Predeterminado Re: Mission: Impossible IV - Ghost Protocol (2011) 2160p 4k UHD HDR Dual Latino-Inglés [Subt. Esp] (Acción. Thriller)


  9. #8
    Miembro Destacado
    Avatar de JCAvila
    Fecha de ingreso
    07 sep, 12
    Edad
    38
    Mensajes
    3,748
    Última Actividad
    Ayer @ 16:00
    Nacionalidad
    Mexico

    Poder de reputación
    10

    Predeterminado Re: Mission: Impossible IV - Ghost Protocol (2011) 2160p 4k UHD HDR Dual Latino-Inglés [Subt. Esp] (Acción. Thriller)

    gracias!

  10. #9
    Miembro Destacado
    Avatar de PATRICIOG
    Fecha de ingreso
    29 may, 15
    Mensajes
    1,580
    Última Actividad
    Ayer @ 22:43
    Nacionalidad
    Chile
    Sexo
    Hombre

    Poder de reputación
    5

    Predeterminado Re: Mission: Impossible IV - Ghost Protocol (2011) 2160p 4k UHD HDR Dual Latino-Inglés [Subt. Esp] (Acción. Thriller)


  11. #10
    Miembro Destacado
    Avatar de cripp
    Fecha de ingreso
    27 ago, 12
    Mensajes
    5,554
    Última Actividad
    Ayer @ 18:40
    Nacionalidad
    Costa Rica

    Poder de reputación
    14

    Predeterminado Re: Mission: Impossible IV - Ghost Protocol (2011) 2160p 4k UHD HDR Dual Latino-Inglés [Subt. Esp] (Acción. Thriller)

    Gracias por compartir

  12. #11
    Gran Miembro
    Avatar de flujo
    Fecha de ingreso
    28 dic, 14
    Mensajes
    4,602
    Última Actividad
    Ayer @ 12:52
    Nacionalidad
    Mexico
    Sexo
    Hombre

    Poder de reputación
    9

    Predeterminado Re: Mission: Impossible IV - Ghost Protocol (2011) 2160p 4k UHD HDR Dual Latino-Inglés [Subt. Esp] (Acción. Thriller)

    gracias

  13. #12
    Miembro Destacado
    Avatar de Tony Stark
    Fecha de ingreso
    28 ago, 12
    Mensajes
    1,544
    Última Actividad
    Ayer @ 15:39
    Nacionalidad
    Mexico
    Sexo
    Hombre

    Poder de reputación
    7

    Predeterminado Re: Mission: Impossible IV - Ghost Protocol (2011) 2160p 4k UHD HDR Dual Latino-Inglés [Subt. Esp] (Acción. Thriller)


  14. #13
    Miembro Destacado
    Avatar de muruagam
    Fecha de ingreso
    29 ago, 12
    Ubicación
    Buenos Aires
    Edad
    44
    Mensajes
    1,286
    Última Actividad
    12/07/2018 @ 16:22
    Nacionalidad
    Argentina
    Sexo
    Hombre

    Poder de reputación
    7

    Predeterminado Re: Mission: Impossible IV - Ghost Protocol (2011) 2160p 4k UHD HDR Dual Latino-Inglés [Subt. Esp] (Acción. Thriller)


  15. #14
    Gran Miembro
    Avatar de Alan Maiden
    Fecha de ingreso
    01 ago, 15
    Mensajes
    556
    Última Actividad
    Ayer @ 17:17
    Nacionalidad
    Argentina
    Sexo
    Hombre

    Poder de reputación
    4

    Predeterminado Re: Mission: Impossible IV - Ghost Protocol (2011) 2160p 4k UHD HDR Dual Latino-Inglés [Subt. Esp] (Acción. Thriller)

    Gracias!!

  16. #15
    Miembro Destacado
    Avatar de kill_b911
    Fecha de ingreso
    30 ago, 12
    Ubicación
    Hurlingham
    Edad
    50
    Mensajes
    928
    Última Actividad
    Ayer @ 04:31
    Nacionalidad
    Argentina
    Sexo
    Hombre

    Poder de reputación
    6

    Predeterminado Re: Mission: Impossible IV - Ghost Protocol (2011) 2160p 4k UHD HDR Dual Latino-Inglés [Subt. Esp] (Acción. Thriller)


  17. #16
    Gran Miembro
    Avatar de fewac
    Fecha de ingreso
    26 abr, 13
    Mensajes
    1,325
    Última Actividad
    13/07/2018 @ 04:37
    Nacionalidad
    Mexico
    Sexo
    Hombre

    Poder de reputación
    7

    Predeterminado Re: Mission: Impossible IV - Ghost Protocol (2011) 2160p 4k UHD HDR Dual Latino-Inglés [Subt. Esp] (Acción. Thriller)

    Gracias!!!

  18. #17
    Gran Miembro
    Avatar de Dj-Cabeza
    Fecha de ingreso
    28 ago, 12
    Edad
    29
    Mensajes
    225
    Última Actividad
    12/07/2018 @ 22:58
    Nacionalidad
    Argentina

    Poder de reputación
    6

    Predeterminado Re: Mission: Impossible IV - Ghost Protocol (2011) 2160p 4k UHD HDR Dual Latino-Inglés [Subt. Esp] (Acción. Thriller)

    Gracias!!!

  19. #18
    Gran Miembro
    Avatar de sosalexfame
    Fecha de ingreso
    10 jul, 15
    Ubicación
    Mexico
    Edad
    37
    Mensajes
    1,177
    Última Actividad
    15/07/2018 @ 20:58
    Nacionalidad
    Mexico
    Sexo
    Hombre

    Poder de reputación
    5

    Predeterminado Re: Mission: Impossible IV - Ghost Protocol (2011) 2160p 4k UHD HDR Dual Latino-Inglés [Subt. Esp] (Acción. Thriller)

    gracias

  20. #19
    Miembro Destacado
    Avatar de juniorgarabo
    Fecha de ingreso
    16 sep, 12
    Edad
    35
    Mensajes
    3,109
    Última Actividad
    15/07/2018 @ 19:15
    Nacionalidad
    Dominican Republic
    Sexo
    Hombre

    Poder de reputación
    24

    Predeterminado Re: Mission: Impossible IV - Ghost Protocol (2011) 2160p 4k UHD HDR Dual Latino-Inglés [Subt. Esp] (Acción. Thriller)


Información de tema

Usuarios viendo este tema

Actualmente hay 1 usuarios viendo este tema. (0 miembros y 1 visitantes)

Temas similares

  1. Respuestas: 21
    Último mensaje: Ayer, 12:10
  2. Respuestas: 16
    Último mensaje: 15/07/2018, 01:22
  3. Respuestas: 72
    Último mensaje: 14/07/2018, 15:19
  4. Respuestas: 163
    Último mensaje: 20/12/2017, 11:07
  5. Respuestas: 253
    Último mensaje: 06/09/2016, 02:26

Miembros que han leído este tema: 50

Marcadores

Permisos de publicación

  • No puedes crear nuevos temas
  • No puedes responder temas
  • No puedes subir archivos adjuntos
  • No puedes editar tus mensajes
  •