Banner Uploaded Ivan

Resultados 1 al 23 de 23

Tema: Mission: Impossible (1996) 2160p 4k UHD HDR Dual Latino-Inglés [Subt. Esp] (Acción. Intriga)

  1. #1
    HD Brady

    Avatar de Brady
    Fecha de ingreso
    01 jun, 16
    Edad
    22
    Mensajes
    1,546
    Última Actividad
    hoy @ 22:51
    Nacionalidad
    Mexico
    Sexo
    Hombre

    Poder de reputación
    71

    Predeterminado Mission: Impossible (1996) 2160p 4k UHD HDR Dual Latino-Inglés [Subt. Esp] (Acción. Intriga)






    Título Original: Mission: Impossible
    Año: 1996
    Duración: 110 min.
    País: United States
    Director: Brian De Palma
    Guion: Robert Towne, David Koepp (Historia: Steven Zaillian, David Koepp. Serie de TV: Bruce Geller)
    Reparto: Tom Cruise, Emmanuelle Béart, Jon Voight, Jean Reno, Vanessa Redgrave, Kristin Scott Thomas, David Schneider, Emilio Estévez, Henry Czerny, Ving Rhames, Ingeborga Dapkunaite, Marcel Iures, Marek Vasut
    Productora: Paramount Pictures
    Género: Acción. Intriga. Thriller | Espionaje


    SINOPSIS
    Ethan Hunt es un superespía capaz de llevar a cabo la misión más peligrosa con la máxima eficacia y elegancia. Forma parte de un competente equipo dirigido por el agente Jim Phelps, que ha vuelto a reunir a sus hombres para participar en una dificilísima misión: evitar la venta de un disco robado que contiene información secreta de vital importancia.

    TRAILER


    Datos Técnicos
    Video:
    MPEGH HEVC / 2160p / High Profile 5.1 / 38.4 mbps

    Audio:
    Español Latino / AC3 5.1 / 640 kbps / 48kHz / Bluray 4k
    Inglés / TrueHD 5.1 / 4890 kbps / 48kHz / Bluray 4k
    Inglés / AC3 5.1/ 640 kbps / 48kHz / Bluray 4k

    Subs:
    Español Latino / Sup / Bluray 4k
    Inglés / Sup / Bluray 4k


    Código:
    General
    Unique ID                                : 57789738986468246585430169513003205812 (0x2B79E61CF31A638FC03D2C406D0644B4)
    Format                                   : Matroska
    Format version                           : Version 4 / Version 2
    File size                                : 33.2 GiB
    Duration                                 : 1 h 50 min
    Overall bit rate mode                    : Variable
    Overall bit rate                         : 43.1 Mb/s
    Encoded date                             : UTC 2018-07-05 20:44:28
    Writing application                      : mkvmerge v20.0.0 ('I Am The Sun') 64-bit
    Writing library                          : libebml v1.3.5 + libmatroska v1.4.8
    Uploader                                 : Brady
    Web                                      : www.club-hd.com
    
    Video
    ID                                       : 1
    Format                                   : HEVC
    Format/Info                              : High Efficiency Video Coding
    Format profile                           : Main 10@L5.1@High
    Codec ID                                 : V_MPEGH/ISO/HEVC
    Duration                                 : 1 h 50 min
    Bit rate                                 : 38.4 Mb/s
    Width                                    : 3 840 pixels
    Height                                   : 1 600 pixels
    Display aspect ratio                     : 2.40:1
    Frame rate mode                          : Constant
    Frame rate                               : 23.976 (24000/1001) FPS
    Color space                              : YUV
    Chroma subsampling                       : 4:2:0 (Type 2)
    Bit depth                                : 10 bits
    Bits/(Pixel*Frame)                       : 0.261
    Stream size                              : 29.6 GiB (89%)
    Writing library                          : x265 2.8+10-703eade86b53:[Windows][GCC 8.1.0][64 bit] 10bit
    Encoding settings                        : cpuid=1176575 / frame-threads=5 / numa-pools=36 / wpp / no-pmode / no-pme / no-psnr / no-ssim / log-level=2 / input-csp=1 / input-res=3840x1600 / interlace=0 / total-frames=158552 / level-idc=51 / high-tier=1 / uhd-bd=0 / ref=4 / no-allow-non-conformance / repeat-headers / annexb / aud / hrd / info / hash=0 / no-temporal-layers / no-open-gop / min-keyint=24 / keyint=240 / gop-lookahead=0 / bframes=4 / b-adapt=2 / b-pyramid / bframe-bias=0 / rc-lookahead=25 / lookahead-slices=4 / scenecut=40 / radl=0 / no-intra-refresh / ctu=64 / min-cu-size=8 / rect / no-amp / max-tu-size=32 / tu-inter-depth=1 / tu-intra-depth=1 / limit-tu=0 / rdoq-level=2 / dynamic-rd=0.00 / no-ssim-rd / signhide / no-tskip / nr-intra=0 / nr-inter=0 / no-constrained-intra / no-strong-intra-smoothing / max-merge=3 / limit-refs=3 / limit-modes / me=3 / subme=3 / merange=57 / temporal-mvp / weightp / no-weightb / no-analyze-src-pics / deblock=-3:-3 / no-sao / no-sao-non-deblock / rd=4 / no-early-skip / rskip / no-fast-intra / no-tskip-fast / no-cu-lossless / no-b-intra / no-splitrd-skip / rdpenalty=0 / psy-rd=2.00 / psy-rdoq=1.00 / no-rd-refine / no-lossless / cbqpoffs=0 / crqpoffs=0 / rc=crf / crf=19.0 / qcomp=0.60 / qpstep=4 / stats-write=0 / stats-read=0 / vbv-maxrate=160000 / vbv-bufsize=160000 / vbv-init=0.9 / crf-max=0.0 / crf-min=0.0 / ipratio=1.40 / pbratio=1.30 / aq-mode=1 / aq-strength=1.00 / cutree / zone-count=0 / no-strict-cbr / qg-size=32 / no-rc-grain / qpmax=69 / qpmin=0 / no-const-vbv / sar=1 / overscan=0 / videoformat=5 / range=0 / colorprim=9 / transfer=16 / colormatrix=9 / chromaloc=1 / chromaloc-top=2 / chromaloc-bottom=2 / display-window=0 / master-display=G(13250,34500)B(7500,3000)R(34000,16000)WP(15635,16450)L(10000000,1) / max-cll=0,0 / min-luma=0 / max-luma=1023 / log2-max-poc-lsb=8 / vui-timing-info / vui-hrd-info / slices=1 / no-opt-qp-pps / no-opt-ref-list-length-pps / no-multi-pass-opt-rps / scenecut-bias=0.05 / no-opt-cu-delta-qp / no-aq-motion / hdr / hdr-opt / no-dhdr10-opt / no-idr-recovery-sei / analysis-reuse-level=5 / scale-factor=0 / refine-intra=0 / refine-inter=0 / refine-mv=0 / no-limit-sao / ctu-info=0 / no-lowpass-dct / refine-mv-type=0 / copy-pic=1 / max-ausize-factor=1.0 / no-dynamic-refine / no-single-sei
    Language                                 : English
    Default                                  : Yes
    Forced                                   : No
    Color range                              : Limited
    Color primaries                          : BT.2020
    Transfer characteristics                 : PQ
    Matrix coefficients                      : BT.2020 non-constant
    Mastering display color primaries        : Display P3
    Mastering display luminance              : min: 0.0001 cd/m2, max: 1000 cd/m2
    
    Audio #1
    ID                                       : 2
    Format                                   : AC-3
    Format/Info                              : Audio Coding 3
    Codec ID                                 : A_AC3
    Duration                                 : 1 h 50 min
    Bit rate mode                            : Constant
    Bit rate                                 : 640 kb/s
    Channel(s)                               : 6 channels
    Channel positions                        : Front: L C R, Side: L R, LFE
    Sampling rate                            : 48.0 kHz
    Frame rate                               : 31.250 FPS (1536 SPF)
    Bit depth                                : 16 bits
    Compression mode                         : Lossy
    Stream size                              : 505 MiB (1%)
    Title                                    : Latino AC3 5.1 640 kbps Bluray 4k
    Language                                 : Latin
    Service kind                             : Complete Main
    Default                                  : Yes
    Forced                                   : No
    
    Audio #2
    ID                                       : 3
    Format                                   : TrueHD
    Codec ID                                 : A_TRUEHD
    Duration                                 : 1 h 50 min
    Bit rate mode                            : Variable
    Bit rate                                 : 3 365 kb/s
    Maximum bit rate                         : 4 890 kb/s
    Channel(s)                               : 6 channels
    Channel positions                        : Front: L C R, Side: L R, LFE
    Sampling rate                            : 48.0 kHz
    Frame rate                               : 1 200.000 FPS (40 SPF)
    Compression mode                         : Lossless
    Stream size                              : 2.59 GiB (8%)
    Title                                    : Ingles TrueHD 5.1 4890 kbps Bluray 4k
    Language                                 : English
    Default                                  : No
    Forced                                   : No
    
    Audio #3
    ID                                       : 4
    Format                                   : AC-3
    Format/Info                              : Audio Coding 3
    Codec ID                                 : A_AC3
    Duration                                 : 1 h 50 min
    Bit rate mode                            : Constant
    Bit rate                                 : 640 kb/s
    Channel(s)                               : 6 channels
    Channel positions                        : Front: L C R, Side: L R, LFE
    Sampling rate                            : 48.0 kHz
    Frame rate                               : 31.250 FPS (1536 SPF)
    Bit depth                                : 16 bits
    Compression mode                         : Lossy
    Stream size                              : 505 MiB (1%)
    Title                                    : Ingles AC3 5.1 640 kbps Bluray 4k
    Language                                 : English
    Service kind                             : Complete Main
    Default                                  : No
    Forced                                   : No
    
    Text #1
    ID                                       : 5
    Format                                   : PGS
    Muxing mode                              : zlib
    Codec ID                                 : S_HDMV/PGS
    Codec ID/Info                            : Picture based subtitle format used on BDs/HD-DVDs
    Duration                                 : 1 h 45 min
    Bit rate                                 : 22.3 kb/s
    Count of elements                        : 1826
    Stream size                              : 16.8 MiB (0%)
    Title                                    : Latino
    Language                                 : Latin
    Default                                  : No
    Forced                                   : No
    
    Text #2
    ID                                       : 6
    Format                                   : PGS
    Muxing mode                              : zlib
    Codec ID                                 : S_HDMV/PGS
    Codec ID/Info                            : Picture based subtitle format used on BDs/HD-DVDs
    Duration                                 : 1 h 45 min
    Bit rate                                 : 24.5 kb/s
    Count of elements                        : 1904
    Stream size                              : 18.5 MiB (0%)
    Title                                    : Ingles
    Language                                 : English
    Default                                  : No
    Forced                                   : No











    DESCARGA

    Links Intercambiables





    Compra tu Membresía VIP y apoya a Club-HD!

    Click Aquí para más información.

    ATENCIÓN! Finalmente tenemos TODO el material de Club-HD disponible por Mega, enlaces 100% activos y online hoy







    Compra tu Membresía VIP y apoya a Club-HD!

    Click Aquí para más información.

    ATENCIÓN! Finalmente tenemos TODO el material de Club-HD disponible por Mega, enlaces 100% activos y online hoy







    1. Primero, deben estár registrados, sino no habrá manera de que puedan ver los Enlaces.

    2. Una vez registrados, sólo deben dejar un simple comentario de Siete (7) letras/carácteres mínimo, o también un simple "Me gusta".

    Con eso ya podrán ver los links sin ningún problema.

    Nota: Usamos este sistema para proteger los links de Club-HD, y hasta la fecha funciona muy bien.





    1. Primero, deben estár registrados, sino no habrá manera de que puedan ver los Enlaces.

    2. Una vez registrados, sólo deben dejar un simple comentario de Siete (7) letras/carácteres mínimo, o también un simple "Me gusta".

    Con eso ya podrán ver los links sin ningún problema.

    Nota: Usamos este sistema para proteger los links de Club-HD, y hasta la fecha funciona muy bien.




    Código:
    www.club-hd.com
    Let's Go, Do Your Job.

    Si te gusta mi material en 4K, que mejor que una cuenta de uploaded premium para bajar sin limites y gozar de una pelicula en 4K HDR, no te pierdas esta gran oportunidad, solo ingresa al Banner de abajo y compra tu cuenta Uploaded Premium, no te arrepentiras

  2. Los siguientes 11 Usuarios dieron Me Gusta a Brady por este Post:

    alexisfs (Ayer),beaubinz (12/07/2018),cripp (11/07/2018),flujo (11/07/2018),Frafel (11/07/2018),goma22 (17/07/2018),Leo (12/07/2018),Max (14/07/2018),Pte.A.Carmine (15/07/2018),temocles0918 (11/07/2018),zamwise (19/07/2018)

  3. #2
    Miembro Destacado
    Avatar de Josiba
    Fecha de ingreso
    27 ago, 12
    Edad
    49
    Mensajes
    4,138
    Última Actividad
    hoy @ 22:37
    Nacionalidad
    Costa Rica

    Poder de reputación
    11

    Predeterminado Re: Mission: Impossible (1996) 2160p 4k UHD HDR Dual Latino-Inglés [Subt. Esp] (Acción. Intriga)


  4. #3
    Miembro Destacado
    Avatar de samuelabad
    Fecha de ingreso
    27 ago, 12
    Mensajes
    1,215
    Última Actividad
    hoy @ 12:45
    Nacionalidad
    Dominican Republic

    Poder de reputación
    7

    Predeterminado Re: Mission: Impossible (1996) 2160p 4k UHD HDR Dual Latino-Inglés [Subt. Esp] (Acción. Intriga)

    Gracias

  5. #4
    Miembro Destacado
    Avatar de tsubasa100
    Fecha de ingreso
    04 sep, 12
    Mensajes
    2,404
    Última Actividad
    hoy @ 15:33
    Nacionalidad
    Chile

    Poder de reputación
    8

    Predeterminado Re: Mission: Impossible (1996) 2160p 4k UHD HDR Dual Latino-Inglés [Subt. Esp] (Acción. Intriga)

    gracias

  6. #5
    Miembro Destacado
    Avatar de joelmax18
    Fecha de ingreso
    28 ago, 12
    Edad
    38
    Mensajes
    1,521
    Última Actividad
    hoy @ 15:53
    Nacionalidad
    Dominican Republic

    Poder de reputación
    7

    Predeterminado Re: Mission: Impossible (1996) 2160p 4k UHD HDR Dual Latino-Inglés [Subt. Esp] (Acción. Intriga)

    gracias

  7. #6
    Miembro Destacado
    Avatar de shurato
    Fecha de ingreso
    28 ago, 12
    Edad
    40
    Mensajes
    294
    Última Actividad
    20/07/2018 @ 20:02
    Nacionalidad
    Ecuador

    Poder de reputación
    6

    Predeterminado Re: Mission: Impossible (1996) 2160p 4k UHD HDR Dual Latino-Inglés [Subt. Esp] (Acción. Intriga)

    gracias x el aporte...

  8. #7
    Miembro Destacado
    Avatar de JCAvila
    Fecha de ingreso
    07 sep, 12
    Edad
    38
    Mensajes
    3,765
    Última Actividad
    hoy @ 19:43
    Nacionalidad
    Mexico

    Poder de reputación
    10

    Predeterminado Re: Mission: Impossible (1996) 2160p 4k UHD HDR Dual Latino-Inglés [Subt. Esp] (Acción. Intriga)

    gracias!

  9. #8
    Miembro Destacado
    Avatar de PATRICIOG
    Fecha de ingreso
    29 may, 15
    Mensajes
    1,591
    Última Actividad
    hoy @ 21:47
    Nacionalidad
    Chile
    Sexo
    Hombre

    Poder de reputación
    5

    Predeterminado Re: Mission: Impossible (1996) 2160p 4k UHD HDR Dual Latino-Inglés [Subt. Esp] (Acción. Intriga)


  10. #9
    Miembro Destacado
    Avatar de cripp
    Fecha de ingreso
    27 ago, 12
    Mensajes
    5,564
    Última Actividad
    20/07/2018 @ 13:57
    Nacionalidad
    Costa Rica

    Poder de reputación
    14

    Predeterminado Re: Mission: Impossible (1996) 2160p 4k UHD HDR Dual Latino-Inglés [Subt. Esp] (Acción. Intriga)

    Gracias por compartir

  11. #10
    Gran Miembro
    Avatar de flujo
    Fecha de ingreso
    28 dic, 14
    Mensajes
    4,618
    Última Actividad
    hoy @ 22:49
    Nacionalidad
    Mexico
    Sexo
    Hombre

    Poder de reputación
    9

    Predeterminado Re: Mission: Impossible (1996) 2160p 4k UHD HDR Dual Latino-Inglés [Subt. Esp] (Acción. Intriga)

    gracias

  12. #11
    Miembro Destacado
    Avatar de Tony Stark
    Fecha de ingreso
    28 ago, 12
    Mensajes
    1,555
    Última Actividad
    Ayer @ 23:32
    Nacionalidad
    Mexico
    Sexo
    Hombre

    Poder de reputación
    7

    Predeterminado Re: Mission: Impossible (1996) 2160p 4k UHD HDR Dual Latino-Inglés [Subt. Esp] (Acción. Intriga)


  13. #12
    Miembro Destacado
    Avatar de muruagam
    Fecha de ingreso
    29 ago, 12
    Ubicación
    Buenos Aires
    Edad
    44
    Mensajes
    1,287
    Última Actividad
    hoy @ 19:23
    Nacionalidad
    Argentina
    Sexo
    Hombre

    Poder de reputación
    7

    Predeterminado Re: Mission: Impossible (1996) 2160p 4k UHD HDR Dual Latino-Inglés [Subt. Esp] (Acción. Intriga)


  14. #13
    Miembro Destacado
    Avatar de ismar360
    Fecha de ingreso
    28 ago, 12
    Edad
    40
    Mensajes
    2,191
    Última Actividad
    hoy @ 13:01
    Nacionalidad
    El Salvador

    Poder de reputación
    8

    Predeterminado Re: Mission: Impossible (1996) 2160p 4k UHD HDR Dual Latino-Inglés [Subt. Esp] (Acción. Intriga)


  15. #14
    Gran Miembro
    Avatar de Alan Maiden
    Fecha de ingreso
    01 ago, 15
    Mensajes
    560
    Última Actividad
    hoy @ 22:53
    Nacionalidad
    Argentina
    Sexo
    Hombre

    Poder de reputación
    4

    Predeterminado Re: Mission: Impossible (1996) 2160p 4k UHD HDR Dual Latino-Inglés [Subt. Esp] (Acción. Intriga)

    Gracias!!

  16. #15
    Miembro Destacado
    Avatar de kill_b911
    Fecha de ingreso
    30 ago, 12
    Ubicación
    Hurlingham
    Edad
    50
    Mensajes
    930
    Última Actividad
    hoy @ 15:02
    Nacionalidad
    Argentina
    Sexo
    Hombre

    Poder de reputación
    6

    Predeterminado Re: Mission: Impossible (1996) 2160p 4k UHD HDR Dual Latino-Inglés [Subt. Esp] (Acción. Intriga)


  17. #16
    Miembro Junior Avatar de claudio f
    Fecha de ingreso
    25 may, 18
    Mensajes
    47
    Última Actividad
    hoy @ 13:33
    Nacionalidad
    Chile
    Sexo
    Hombre

    Poder de reputación
    1

    Predeterminado Re: Mission: Impossible (1996) 2160p 4k UHD HDR Dual Latino-Inglés [Subt. Esp] (Acción. Intriga)

    muchas gracias

  18. #17
    Gran Miembro
    Avatar de fewac
    Fecha de ingreso
    26 abr, 13
    Mensajes
    1,339
    Última Actividad
    hoy @ 14:08
    Nacionalidad
    Mexico
    Sexo
    Hombre

    Poder de reputación
    7

    Predeterminado Re: Mission: Impossible (1996) 2160p 4k UHD HDR Dual Latino-Inglés [Subt. Esp] (Acción. Intriga)

    Gracias!!!

  19. #18
    Gran Miembro
    Avatar de Dj-Cabeza
    Fecha de ingreso
    28 ago, 12
    Edad
    29
    Mensajes
    225
    Última Actividad
    Ayer @ 12:25
    Nacionalidad
    Argentina

    Poder de reputación
    6

    Predeterminado Re: Mission: Impossible (1996) 2160p 4k UHD HDR Dual Latino-Inglés [Subt. Esp] (Acción. Intriga)

    Gracias!!!

  20. #19
    Gran Miembro
    Avatar de sosalexfame
    Fecha de ingreso
    10 jul, 15
    Ubicación
    Mexico
    Edad
    37
    Mensajes
    1,182
    Última Actividad
    hoy @ 18:22
    Nacionalidad
    Mexico
    Sexo
    Hombre

    Poder de reputación
    5

    Predeterminado Re: Mission: Impossible (1996) 2160p 4k UHD HDR Dual Latino-Inglés [Subt. Esp] (Acción. Intriga)

    gracias

  21. #20
    Miembro VIP en Club-HD!
    Avatar de Dragonaluro
    Fecha de ingreso
    30 ago, 12
    Mensajes
    723
    Última Actividad
    hoy @ 22:48
    Nacionalidad
    Mexico

    Poder de reputación
    6

    Predeterminado Re: Mission: Impossible (1996) 2160p 4k UHD HDR Dual Latino-Inglés [Subt. Esp] (Acción. Intriga)

    Descargando Saludos...

  22. #21
    Miembro Destacado
    Avatar de juniorgarabo
    Fecha de ingreso
    16 sep, 12
    Edad
    35
    Mensajes
    3,117
    Última Actividad
    hoy @ 16:50
    Nacionalidad
    Dominican Republic
    Sexo
    Hombre

    Poder de reputación
    24

    Predeterminado Re: Mission: Impossible (1996) 2160p 4k UHD HDR Dual Latino-Inglés [Subt. Esp] (Acción. Intriga)


  23. #22
    Miembro Destacado
    Avatar de gibrannr1
    Fecha de ingreso
    25 ene, 16
    Mensajes
    285
    Última Actividad
    hoy @ 21:33
    Nacionalidad
    Mexico
    Sexo
    Hombre

    Poder de reputación
    3

    Predeterminado Re: Mission: Impossible (1996) 2160p 4k UHD HDR Dual Latino-Inglés [Subt. Esp] (Acción. Intriga)


  24. #23
    Gran Miembro
    Avatar de xikoh99
    Fecha de ingreso
    16 sep, 12
    Ubicación
    Santiago
    Edad
    28
    Mensajes
    1,312
    Última Actividad
    Ayer @ 17:57
    Nacionalidad
    Chile
    Sexo
    Hombre

    Poder de reputación
    7

    Predeterminado Re: Mission: Impossible (1996) 2160p 4k UHD HDR Dual Latino-Inglés [Subt. Esp] (Acción. Intriga)


Información de tema

Usuarios viendo este tema

Actualmente hay 1 usuarios viendo este tema. (0 miembros y 1 visitantes)

Temas similares

  1. Respuestas: 40
    Último mensaje: 19/07/2018, 17:33
  2. Respuestas: 235
    Último mensaje: 16/07/2018, 13:29
  3. Respuestas: 256
    Último mensaje: 25/02/2018, 22:44
  4. Respuestas: 248
    Último mensaje: 15/05/2017, 11:31
  5. Respuestas: 253
    Último mensaje: 06/09/2016, 02:26

Miembros que han leído este tema: 75

Marcadores

Permisos de publicación

  • No puedes crear nuevos temas
  • No puedes responder temas
  • No puedes subir archivos adjuntos
  • No puedes editar tus mensajes
  •