Banner Uploaded Maria

Resultados 1 al 17 de 17

Tema: A Wrinkle In Time (2018) 2160p 4k UHD HDR Dual Latino-Inglés [Subt. Esp] (Fantástico. Ciencia Ficción)

  1. #1
    HD Brady

    Avatar de Brady
    Fecha de ingreso
    01 jun, 16
    Edad
    22
    Mensajes
    1,536
    Última Actividad
    hoy @ 01:28
    Nacionalidad
    Mexico
    Sexo
    Hombre

    Poder de reputación
    70

    Predeterminado A Wrinkle In Time (2018) 2160p 4k UHD HDR Dual Latino-Inglés [Subt. Esp] (Fantástico. Ciencia Ficción)






    Título Original: A Wrinkle In Time
    Año: 2018
    Duración: 109 min.
    País: United States
    Director: Ava DuVernay
    Guion: Jennifer Lee (Novela: Madeleine L'Engle)
    Reparto: Oprah Winfrey, Reese Witherspoon, Mindy Kaling, Storm Reid, Zach Galifianakis, Chris Pine, Gugu Mbatha-Raw, André Holland, Levi Miller, Bellamy Young, Rowan Blanchard, Will McCormack, Michael Peña, Daniel MacPherson
    Productora: Walt Disney Pictures / Whitaker Entertainment
    Género: Fantástico. Ciencia ficción. Aventuras | Aventura espacial. Cine familiar


    SINOPSIS
    Tras la desaparición de su padre, un científico, tres seres peculiares envían a la joven Meg, a su hermano Charles y a su amigo Calvin al espacio, para intentar encontrarlo. Adaptación de la novela de Madeleine L'Engle.

    TRAILER


    Datos Técnicos
    Video:
    MPEGH HEVC / 2160p / High Profile 5.1 / 10.3 mbps

    Audio:
    Español Latino / AC3 5.1/ 640 kbps / 48kHz / Bluray 4k
    Español Latino / E-AC3/Core 7.1/5.1 / 1024/576 kbps / 48kHz / Bluray 4k
    Inglés / TrueHD/Atmos 7.1 / 7501/11.0 kbps/mbps / 48kHz / Bluray 4k
    Inglés / AC3 5.1/ 640 kbps / 48kHz / Bluray 4k

    Subs:
    Español Latino / Sup / Bluray 4k
    Español Latino Forzados / Sup / Bluray 4k
    Inglés / Sup / Bluray 4k


    Código:
    General
    Unique ID                                : 44309363207630180515221129888499813762 (0x2155AC45EA721EB1A2A2EE0519ECCD82)
    Format                                   : Matroska
    Format version                           : Version 4 / Version 2
    File size                                : 15.4 GiB
    Duration                                 : 1 h 49 min
    Overall bit rate mode                    : Variable
    Overall bit rate                         : 20.2 Mb/s
    Encoded date                             : UTC 2018-07-04 08:16:09
    Writing application                      : mkvmerge v20.0.0 ('I Am The Sun') 64-bit
    Writing library                          : libebml v1.3.5 + libmatroska v1.4.8
    Uploader                                 : Brady
    Web                                      : www.club-hd.com
    
    Video
    ID                                       : 1
    Format                                   : HEVC
    Format/Info                              : High Efficiency Video Coding
    Format profile                           : Main 10@L5.1@High
    Codec ID                                 : V_MPEGH/ISO/HEVC
    Duration                                 : 1 h 49 min
    Bit rate                                 : 10.3 Mb/s
    Width                                    : 3 840 pixels
    Height                                   : 1 608 pixels
    Display aspect ratio                     : 2.40:1
    Frame rate mode                          : Constant
    Frame rate                               : 23.976 (24000/1001) FPS
    Color space                              : YUV
    Chroma subsampling                       : 4:2:0 (Type 2)
    Bit depth                                : 10 bits
    Bits/(Pixel*Frame)                       : 0.069
    Stream size                              : 7.87 GiB (51%)
    Writing library                          : x265 2.8+10-703eade86b53:[Windows][GCC 8.1.0][64 bit] 10bit
    Encoding settings                        : cpuid=1176575 / frame-threads=5 / numa-pools=36 / wpp / no-pmode / no-pme / no-psnr / no-ssim / log-level=2 / input-csp=1 / input-res=3840x1608 / interlace=0 / total-frames=157682 / level-idc=51 / high-tier=1 / uhd-bd=0 / ref=4 / no-allow-non-conformance / repeat-headers / annexb / aud / hrd / info / hash=0 / no-temporal-layers / no-open-gop / min-keyint=24 / keyint=240 / gop-lookahead=0 / bframes=4 / b-adapt=2 / b-pyramid / bframe-bias=0 / rc-lookahead=25 / lookahead-slices=4 / scenecut=40 / radl=0 / no-intra-refresh / ctu=64 / min-cu-size=8 / rect / no-amp / max-tu-size=32 / tu-inter-depth=1 / tu-intra-depth=1 / limit-tu=0 / rdoq-level=2 / dynamic-rd=0.00 / no-ssim-rd / signhide / no-tskip / nr-intra=0 / nr-inter=0 / no-constrained-intra / no-strong-intra-smoothing / max-merge=3 / limit-refs=3 / limit-modes / me=3 / subme=3 / merange=57 / temporal-mvp / weightp / no-weightb / no-analyze-src-pics / deblock=-3:-3 / no-sao / no-sao-non-deblock / rd=4 / no-early-skip / rskip / no-fast-intra / no-tskip-fast / no-cu-lossless / no-b-intra / no-splitrd-skip / rdpenalty=0 / psy-rd=2.00 / psy-rdoq=1.00 / no-rd-refine / no-lossless / cbqpoffs=0 / crqpoffs=0 / rc=crf / crf=17.0 / qcomp=0.60 / qpstep=4 / stats-write=0 / stats-read=0 / vbv-maxrate=160000 / vbv-bufsize=160000 / vbv-init=0.9 / crf-max=0.0 / crf-min=0.0 / ipratio=1.40 / pbratio=1.30 / aq-mode=1 / aq-strength=1.00 / cutree / zone-count=0 / no-strict-cbr / qg-size=32 / no-rc-grain / qpmax=69 / qpmin=0 / no-const-vbv / sar=1 / overscan=0 / videoformat=5 / range=0 / colorprim=9 / transfer=16 / colormatrix=9 / chromaloc=1 / chromaloc-top=2 / chromaloc-bottom=2 / display-window=0 / master-display=G(13250,34500)B(7500,3000)R(34000,16000)WP(15635,16450)L(10000000,1) / max-cll=0,0 / min-luma=0 / max-luma=1023 / log2-max-poc-lsb=8 / vui-timing-info / vui-hrd-info / slices=1 / no-opt-qp-pps / no-opt-ref-list-length-pps / no-multi-pass-opt-rps / scenecut-bias=0.05 / no-opt-cu-delta-qp / no-aq-motion / hdr / hdr-opt / no-dhdr10-opt / no-idr-recovery-sei / analysis-reuse-level=5 / scale-factor=0 / refine-intra=0 / refine-inter=0 / refine-mv=0 / no-limit-sao / ctu-info=0 / no-lowpass-dct / refine-mv-type=0 / copy-pic=1 / max-ausize-factor=1.0 / no-dynamic-refine / no-single-sei
    Language                                 : English
    Default                                  : Yes
    Forced                                   : No
    Color range                              : Limited
    Color primaries                          : BT.2020
    Transfer characteristics                 : PQ
    Matrix coefficients                      : BT.2020 non-constant
    Mastering display color primaries        : Display P3
    Mastering display luminance              : min: 0.0001 cd/m2, max: 1000 cd/m2
    
    Audio #1
    ID                                       : 2
    Format                                   : AC-3
    Format/Info                              : Audio Coding 3
    Codec ID                                 : A_AC3
    Duration                                 : 1 h 49 min
    Bit rate mode                            : Constant
    Bit rate                                 : 640 kb/s
    Channel(s)                               : 6 channels
    Channel positions                        : Front: L C R, Side: L R, LFE
    Sampling rate                            : 48.0 kHz
    Frame rate                               : 31.250 FPS (1536 SPF)
    Bit depth                                : 16 bits
    Compression mode                         : Lossy
    Stream size                              : 502 MiB (3%)
    Title                                    : Latino AC3 5.1 640 kbps Bluray 4k
    Language                                 : Latin
    Service kind                             : Complete Main
    Default                                  : Yes
    Forced                                   : No
    
    Audio #2
    ID                                       : 3
    Format                                   : E-AC-3
    Format/Info                              : Enhanced Audio Coding 3
    Codec ID                                 : A_EAC3
    Duration                                 : 1 h 49 min
    Bit rate mode                            : Constant
    Bit rate                                 : 500 b/s
    Channel(s)                               : 6 channels
    Channel positions                        : Front: L C R, Side: L R, LFE
    Sampling rate                            : 48.0 kHz
    Frame rate                               : 187.500 FPS (256 SPF)
    Compression mode                         : Lossy
    Stream size                              : 803 MiB (5%)
    Title                                    : Latino E-AC3 7.1 1024/576 kbps Bluray 4k
    Language                                 : Latin
    Service kind                             : Complete Main
    Default                                  : No
    Forced                                   : No
    
    Audio #3
    ID                                       : 4
    Format                                   : TrueHD
    Format profile                           : TrueHD+Atmos / TrueHD
    Codec ID                                 : A_TRUEHD
    Duration                                 : 1 h 49 min
    Bit rate mode                            : Variable
    Bit rate                                 : 7 501 kb/s
    Maximum bit rate                         : 11.7 Mb/s
    Channel(s)                               : Object Based / 8 channels
    Channel positions                        : Object Based / Front: L C R, Side: L R, Back: L R, LFE
    Sampling rate                            :  / 48.0 kHz
    Frame rate                               : 1 200.000 FPS (40 SPF)
    Compression mode                         : Lossless
    Stream size                              : 5.74 GiB (37%)
    Title                                    : Ingles TrueHD/Atmos 7.1 11.0 mbps Bluray 4k
    Language                                 : English
    Default                                  : No
    Forced                                   : No
    
    Audio #4
    ID                                       : 5
    Format                                   : AC-3
    Format/Info                              : Audio Coding 3
    Codec ID                                 : A_AC3
    Duration                                 : 1 h 49 min
    Bit rate mode                            : Constant
    Bit rate                                 : 640 kb/s
    Channel(s)                               : 6 channels
    Channel positions                        : Front: L C R, Side: L R, LFE
    Sampling rate                            : 48.0 kHz
    Frame rate                               : 31.250 FPS (1536 SPF)
    Bit depth                                : 16 bits
    Compression mode                         : Lossy
    Stream size                              : 502 MiB (3%)
    Title                                    : Ingles AC3 5.1 640 kbps Bluray 4k
    Language                                 : English
    Service kind                             : Complete Main
    Default                                  : No
    Forced                                   : No
    
    Text #1
    ID                                       : 6
    Format                                   : PGS
    Muxing mode                              : zlib
    Codec ID                                 : S_HDMV/PGS
    Codec ID/Info                            : Picture based subtitle format used on BDs/HD-DVDs
    Duration                                 : 1 h 40 min
    Bit rate                                 : 28.5 kb/s
    Count of elements                        : 2600
    Stream size                              : 20.5 MiB (0%)
    Title                                    : Latino
    Language                                 : Latin
    Default                                  : No
    Forced                                   : No
    
    Text #2
    ID                                       : 7
    Format                                   : PGS
    Muxing mode                              : zlib
    Codec ID                                 : S_HDMV/PGS
    Codec ID/Info                            : Picture based subtitle format used on BDs/HD-DVDs
    Duration                                 : 1 h 35 min
    Bit rate                                 : 66 b/s
    Count of elements                        : 4
    Stream size                              : 47.1 KiB (0%)
    Title                                    : Forzados
    Language                                 : Latin
    Default                                  : Yes
    Forced                                   : No
    
    Text #3
    ID                                       : 8
    Format                                   : PGS
    Muxing mode                              : zlib
    Codec ID                                 : S_HDMV/PGS
    Codec ID/Info                            : Picture based subtitle format used on BDs/HD-DVDs
    Duration                                 : 1 h 46 min
    Bit rate                                 : 35.2 kb/s
    Count of elements                        : 3206
    Stream size                              : 26.9 MiB (0%)
    Title                                    : Ingles
    Language                                 : English
    Default                                  : No
    Forced                                   : No











    DESCARGA

    Links Intercambiables





    Compra tu Membresía VIP y apoya a Club-HD!

    Click Aquí para más información.

    ATENCIÓN! Finalmente tenemos TODO el material de Club-HD disponible por Mega, enlaces 100% activos y online hoy







    Compra tu Membresía VIP y apoya a Club-HD!

    Click Aquí para más información.

    ATENCIÓN! Finalmente tenemos TODO el material de Club-HD disponible por Mega, enlaces 100% activos y online hoy







    1. Primero, deben estár registrados, sino no habrá manera de que puedan ver los Enlaces.

    2. Una vez registrados, sólo deben dejar un simple comentario de Siete (7) letras/carácteres mínimo, o también un simple "Me gusta".

    Con eso ya podrán ver los links sin ningún problema.

    Nota: Usamos este sistema para proteger los links de Club-HD, y hasta la fecha funciona muy bien.





    1. Primero, deben estár registrados, sino no habrá manera de que puedan ver los Enlaces.

    2. Una vez registrados, sólo deben dejar un simple comentario de Siete (7) letras/carácteres mínimo, o también un simple "Me gusta".

    Con eso ya podrán ver los links sin ningún problema.

    Nota: Usamos este sistema para proteger los links de Club-HD, y hasta la fecha funciona muy bien.




    Código:
    www.club-hd.com
    Let's Go, Do Your Job.

    Si te gusta mi material en 4K, que mejor que una cuenta de uploaded premium para bajar sin limites y gozar de una pelicula en 4K HDR, no te pierdas esta gran oportunidad, solo ingresa al Banner de abajo y compra tu cuenta Uploaded Premium, no te arrepentiras

  2. Los siguientes 14 Usuarios dieron Me Gusta a Brady por este Post:

    beaubinz (12/07/2018),cripp (09/07/2018),DANIELPODEROSO (08/07/2018),Fatigatti (05/07/2018),flujo (05/07/2018),frmr (05/07/2018),garmenta (06/07/2018),jm8421 (06/07/2018),Leo (06/07/2018),Max (05/07/2018),mechero (06/07/2018),pancho castro (10/07/2018),Pte.A.Carmine (Ayer),RickAnto (05/07/2018)

  3. #2
    Miembro Destacado
    Avatar de Josiba
    Fecha de ingreso
    27 ago, 12
    Edad
    49
    Mensajes
    4,121
    Última Actividad
    Ayer @ 18:55
    Nacionalidad
    Costa Rica

    Poder de reputación
    11

    Predeterminado Re: A Wrinkle In Time (2018) 2160p 4k UHD HDR Dual Latino-Inglés [Subt. Esp] (Fantástico. Ciencia Ficción)


  4. #3
    Gran Miembro
    Avatar de fewac
    Fecha de ingreso
    26 abr, 13
    Mensajes
    1,325
    Última Actividad
    13/07/2018 @ 04:37
    Nacionalidad
    Mexico
    Sexo
    Hombre

    Poder de reputación
    7

    Predeterminado Re: A Wrinkle In Time (2018) 2160p 4k UHD HDR Dual Latino-Inglés [Subt. Esp] (Fantástico. Ciencia Ficción)

    Gracias!!!

  5. #4
    Gran Miembro
    Avatar de flujo
    Fecha de ingreso
    28 dic, 14
    Mensajes
    4,601
    Última Actividad
    Ayer @ 13:05
    Nacionalidad
    Mexico
    Sexo
    Hombre

    Poder de reputación
    9

    Predeterminado Re: A Wrinkle In Time (2018) 2160p 4k UHD HDR Dual Latino-Inglés [Subt. Esp] (Fantástico. Ciencia Ficción)

    gracias

  6. #5
    Gran Miembro
    Avatar de coyote81
    Fecha de ingreso
    30 may, 16
    Edad
    36
    Mensajes
    207
    Última Actividad
    14/07/2018 @ 16:56
    Nacionalidad
    Argentina
    Sexo
    Hombre

    Poder de reputación
    3

    Predeterminado Re: A Wrinkle In Time (2018) 2160p 4k UHD HDR Dual Latino-Inglés [Subt. Esp] (Fantástico. Ciencia Ficción)

    muchas graciassss

  7. #6
    Miembro Destacado
    Avatar de JCAvila
    Fecha de ingreso
    07 sep, 12
    Edad
    38
    Mensajes
    3,748
    Última Actividad
    Ayer @ 21:09
    Nacionalidad
    Mexico

    Poder de reputación
    10

    Predeterminado Re: A Wrinkle In Time (2018) 2160p 4k UHD HDR Dual Latino-Inglés [Subt. Esp] (Fantástico. Ciencia Ficción)

    gracias!

  8. #7
    Miembro Destacado
    Avatar de patoch
    Fecha de ingreso
    27 ago, 12
    Mensajes
    1,849
    Última Actividad
    05/07/2018 @ 19:34
    Nacionalidad
    Chile

    Poder de reputación
    7

    Predeterminado Re: A Wrinkle In Time (2018) 2160p 4k UHD HDR Dual Latino-Inglés [Subt. Esp] (Fantástico. Ciencia Ficción)


  9. #8
    Miembro
    Avatar de mario e
    Fecha de ingreso
    16 nov, 17
    Mensajes
    54
    Última Actividad
    Ayer @ 18:57
    Nacionalidad
    Mexico
    Sexo
    Hombre

    Poder de reputación
    1

    Predeterminado Re: A Wrinkle In Time (2018) 2160p 4k UHD HDR Dual Latino-Inglés [Subt. Esp] (Fantástico. Ciencia Ficción)


  10. #9
    Miembro Destacado
    Avatar de potencia01
    Fecha de ingreso
    22 sep, 12
    Edad
    34
    Mensajes
    866
    Última Actividad
    14/07/2018 @ 19:08
    Nacionalidad
    Dominican Republic

    Poder de reputación
    6

    Predeterminado Re: A Wrinkle In Time (2018) 2160p 4k UHD HDR Dual Latino-Inglés [Subt. Esp] (Fantástico. Ciencia Ficción)

    interesante

  11. #10
    Gran Miembro
    Avatar de caldoso2000
    Fecha de ingreso
    27 oct, 12
    Mensajes
    1,047
    Última Actividad
    14/07/2018 @ 20:13
    Nacionalidad
    Mexico
    Sexo
    Hombre

    Poder de reputación
    7

    Predeterminado Re: A Wrinkle In Time (2018) 2160p 4k UHD HDR Dual Latino-Inglés [Subt. Esp] (Fantástico. Ciencia Ficción)

    gracias

  12. #11
    Miembro Destacado
    Avatar de PATRICIOG
    Fecha de ingreso
    29 may, 15
    Mensajes
    1,579
    Última Actividad
    Ayer @ 14:58
    Nacionalidad
    Chile
    Sexo
    Hombre

    Poder de reputación
    5

    Predeterminado Re: A Wrinkle In Time (2018) 2160p 4k UHD HDR Dual Latino-Inglés [Subt. Esp] (Fantástico. Ciencia Ficción)

    Muchas Gracias.

  13. #12
    Gran Miembro
    Avatar de epm87
    Fecha de ingreso
    10 oct, 15
    Mensajes
    134
    Última Actividad
    07/07/2018 @ 14:22
    Nacionalidad
    Peru
    Sexo
    Hombre

    Poder de reputación
    3

    Predeterminado Re: A Wrinkle In Time (2018) 2160p 4k UHD HDR Dual Latino-Inglés [Subt. Esp] (Fantástico. Ciencia Ficción)

    Gracias!!

  14. #13
    Miembro Destacado
    Avatar de juniorgarabo
    Fecha de ingreso
    16 sep, 12
    Edad
    35
    Mensajes
    3,109
    Última Actividad
    Ayer @ 19:15
    Nacionalidad
    Dominican Republic
    Sexo
    Hombre

    Poder de reputación
    24

    Predeterminado Re: A Wrinkle In Time (2018) 2160p 4k UHD HDR Dual Latino-Inglés [Subt. Esp] (Fantástico. Ciencia Ficción)


  15. #14
    Miembro Destacado
    Avatar de cripp
    Fecha de ingreso
    27 ago, 12
    Mensajes
    5,549
    Última Actividad
    13/07/2018 @ 11:51
    Nacionalidad
    Costa Rica

    Poder de reputación
    14

    Predeterminado Re: A Wrinkle In Time (2018) 2160p 4k UHD HDR Dual Latino-Inglés [Subt. Esp] (Fantástico. Ciencia Ficción)

    Gracias por compartir

  16. #15
    Gran Miembro
    Avatar de enriquearqui
    Fecha de ingreso
    28 ago, 12
    Mensajes
    347
    Última Actividad
    Ayer @ 22:48
    Nacionalidad
    Argentina

    Poder de reputación
    6

    Predeterminado Re: A Wrinkle In Time (2018) 2160p 4k UHD HDR Dual Latino-Inglés [Subt. Esp] (Fantástico. Ciencia Ficción)

    descargando

  17. #16
    Gran Miembro
    Avatar de videma
    Fecha de ingreso
    04 ene, 16
    Mensajes
    295
    Última Actividad
    12/07/2018 @ 01:40
    Nacionalidad
    Germany
    Sexo
    Hombre

    Poder de reputación
    3

    Predeterminado Re: A Wrinkle In Time (2018) 2160p 4k UHD HDR Dual Latino-Inglés [Subt. Esp] (Fantástico. Ciencia Ficción)

    gracias

  18. #17
    Gran Miembro
    Avatar de pancho castro
    Fecha de ingreso
    06 jun, 15
    Edad
    43
    Mensajes
    222
    Última Actividad
    14/07/2018 @ 02:02
    Nacionalidad
    Mexico
    Sexo
    Hombre

    Poder de reputación
    4

    Predeterminado Re: A Wrinkle In Time (2018) 2160p 4k UHD HDR Dual Latino-Inglés [Subt. Esp] (Fantástico. Ciencia Ficción)

    gracias

Información de tema

Usuarios viendo este tema

Actualmente hay 1 usuarios viendo este tema. (0 miembros y 1 visitantes)

Temas similares

  1. Respuestas: 157
    Último mensaje: Ayer, 22:21
  2. Respuestas: 61
    Último mensaje: 11/07/2018, 22:49
  3. Respuestas: 91
    Último mensaje: 09/07/2018, 01:41
  4. Respuestas: 100
    Último mensaje: 26/06/2018, 22:12
  5. Respuestas: 0
    Último mensaje: 26/06/2018, 08:31

Miembros que han leído este tema: 65

Marcadores

Permisos de publicación

  • No puedes crear nuevos temas
  • No puedes responder temas
  • No puedes subir archivos adjuntos
  • No puedes editar tus mensajes
  •