Banner Uploaded Bluraysymas

Resultados 1 al 1 de 1

Tema: The Kissing Booth (2018) Solo Audio Latino (E-AC3 5.1 / AC3 5.1 & 2.0) (SRT) (Extraído De Netflix)

  1. #1
    Need, Search, Find, Share

    Avatar de CinefiloCool
    Fecha de ingreso
    06 abr, 17
    Ubicación
    zion, Rivendel, Hill Valley, pandora, Coruscant o donde viva una aventura
    Edad
    25
    Mensajes
    412
    Última Actividad
    @
    Nacionalidad
    Mexico
    Sexo
    Hombre

    Poder de reputación
    21

    Predeterminado The Kissing Booth (2018) Solo Audio Latino (E-AC3 5.1 / AC3 5.1 & 2.0) (SRT) (Extraído De Netflix)





    FICHA

    Título original: The Kissing Booth
    Titulo Alternativo: El Stand de los Besos | Mi primer beso
    Año: 2018
    Duración: 105 min.
    País: Reino Unido
    Dirección: Vince Marcello
    Guion: Vince Marcello (Novela: Beth Reekles)
    Música: Patrick Kirst
    Reparto: Joey King, Molly Ringwald, Joel Courtney, Nathan Lynn, Frances Sholto-Douglas, Meganne Young, Jacob Elordi, Byron Langley, Robbie Tucker, D. David Morin, Jessica Sutton, Morné Visser, Michelle Allen, Carson White, Joshua Daniel Eady, Judd Krok, Dan Elijah Rudin, Chase Dallas, Celina Caroto, Ben Lillie
    Productora: Komixx Entertainment. Distribuida por Netflix
    Género: Romance. Comedia | Comedia romántica. Comedia juvenil. Adolescencia

    SINOPSIS
    Elle nunca imaginó que el primer beso daría para tanto. Pero, a pesar de que ha conseguido salir con el chico más guapo del instituto, está a punto de perder a su mejor amigo de toda la vida.



    Media Info

    E-AC3 5.1
    Complete name : (Solo.Audio)The.Kissing.Booth.2018.NF.Web-DL.e-AC3.6CH.192kbps-LAT.ac3
    Format : E-AC-3
    Format/Info : Enhanced Audio Coding 3
    File size : 144 MiB
    Duration : 1 h 45 min
    Overall bit rate mode : Constant
    Overall bit rate : 192 kb/s
    FileExtension_Invalid : dd+ ec3 eac3

    Audio
    Format : E-AC-3
    Format/Info : Enhanced Audio Coding 3
    Duration : 1 h 45 min
    Bit rate mode : Constant
    Bit rate : 192 kb/s
    Channel(s) : 6 channels
    Channel positions : Front: L C R, Side: L R, LFE
    Sampling rate : 48.0 kHz
    Frame rate : 187.500 FPS (256 SPF)
    Compression mode : Lossy
    Stream size : 144 MiB (100%)
    Service kind : Complete Main

    AC3 5.1
    Complete name : (Solo.Audio)The.Kissing.Booth.2018.NF.Web-DL.AC3.6CH.384kbps-LAT.ac3
    Format : AC-3
    Format/Info : Audio Coding 3
    File size : 289 MiB
    Duration : 1 h 45 min
    Overall bit rate mode : Constant
    Overall bit rate : 384 kb/s

    Audio
    Format : AC-3
    Format/Info : Audio Coding 3
    Duration : 1 h 45 min
    Bit rate mode : Constant
    Bit rate : 384 kb/s
    Channel(s) : 6 channels
    Channel positions : Front: L C R, Side: L R, LFE
    Sampling rate : 48.0 kHz
    Frame rate : 31.250 FPS (1536 SPF)
    Bit depth : 16 bits
    Compression mode : Lossy
    Stream size : 289 MiB (100%)
    Service kind : Complete Main

    AC3 2.0
    Complete name : (Solo.Audio)The.Kissing.Booth.2018.NF.Web-DL.AC3.2CH.256kbps-LAT.ac3
    Format : AC-3
    Format/Info : Audio Coding 3
    File size : 192 MiB
    Duration : 1 h 45 min
    Overall bit rate mode : Constant
    Overall bit rate : 256 kb/s

    Audio
    Format : AC-3
    Format/Info : Audio Coding 3
    Duration : 1 h 45 min
    Bit rate mode : Constant
    Bit rate : 256 kb/s
    Channel(s) : 2 channels
    Channel positions : Front: L R
    Sampling rate : 48.0 kHz
    Frame rate : 31.250 FPS (1536 SPF)
    Bit depth : 16 bits
    Compression mode : Lossy
    Stream size : 192 MiB (100%)
    Service kind : Complete Main



    Audio Extraido de Netflix por mi Con Sus Distintas Versiones Original E-AC3 5.1; AC3 5.1 y AC3 2.0; para Libre Gusto de descarga. Incluye Subtitulos Completos y Forzados

    Delay Reference:
    Seguro Cualquier Release Web-DL


    Frame Rate: 23.976

    No Es necesario Comentar para ver los Links, Unicamente deja un "Me Gusta"


    AUDIOS + SRT


    1. Primero, deben estár registrados, sino no habrá manera de que puedan ver los Enlaces.

    2. Una vez registrados, sólo deben dejar un simple comentario de Siete (7) letras/carácteres mínimo, o también un simple "Me gusta".

    Con eso ya podrán ver los links sin ningún problema.

    Nota: Usamos este sistema para proteger los links de Club-HD, y hasta la fecha funciona muy bien.



  2. Los siguientes 20 Usuarios dieron Me Gusta a CinefiloCool por este Post:

    arlez7777 (04/07/2018),colos76 (27/07/2018),cristiangonzalo (20/08/2018),davidmende (03/07/2018),foxzzer (15/08/2018),Javier (03/07/2018),Joker-One (03/11/2018),lng222 (21/08/2018),migmomi (03/07/2018),monator (09/07/2018),osmuni (12/08/2018),pumista09 (09/07/2018),Rafael Alejandro Perez (28/07/2018),Sacania (03/07/2018),salazar (08/09/2018),skateblue4 (09/09/2018),skyline (03/07/2018),SoupierNebula89 (30/07/2018),STEARNS (03/07/2018),twink7 (03/07/2018)

Información de tema

Usuarios viendo este tema

Actualmente hay 1 usuarios viendo este tema. (0 miembros y 1 visitantes)

Temas similares

  1. Respuestas: 42
    Último mensaje: 20/10/2018, 17:01
  2. Respuestas: 70
    Último mensaje: 04/08/2018, 17:24
  3. Respuestas: 33
    Último mensaje: 29/07/2018, 14:56
  4. Respuestas: 30
    Último mensaje: 23/06/2018, 00:44
  5. Respuestas: 58
    Último mensaje: 23/05/2018, 01:55

Miembros que han leído este tema: 42

Etiquetas para este tema

Marcadores

Permisos de publicación

  • No puedes crear nuevos temas
  • No puedes responder temas
  • No puedes subir archivos adjuntos
  • No puedes editar tus mensajes
  •