Banner Uploaded B.B

Resultados 1 al 25 de 154

Tema: A Quiet Place (2018) 1080p BDRip Dual Latino-Inglés [Subt. Esp] (Terror. Intriga)

Ver modo hilado

Mensaje anterior Mensaje anterior   Próximo mensaje Próximo mensaje
  1. #1
    HD Brady

    Avatar de Brady
    Fecha de ingreso
    01 jun, 16
    Edad
    22
    Mensajes
    1,720
    Última Actividad
    @
    Nacionalidad
    Mexico
    Sexo
    Hombre

    Poder de reputación
    150

    Predeterminado A Quiet Place (2018) 1080p BDRip Dual Latino-Inglés [Subt. Esp] (Terror. Intriga)






    Título Original: A Quiet Place
    Año: 2018
    Duración: 95 min.
    País: United States
    Director: John Krasinski
    Guion: Scott Beck, Bryan Woods, John Krasinski (Historia: Bryan Woods, Scott Beck)
    Reparto: Emily Blunt, John Krasinski, Millicent Simmonds, Noah Jupe, Cade Woodward, Leon Russom, Doris McCarthy
    Productora: Platinum Dunes / Sunday Night. Distribuida por Paramount Pictures
    Género: Terror. Intriga. Thriller. Fantástico | Thriller psicológico. Supervivencia. Futuro postapocalíptico. Monstruos. Familia


    SINOPSIS
    Sigue la historia de una familia que vive en una casa en el bosque cuidándose de no emitir ningún sonido. Si no te escuchan, no pueden cazarte...

    TRAILER


    Datos Técnicos
    Video:
    MPEG-4 AVC / 1080p / High Profile 4.1 / 14.0 mbps
    Audio:
    Español Latino / AC3 5.1/ 640 kbps / 48kHz / Bluray
    Inglés / TrueHD/Atmos 7.1 / 3890/8064 kbps / 48kHz / Bluray
    Inglés / AC3 5.1/ 640 kbps / 48kHz / Bluray

    Subs:
    Español Latino / SubRip / Bluray
    Español Latino Forzados / SubRip / Bluray
    Español Latino / Sup / Bluray
    Inglés / Sup / Bluray


    Un agradecimiento especial para LatinomegaHD por el audio latino del Bluray


    Código:
    General
    Unique ID                                : 60432920453582551221589642105732687772 (0x2D76F50558BACF4ECC944CD13A83679C)
    Format                                   : Matroska
    Format version                           : Version 4 / Version 2
    File size                                : 12.1 GiB
    Duration                                 : 1 h 30 min
    Overall bit rate mode                    : Variable
    Overall bit rate                         : 19.2 Mb/s
    Encoded date                             : UTC 2018-06-29 22:31:53
    Writing application                      : mkvmerge v20.0.0 ('I Am The Sun') 64-bit
    Writing library                          : libebml v1.3.5 + libmatroska v1.4.8
    Uploader                                 : Brady
    Web                                      : www.club-hd.com
    
    Video
    ID                                       : 1
    Format                                   : AVC
    Format/Info                              : Advanced Video Codec
    Format profile                           : High@L4.1
    Format settings                          : CABAC / 5 Ref Frames
    Format settings, CABAC                   : Yes
    Format settings, RefFrames               : 5 frames
    Codec ID                                 : V_MPEG4/ISO/AVC
    Duration                                 : 1 h 30 min
    Bit rate                                 : 14.0 Mb/s
    Width                                    : 1 920 pixels
    Height                                   : 800 pixels
    Display aspect ratio                     : 2.40:1
    Frame rate mode                          : Constant
    Frame rate                               : 23.976 (24000/1001) FPS
    Color space                              : YUV
    Chroma subsampling                       : 4:2:0
    Bit depth                                : 8 bits
    Scan type                                : Progressive
    Bits/(Pixel*Frame)                       : 0.380
    Stream size                              : 8.83 GiB (73%)
    Writing library                          : x264 core 148 r2665kMod a01e339
    Encoding settings                        : cabac=1 / ref=5 / deblock=1:-3:-3 / analyse=0x3:0x133 / me=umh / subme=11 / psy=1 / fade_compensate=0.00 / psy_rd=1.05:0.00 / mixed_ref=1 / me_range=48 / chroma_me=1 / trellis=2 / 8x8dct=1 / cqm=0 / deadzone=21,11 / fast_pskip=0 / chroma_qp_offset=-2 / threads=24 / lookahead_threads=4 / sliced_threads=0 / nr=0 / decimate=0 / interlaced=0 / bluray_compat=0 / constrained_intra=0 / fgo=0 / bframes=8 / b_pyramid=2 / b_adapt=2 / b_bias=0 / direct=3 / weightb=1 / open_gop=0 / weightp=2 / keyint=240 / keyint_min=24 / scenecut=40 / intra_refresh=0 / rc=2pass / mbtree=0 / bitrate=14000 / ratetol=1.0 / qcomp=0.70 / qpmin=0 / qpmax=69 / qpstep=4 / cplxblur=20.0 / qblur=0.5 / ip_ratio=1.20 / pb_ratio=1.20 / aq=3:0.80
    Language                                 : English
    Default                                  : Yes
    Forced                                   : No
    
    Audio #1
    ID                                       : 2
    Format                                   : AC-3
    Format/Info                              : Audio Coding 3
    Codec ID                                 : A_AC3
    Duration                                 : 1 h 30 min
    Bit rate mode                            : Constant
    Bit rate                                 : 640 kb/s
    Channel(s)                               : 6 channels
    Channel positions                        : Front: L C R, Side: L R, LFE
    Sampling rate                            : 48.0 kHz
    Frame rate                               : 31.250 FPS (1536 SPF)
    Bit depth                                : 16 bits
    Compression mode                         : Lossy
    Stream size                              : 413 MiB (3%)
    Title                                    : Latino AC3 5.1 640 kbps Bluray
    Language                                 : Latin
    Service kind                             : Complete Main
    Default                                  : Yes
    Forced                                   : No
    
    Audio #2
    ID                                       : 3
    Format                                   : TrueHD
    Format profile                           : TrueHD+Atmos / TrueHD
    Codec ID                                 : A_TRUEHD
    Duration                                 : 1 h 30 min
    Bit rate mode                            : Variable
    Bit rate                                 : 3 890 kb/s
    Maximum bit rate                         : 8 064 kb/s
    Channel(s)                               : Object Based / 8 channels
    Channel positions                        : Object Based / Front: L C R, Side: L R, Back: L R, LFE
    Sampling rate                            :  / 48.0 kHz
    Frame rate                               : 1 200.000 FPS (40 SPF)
    Compression mode                         : Lossless
    Stream size                              : 2.45 GiB (20%)
    Title                                    : Ingles TrueHD/Atmos 7.1 8064 kbps Bluray
    Language                                 : English
    Default                                  : No
    Forced                                   : No
    
    Audio #3
    ID                                       : 4
    Format                                   : AC-3
    Format/Info                              : Audio Coding 3
    Codec ID                                 : A_AC3
    Duration                                 : 1 h 30 min
    Bit rate mode                            : Constant
    Bit rate                                 : 640 kb/s
    Channel(s)                               : 6 channels
    Channel positions                        : Front: L C R, Side: L R, LFE
    Sampling rate                            : 48.0 kHz
    Frame rate                               : 31.250 FPS (1536 SPF)
    Bit depth                                : 16 bits
    Compression mode                         : Lossy
    Stream size                              : 413 MiB (3%)
    Title                                    : Ingles AC3 5.1 640 kbps Bluray
    Language                                 : English
    Service kind                             : Complete Main
    Default                                  : No
    Forced                                   : No
    
    Text #1
    ID                                       : 5
    Format                                   : UTF-8
    Codec ID                                 : S_TEXT/UTF8
    Codec ID/Info                            : UTF-8 Plain Text
    Duration                                 : 1 h 19 min
    Bit rate                                 : 5 b/s
    Count of elements                        : 156
    Stream size                              : 3.28 KiB (0%)
    Title                                    : Latino
    Language                                 : Latin
    Default                                  : No
    Forced                                   : No
    
    Text #2
    ID                                       : 6
    Format                                   : UTF-8
    Codec ID                                 : S_TEXT/UTF8
    Codec ID/Info                            : UTF-8 Plain Text
    Duration                                 : 1 h 19 min
    Bit rate                                 : 3 b/s
    Count of elements                        : 103
    Stream size                              : 2.15 KiB (0%)
    Title                                    : Forzados
    Language                                 : Latin
    Default                                  : Yes
    Forced                                   : No
    
    Text #3
    ID                                       : 7
    Format                                   : PGS
    Muxing mode                              : zlib
    Codec ID                                 : S_HDMV/PGS
    Codec ID/Info                            : Picture based subtitle format used on BDs/HD-DVDs
    Duration                                 : 1 h 19 min
    Bit rate                                 : 2 345 b/s
    Count of elements                        : 340
    Stream size                              : 1.34 MiB (0%)
    Title                                    : Latino
    Language                                 : Latin
    Default                                  : No
    Forced                                   : No
    
    Text #4
    ID                                       : 8
    Format                                   : PGS
    Muxing mode                              : zlib
    Codec ID                                 : S_HDMV/PGS
    Codec ID/Info                            : Picture based subtitle format used on BDs/HD-DVDs
    Duration                                 : 1 h 11 min
    Bit rate                                 : 2 139 b/s
    Count of elements                        : 302
    Stream size                              : 1.10 MiB (0%)
    Title                                    : Ingles
    Language                                 : English
    Default                                  : No
    Forced                                   : No









    DESCARGA

    Links Intercambiables





    Compra tu Membresía VIP y apoya a Club-HD!

    Click Aquí para más información.

    ATENCIÓN! Finalmente tenemos TODO el material de Club-HD disponible por Mega, enlaces 100% activos y online hoy







    Compra tu Membresía VIP y apoya a Club-HD!

    Click Aquí para más información.

    ATENCIÓN! Finalmente tenemos TODO el material de Club-HD disponible por Mega, enlaces 100% activos y online hoy







    1. Primero, deben estár registrados, sino no habrá manera de que puedan ver los Enlaces.

    2. Una vez registrados, sólo deben dejar un simple comentario de Siete (7) letras/carácteres mínimo, o también un simple "Me gusta".

    Con eso ya podrán ver los links sin ningún problema.

    Nota: Usamos este sistema para proteger los links de Club-HD, y hasta la fecha funciona muy bien.





    1. Primero, deben estár registrados, sino no habrá manera de que puedan ver los Enlaces.

    2. Una vez registrados, sólo deben dejar un simple comentario de Siete (7) letras/carácteres mínimo, o también un simple "Me gusta".

    Con eso ya podrán ver los links sin ningún problema.

    Nota: Usamos este sistema para proteger los links de Club-HD, y hasta la fecha funciona muy bien.




    Código:
    www.club-hd.com
    Última edición por Brady; 01/07/2018 a las 12:00
    Let's Go, Do Your Job.

    Si te gusta mi material en 4K, que mejor que una cuenta de uploaded premium para bajar sin limites y gozar de una pelicula en 4K HDR, no te pierdas esta gran oportunidad, solo ingresa al Banner de abajo y compra tu cuenta Uploaded Premium, no te arrepentiras

  2. Los siguientes 36 Usuarios dieron Me Gusta a Brady por este Post:

    armyfan (01/07/2018),b3rserk (06/07/2018),bastione (02/07/2018),beaubinz (12/07/2018),cargohe (03/07/2018),CinefiloCool (06/07/2018),cripp (02/07/2018),dagomez08 (02/07/2018),dannypirate (06/07/2018),darkzaul (01/07/2018),ERRE (08/07/2018),fire9194 (03/07/2018),flujo (01/07/2018),garmenta (02/07/2018),itofeddy (03/07/2018),jearredondop (03/07/2018),Jesus4K (02/07/2018),jorgonz05 (30/07/2018),JUANADOLFO007 (01/07/2018),KAKAROTO1979 (03/08/2018),kempes54 (01/07/2018),LatinomegaHD (04/07/2018),Leo (02/07/2018),Leo-Peru (05/07/2018),Max (03/07/2018),palalo (01/07/2018),pampino (31/08/2018),parellanocl (01/07/2018),Pte.A.Carmine (01/07/2018),r1verpl4te (02/07/2018),rcovacon (10/07/2018),Remr.Boy (01/07/2018),sbarraza (07/07/2018),thelostguy (01/07/2018),tino (01/07/2018),zorro5140 (01/07/2018)

Información de tema

Usuarios viendo este tema

Actualmente hay 1 usuarios viendo este tema. (0 miembros y 1 visitantes)

Temas similares

  1. A Quiet Place (2018) Solo Audio Latino + PGS [AC3 5.1] [Extraido Del BluRay]
    Por LatinomegaHD en el foro Solo Audios Latinos.
    Respuestas: 317
    Último mensaje: hoy, 00:34
  2. Respuestas: 93
    Último mensaje: 06/11/2018, 18:01
  3. Respuestas: 43
    Último mensaje: 25/07/2018, 14:45
  4. Respuestas: 0
    Último mensaje: 26/06/2018, 04:50
  5. Respuestas: 225
    Último mensaje: 22/05/2018, 06:13

Miembros que han leído este tema: 307

Marcadores

Permisos de publicación

  • No puedes crear nuevos temas
  • No puedes responder temas
  • No puedes subir archivos adjuntos
  • No puedes editar tus mensajes
  •