Banner Uploaded Sider

Página 1 de 2 12 ÚltimoÚltimo
Resultados 1 al 25 de 32

Tema: Tomb Raider (2018) 2160p 4k UHD HDR Dual Latino-Inglés [Subt. Esp] (Aventuras. Acción)

  1. #1
    HD Brady

    Avatar de Brady
    Fecha de ingreso
    01 jun, 16
    Edad
    22
    Mensajes
    1,536
    Última Actividad
    hoy @ 01:43
    Nacionalidad
    Mexico
    Sexo
    Hombre

    Poder de reputación
    70

    Predeterminado Tomb Raider (2018) 2160p 4k UHD HDR Dual Latino-Inglés [Subt. Esp] (Aventuras. Acción)






    Título Original: Tomb Raider
    Año: 2018
    Duración: 122 min.
    País: United States
    Director: Roar Uthaug
    Guion: Geneva Robertson-Dworet, Alastair Siddons (Personaje: Toby Gard)
    Reparto: Alicia Vikander, Daniel Wu, Dominic West, Walton Goggins, Kristin Scott Thomas, Alexandre Willaume, Adrian Collins, Hannah John-Kamen, Nick Frost
    Productora: Coproducción Estados Unidos-Reino Unido; GK Films / MGM / Square Enix / Warner Bros.
    Género: Aventuras. Acción | Supervivencia. Videojuego. 3-D


    SINOPSIS
    Lara Croft, la independiente hija de un excéntrico aventurero que desapareció cuando ella era apenas una adolescente, se ha convertido en una joven de 21 años sin ningún propósito en la vida. Se abre paso por las caóticas calles del East London, el barrio de moda, como mensajera en bicicleta, un trabajo que apenas le da para pagar el alquiler. Decidida a forjar su propio camino, se niega a tomar las riendas del imperio empresarial de su padre, con la misma firmeza que se niega a reconocer que él se ha ido para siempre. Un día Lara decide dejar atrás todo e ir en busca del último paradero conocido de su padre: una legendaria tumba en una isla mítica que podría estar en algún lugar de la costa de Japón... Nueva película basada en la saga de videojuegos "Tomb Raider".

    TRAILER


    Datos Técnicos
    Video:
    MPEGH HEVC / 2160p / High Profile 5.1 / 14.1 mbps

    Audio:
    Español Latino / AC3 5.1/ 448 kbps / 48kHz / Bluray 4k
    Inglés / TrueHD/Atmos 7.1 / 3214/5520 kbps / 48kHz / Bluray 4k
    Inglés / AC3 5.1/ 640 kbps / 48kHz / Bluray 4k

    Subs:
    Español Latino / Sup / Bluray 4k
    Español Latino Forzados / Sup / Bluray 4k
    Inglés / Sup / Bluray 4k


    Código:
    General
    Unique ID                                : 34664133345453484740971382530563786124 (0x1A1411B9C0E80BC61194040263D6458C)
    Format                                   : Matroska
    Format version                           : Version 4 / Version 2
    File size                                : 15.2 GiB
    Duration                                 : 1 h 57 min
    Overall bit rate mode                    : Variable
    Overall bit rate                         : 18.5 Mb/s
    Encoded date                             : UTC 2018-06-26 14:34:51
    Writing application                      : mkvmerge v20.0.0 ('I Am The Sun') 64-bit
    Writing library                          : libebml v1.3.5 + libmatroska v1.4.8
    Uploader                                 : Brady
    Web                                      : www.club-hd.com
    
    Video
    ID                                       : 1
    Format                                   : HEVC
    Format/Info                              : High Efficiency Video Coding
    Format profile                           : Main 10@L5.1@High
    Codec ID                                 : V_MPEGH/ISO/HEVC
    Duration                                 : 1 h 57 min
    Bit rate                                 : 14.1 Mb/s
    Width                                    : 3 840 pixels
    Height                                   : 1 608 pixels
    Display aspect ratio                     : 2.40:1
    Frame rate mode                          : Constant
    Frame rate                               : 23.976 (24000/1001) FPS
    Color space                              : YUV
    Chroma subsampling                       : 4:2:0 (Type 2)
    Bit depth                                : 10 bits
    Bits/(Pixel*Frame)                       : 0.095
    Stream size                              : 11.6 GiB (76%)
    Writing library                          : x265 2.8+16-03dcb3457b7e:[Windows][GCC 6.3.0][64 bit] 10bit
    Encoding settings                        : cpuid=1111039 / frame-threads=5 / numa-pools=36 / wpp / no-pmode / no-pme / no-psnr / no-ssim / log-level=2 / input-csp=1 / input-res=3840x1608 / interlace=0 / total-frames=169496 / level-idc=51 / high-tier=1 / uhd-bd=0 / ref=4 / no-allow-non-conformance / repeat-headers / annexb / aud / hrd / info / hash=0 / no-temporal-layers / no-open-gop / min-keyint=1 / keyint=24 / gop-lookahead=0 / bframes=4 / b-adapt=2 / b-pyramid / bframe-bias=0 / rc-lookahead=25 / lookahead-slices=4 / scenecut=40 / radl=0 / no-intra-refresh / ctu=64 / min-cu-size=8 / rect / no-amp / max-tu-size=32 / tu-inter-depth=1 / tu-intra-depth=1 / limit-tu=0 / rdoq-level=2 / dynamic-rd=0.00 / no-ssim-rd / signhide / no-tskip / nr-intra=0 / nr-inter=0 / no-constrained-intra / no-strong-intra-smoothing / max-merge=3 / limit-refs=3 / limit-modes / me=3 / subme=3 / merange=57 / temporal-mvp / weightp / no-weightb / no-analyze-src-pics / deblock=-3:-3 / no-sao / no-sao-non-deblock / rd=4 / no-early-skip / rskip / no-fast-intra / no-tskip-fast / no-cu-lossless / no-b-intra / no-splitrd-skip / rdpenalty=0 / psy-rd=2.00 / psy-rdoq=1.00 / no-rd-refine / no-lossless / cbqpoffs=0 / crqpoffs=0 / rc=crf / crf=17.0 / qcomp=0.60 / qpstep=4 / stats-write=0 / stats-read=0 / vbv-maxrate=160000 / vbv-bufsize=160000 / vbv-init=0.9 / crf-max=0.0 / crf-min=0.0 / ipratio=1.40 / pbratio=1.30 / aq-mode=1 / aq-strength=1.00 / cutree / zone-count=0 / no-strict-cbr / qg-size=32 / no-rc-grain / qpmax=69 / qpmin=0 / no-const-vbv / sar=1 / overscan=0 / videoformat=5 / range=0 / colorprim=9 / transfer=16 / colormatrix=9 / chromaloc=1 / chromaloc-top=2 / chromaloc-bottom=2 / display-window=0 / master-display=G(8500,39850)B(6550,2300)R(35400,14600)WP(15635,16450)L(40000000,50) / max-cll=2971,112 / min-luma=0 / max-luma=1023 / log2-max-poc-lsb=8 / vui-timing-info / vui-hrd-info / slices=1 / no-opt-qp-pps / no-opt-ref-list-length-pps / no-multi-pass-opt-rps / scenecut-bias=0.05 / no-opt-cu-delta-qp / no-aq-motion / hdr / hdr-opt / no-dhdr10-opt / no-idr-recovery-sei / analysis-reuse-level=5 / scale-factor=0 / refine-intra=0 / refine-inter=0 / refine-mv=0 / no-limit-sao / ctu-info=0 / no-lowpass-dct / refine-mv-type=0 / copy-pic=1 / max-ausize-factor=1.0 / no-dynamic-refine / no-single-sei
    Language                                 : English
    Default                                  : Yes
    Forced                                   : No
    Color range                              : Limited
    Color primaries                          : BT.2020
    Transfer characteristics                 : PQ
    Matrix coefficients                      : BT.2020 non-constant
    Mastering display color primaries        : BT.2020
    Mastering display luminance              : min: 0.0050 cd/m2, max: 4000 cd/m2
    Maximum Content Light Level              : 2971 cd/m2
    Maximum Frame-Average Light Level        : 112 cd/m2
    
    Audio #1
    ID                                       : 2
    Format                                   : AC-3
    Format/Info                              : Audio Coding 3
    Codec ID                                 : A_AC3
    Duration                                 : 1 h 57 min
    Bit rate mode                            : Constant
    Bit rate                                 : 448 kb/s
    Channel(s)                               : 6 channels
    Channel positions                        : Front: L C R, Side: L R, LFE
    Sampling rate                            : 48.0 kHz
    Frame rate                               : 31.250 FPS (1536 SPF)
    Bit depth                                : 16 bits
    Compression mode                         : Lossy
    Stream size                              : 378 MiB (2%)
    Title                                    : Latino AC3 5.1 448 kbps Bluray 4k
    Language                                 : Latin
    Service kind                             : Complete Main
    Default                                  : Yes
    Forced                                   : No
    
    Audio #2
    ID                                       : 3
    Format                                   : TrueHD
    Format profile                           : TrueHD+Atmos / TrueHD
    Codec ID                                 : A_TRUEHD
    Duration                                 : 1 h 57 min
    Bit rate mode                            : Variable
    Bit rate                                 : 3 214 kb/s
    Maximum bit rate                         : 5 520 kb/s
    Channel(s)                               : Object Based / 8 channels
    Channel positions                        : Object Based / Front: L C R, Side: L R, Back: L R, LFE
    Sampling rate                            :  / 48.0 kHz
    Frame rate                               : 1 200.000 FPS (40 SPF)
    Compression mode                         : Lossless
    Stream size                              : 2.64 GiB (17%)
    Title                                    : Ingles TrueHD/Atmos 7.1 3214/5520 kbps Bluray 4k
    Language                                 : English
    Default                                  : No
    Forced                                   : No
    
    Audio #3
    ID                                       : 4
    Format                                   : AC-3
    Format/Info                              : Audio Coding 3
    Codec ID                                 : A_AC3
    Duration                                 : 1 h 57 min
    Bit rate mode                            : Constant
    Bit rate                                 : 640 kb/s
    Channel(s)                               : 6 channels
    Channel positions                        : Front: L C R, Side: L R, LFE
    Sampling rate                            : 48.0 kHz
    Frame rate                               : 31.250 FPS (1536 SPF)
    Bit depth                                : 16 bits
    Compression mode                         : Lossy
    Stream size                              : 539 MiB (3%)
    Title                                    : Ingles AC3 5.1 640 kbps Bluray 4k
    Language                                 : English
    Service kind                             : Complete Main
    Default                                  : No
    Forced                                   : No
    
    Text #1
    ID                                       : 5
    Format                                   : PGS
    Muxing mode                              : zlib
    Codec ID                                 : S_HDMV/PGS
    Codec ID/Info                            : Picture based subtitle format used on BDs/HD-DVDs
    Duration                                 : 1 h 56 min
    Bit rate                                 : 16.3 kb/s
    Count of elements                        : 1700
    Stream size                              : 13.6 MiB (0%)
    Title                                    : Latino
    Language                                 : Latin
    Default                                  : No
    Forced                                   : No
    
    Text #2
    ID                                       : 6
    Format                                   : PGS
    Muxing mode                              : zlib
    Codec ID                                 : S_HDMV/PGS
    Codec ID/Info                            : Picture based subtitle format used on BDs/HD-DVDs
    Duration                                 : 1 h 41 min
    Bit rate                                 : 281 b/s
    Count of elements                        : 26
    Stream size                              : 210 KiB (0%)
    Title                                    : Forzados
    Language                                 : Latin
    Default                                  : Yes
    Forced                                   : No
    
    Text #3
    ID                                       : 7
    Format                                   : PGS
    Muxing mode                              : zlib
    Codec ID                                 : S_HDMV/PGS
    Codec ID/Info                            : Picture based subtitle format used on BDs/HD-DVDs
    Duration                                 : 1 h 56 min
    Bit rate                                 : 20.6 kb/s
    Count of elements                        : 2244
    Stream size                              : 17.2 MiB (0%)
    Title                                    : Ingles
    Language                                 : English
    Default                                  : No
    Forced                                   : No











    DESCARGA

    Links Intercambiables





    Compra tu Membresía VIP y apoya a Club-HD!

    Click Aquí para más información.

    ATENCIÓN! Finalmente tenemos TODO el material de Club-HD disponible por Mega, enlaces 100% activos y online hoy







    Compra tu Membresía VIP y apoya a Club-HD!

    Click Aquí para más información.

    ATENCIÓN! Finalmente tenemos TODO el material de Club-HD disponible por Mega, enlaces 100% activos y online hoy







    1. Primero, deben estár registrados, sino no habrá manera de que puedan ver los Enlaces.

    2. Una vez registrados, sólo deben dejar un simple comentario de Siete (7) letras/carácteres mínimo, o también un simple "Me gusta".

    Con eso ya podrán ver los links sin ningún problema.

    Nota: Usamos este sistema para proteger los links de Club-HD, y hasta la fecha funciona muy bien.





    1. Primero, deben estár registrados, sino no habrá manera de que puedan ver los Enlaces.

    2. Una vez registrados, sólo deben dejar un simple comentario de Siete (7) letras/carácteres mínimo, o también un simple "Me gusta".

    Con eso ya podrán ver los links sin ningún problema.

    Nota: Usamos este sistema para proteger los links de Club-HD, y hasta la fecha funciona muy bien.




    Código:
    www.club-hd.com
    Let's Go, Do Your Job.

    Si te gusta mi material en 4K, que mejor que una cuenta de uploaded premium para bajar sin limites y gozar de una pelicula en 4K HDR, no te pierdas esta gran oportunidad, solo ingresa al Banner de abajo y compra tu cuenta Uploaded Premium, no te arrepentiras

  2. Los siguientes 14 Usuarios dieron Me Gusta a Brady por este Post:

    alainol (01/07/2018),beaubinz (12/07/2018),cripp (02/07/2018),fire9194 (03/07/2018),Flaco (02/07/2018),flujo (01/07/2018),Frafel (02/07/2018),Leo (02/07/2018),Max (03/07/2018),mechero (05/07/2018),mkarter (01/07/2018),oscarteach (01/07/2018),Pte.A.Carmine (01/07/2018),RickAnto (05/07/2018)

  3. #2
    Miembro Destacado
    Avatar de xl5
    Fecha de ingreso
    01 sep, 12
    Edad
    58
    Mensajes
    919
    Última Actividad
    13/07/2018 @ 13:23
    Nacionalidad
    Argentina

    Poder de reputación
    6

    Predeterminado Re: Tomb Raider (2018) 2160p 4k UHD HDR Dual Latino-Inglés [Subt. Esp] (Aventuras. Acción)


  4. #3
    Miembro Destacado
    Avatar de JCAvila
    Fecha de ingreso
    07 sep, 12
    Edad
    38
    Mensajes
    3,748
    Última Actividad
    Ayer @ 21:09
    Nacionalidad
    Mexico

    Poder de reputación
    10

    Predeterminado Re: Tomb Raider (2018) 2160p 4k UHD HDR Dual Latino-Inglés [Subt. Esp] (Aventuras. Acción)

    gracias!

  5. #4
    Miembro Destacado
    Avatar de neto6911
    Fecha de ingreso
    27 ago, 12
    Mensajes
    681
    Última Actividad
    Ayer @ 17:57
    Nacionalidad
    United States

    Poder de reputación
    6

    Predeterminado Re: Tomb Raider (2018) 2160p 4k UHD HDR Dual Latino-Inglés [Subt. Esp] (Aventuras. Acción)

    Gracias, Descsrgando

  6. #5
    Miembro Destacado
    Avatar de kill_b911
    Fecha de ingreso
    30 ago, 12
    Ubicación
    Hurlingham
    Edad
    50
    Mensajes
    928
    Última Actividad
    Ayer @ 16:17
    Nacionalidad
    Argentina
    Sexo
    Hombre

    Poder de reputación
    6

    Predeterminado Re: Tomb Raider (2018) 2160p 4k UHD HDR Dual Latino-Inglés [Subt. Esp] (Aventuras. Acción)


  7. #6
    Miembro Destacado
    Avatar de ismar360
    Fecha de ingreso
    28 ago, 12
    Edad
    40
    Mensajes
    2,183
    Última Actividad
    Ayer @ 03:59
    Nacionalidad
    El Salvador

    Poder de reputación
    8

    Predeterminado Re: Tomb Raider (2018) 2160p 4k UHD HDR Dual Latino-Inglés [Subt. Esp] (Aventuras. Acción)


  8. #7
    Miembro Destacado
    Avatar de tsubasa100
    Fecha de ingreso
    04 sep, 12
    Mensajes
    2,394
    Última Actividad
    Ayer @ 22:25
    Nacionalidad
    Chile

    Poder de reputación
    8

    Predeterminado Re: Tomb Raider (2018) 2160p 4k UHD HDR Dual Latino-Inglés [Subt. Esp] (Aventuras. Acción)

    Gracias

  9. #8
    Miembro Destacado
    Avatar de Josiba
    Fecha de ingreso
    27 ago, 12
    Edad
    49
    Mensajes
    4,121
    Última Actividad
    Ayer @ 18:55
    Nacionalidad
    Costa Rica

    Poder de reputación
    11

    Predeterminado Re: Tomb Raider (2018) 2160p 4k UHD HDR Dual Latino-Inglés [Subt. Esp] (Aventuras. Acción)


  10. #9
    Miembro Destacado
    Avatar de PATRICIOG
    Fecha de ingreso
    29 may, 15
    Mensajes
    1,579
    Última Actividad
    Ayer @ 14:58
    Nacionalidad
    Chile
    Sexo
    Hombre

    Poder de reputación
    5

    Predeterminado Re: Tomb Raider (2018) 2160p 4k UHD HDR Dual Latino-Inglés [Subt. Esp] (Aventuras. Acción)


  11. #10
    Miembro
    Avatar de mario e
    Fecha de ingreso
    16 nov, 17
    Mensajes
    54
    Última Actividad
    Ayer @ 18:57
    Nacionalidad
    Mexico
    Sexo
    Hombre

    Poder de reputación
    1

    Predeterminado Re: Tomb Raider (2018) 2160p 4k UHD HDR Dual Latino-Inglés [Subt. Esp] (Aventuras. Acción)


  12. #11
    Gran Miembro
    Avatar de flujo
    Fecha de ingreso
    28 dic, 14
    Mensajes
    4,601
    Última Actividad
    Ayer @ 13:05
    Nacionalidad
    Mexico
    Sexo
    Hombre

    Poder de reputación
    9

    Predeterminado Re: Tomb Raider (2018) 2160p 4k UHD HDR Dual Latino-Inglés [Subt. Esp] (Aventuras. Acción)

    gracias

  13. #12
    Miembro VIP en Club-HD!
    Avatar de cpola
    Fecha de ingreso
    25 feb, 14
    Edad
    50
    Mensajes
    2,056
    Última Actividad
    Ayer @ 22:43
    Nacionalidad
    United States
    Sexo
    Hombre

    Poder de reputación
    7

    Predeterminado Re: Tomb Raider (2018) 2160p 4k UHD HDR Dual Latino-Inglés [Subt. Esp] (Aventuras. Acción)

    Gracias

  14. #13
    Miembro Destacado
    Avatar de joelmax18
    Fecha de ingreso
    28 ago, 12
    Edad
    38
    Mensajes
    1,510
    Última Actividad
    Ayer @ 22:14
    Nacionalidad
    Dominican Republic

    Poder de reputación
    7

    Predeterminado Re: Tomb Raider (2018) 2160p 4k UHD HDR Dual Latino-Inglés [Subt. Esp] (Aventuras. Acción)

    gracias

  15. #14
    Miembro Destacado
    Avatar de juniorgarabo
    Fecha de ingreso
    16 sep, 12
    Edad
    35
    Mensajes
    3,109
    Última Actividad
    Ayer @ 19:15
    Nacionalidad
    Dominican Republic
    Sexo
    Hombre

    Poder de reputación
    24

    Predeterminado Re: Tomb Raider (2018) 2160p 4k UHD HDR Dual Latino-Inglés [Subt. Esp] (Aventuras. Acción)


  16. #15
    Miembro Destacado
    Avatar de samuelabad
    Fecha de ingreso
    27 ago, 12
    Mensajes
    1,206
    Última Actividad
    12/07/2018 @ 18:08
    Nacionalidad
    Dominican Republic

    Poder de reputación
    7

    Predeterminado Re: Tomb Raider (2018) 2160p 4k UHD HDR Dual Latino-Inglés [Subt. Esp] (Aventuras. Acción)

    Gracias

  17. #16
    Miembro VIP en Club-HD!
    Avatar de SAAEDVI
    Fecha de ingreso
    09 nov, 14
    Mensajes
    748
    Última Actividad
    hoy @ 01:13
    Nacionalidad
    Chile
    Sexo
    Hombre

    Poder de reputación
    4

    Predeterminado Re: Tomb Raider (2018) 2160p 4k UHD HDR Dual Latino-Inglés [Subt. Esp] (Aventuras. Acción)

    me gusta

  18. #17
    Gran Miembro
    Avatar de leuco88
    Fecha de ingreso
    22 ago, 15
    Mensajes
    851
    Última Actividad
    13/07/2018 @ 03:18
    Nacionalidad
    Mexico
    Sexo
    Hombre

    Poder de reputación
    3

    Predeterminado Re: Tomb Raider (2018) 2160p 4k UHD HDR Dual Latino-Inglés [Subt. Esp] (Aventuras. Acción)

    gracias

  19. #18
    Miembro Destacado
    Avatar de cripp
    Fecha de ingreso
    27 ago, 12
    Mensajes
    5,549
    Última Actividad
    13/07/2018 @ 11:51
    Nacionalidad
    Costa Rica

    Poder de reputación
    14

    Predeterminado Re: Tomb Raider (2018) 2160p 4k UHD HDR Dual Latino-Inglés [Subt. Esp] (Aventuras. Acción)

    Gracias por compartir

  20. #19
    Miembro Destacado
    Avatar de mdieter
    Fecha de ingreso
    03 jun, 15
    Mensajes
    609
    Última Actividad
    14/07/2018 @ 15:46
    Nacionalidad
    Chile
    Sexo
    Hombre

    Poder de reputación
    4

    Predeterminado Re: Tomb Raider (2018) 2160p 4k UHD HDR Dual Latino-Inglés [Subt. Esp] (Aventuras. Acción)


  21. #20
    Miembro Junior Avatar de EmanuelA87
    Fecha de ingreso
    16 jul, 15
    Mensajes
    27
    Última Actividad
    Ayer @ 18:12
    Nacionalidad
    Argentina
    Sexo
    Hombre

    Poder de reputación
    4

    Predeterminado Re: Tomb Raider (2018) 2160p 4k UHD HDR Dual Latino-Inglés [Subt. Esp] (Aventuras. Acción)

    Gracias!!!

  22. #21
    Gran Miembro
    Avatar de josefo08
    Fecha de ingreso
    14 abr, 14
    Edad
    46
    Mensajes
    1,115
    Última Actividad
    12/07/2018 @ 11:00
    Nacionalidad
    Colombia
    Sexo
    Hombre

    Poder de reputación
    6

    Predeterminado Re: Tomb Raider (2018) 2160p 4k UHD HDR Dual Latino-Inglés [Subt. Esp] (Aventuras. Acción)


  23. #22
    Miembro Destacado
    Avatar de RESIDENT_EVIL
    Fecha de ingreso
    28 ago, 12
    Mensajes
    1,266
    Última Actividad
    14/07/2018 @ 21:56
    Nacionalidad
    Mexico

    Poder de reputación
    7

    Predeterminado Re: Tomb Raider (2018) 2160p 4k UHD HDR Dual Latino-Inglés [Subt. Esp] (Aventuras. Acción)


  24. #23
    Gran Miembro
    Avatar de sosalexfame
    Fecha de ingreso
    10 jul, 15
    Ubicación
    Mexico
    Edad
    37
    Mensajes
    1,177
    Última Actividad
    Ayer @ 20:58
    Nacionalidad
    Mexico
    Sexo
    Hombre

    Poder de reputación
    5

    Predeterminado Re: Tomb Raider (2018) 2160p 4k UHD HDR Dual Latino-Inglés [Subt. Esp] (Aventuras. Acción)

    gracias

  25. #24
    Gran Miembro
    Avatar de fewac
    Fecha de ingreso
    26 abr, 13
    Mensajes
    1,325
    Última Actividad
    13/07/2018 @ 04:37
    Nacionalidad
    Mexico
    Sexo
    Hombre

    Poder de reputación
    7

    Predeterminado Re: Tomb Raider (2018) 2160p 4k UHD HDR Dual Latino-Inglés [Subt. Esp] (Aventuras. Acción)

    Gracias!!!

  26. #25
    Miembro Destacado
    Avatar de muruagam
    Fecha de ingreso
    29 ago, 12
    Ubicación
    Buenos Aires
    Edad
    44
    Mensajes
    1,286
    Última Actividad
    12/07/2018 @ 16:22
    Nacionalidad
    Argentina
    Sexo
    Hombre

    Poder de reputación
    7

    Predeterminado Re: Tomb Raider (2018) 2160p 4k UHD HDR Dual Latino-Inglés [Subt. Esp] (Aventuras. Acción)


Información de tema

Usuarios viendo este tema

Actualmente hay 1 usuarios viendo este tema. (0 miembros y 1 visitantes)

Temas similares

  1. Respuestas: 189
    Último mensaje: 14/07/2018, 01:49
  2. Respuestas: 38
    Último mensaje: 14/07/2018, 01:38
  3. Respuestas: 86
    Último mensaje: 13/07/2018, 16:49
  4. Respuestas: 252
    Último mensaje: 02/07/2018, 01:04
  5. Respuestas: 137
    Último mensaje: 09/06/2018, 21:08

Miembros que han leído este tema: 99

Marcadores

Permisos de publicación

  • No puedes crear nuevos temas
  • No puedes responder temas
  • No puedes subir archivos adjuntos
  • No puedes editar tus mensajes
  •