Banner Uploaded Ivan

Resultados 1 al 10 de 10

Tema: Old Dogs (2009) 720p BDRip Dual Latino-Inglés [Subt. Esp.-Ing.] (Comedia. Cine familiar)

  1. #1
    Uploader
    Avatar de ivanoff666
    Fecha de ingreso
    13 nov, 15
    Mensajes
    200
    Última Actividad
    hoy @ 14:21
    Nacionalidad
    Peru
    Sexo
    Hombre

    Poder de reputación
    13

    Angry Old Dogs (2009) 720p BDRip Dual Latino-Inglés [Subt. Esp.-Ing.] (Comedia. Cine familiar)



    ★ FICHA TÉCNICA ★
    Título original: Old Dogs
    Año: 2009
    Duración: 88 min.
    País: Estados Unidos
    Dirección: Walt Becker
    Guion: David Diamond, David Weissman
    Reparto: Robin Williams, John Travolta, Seth Green, Kelly Preston, Matt Dillon, Dax Shepard, Bernie Mac, Lori Loughlin, Justin Long, Conner Rayburn, Rita Wilson, Laura Allen, EllaBleu Travolta, Luis Guzmán
    Productora: Tapestry Films / Walt Disney Pictures
    Género: Comedia. Infantil | Familia. Amistad. Cine familiar| Crimen


    ★ SINOPSIS ★
    Dan (Robin Williams) es un padre divorciado que tiene que hacerse cargo de sus gemelos de siete años y que intentará salir airoso de la prueba gracias a la ayuda de Charlie (John Travolta), un amigo soltero. Al mismo tiempo, la empresa en la que ambos trabajan tiene que firmar un importante acuerdo con una poderosa empresa japonesa. Menos mal que también contarán con la inestimable ayuda de Jimmy Lunchbox (Bernie Mac), un amigo suyo que conoce todos los trucos para entretener a los niños.




    ★ TRAILER ★


    ★ CAPTURAS ★












    ★ MEDIAINFO ★

    Notas


    Código:
    General Complete name : Old Dogs (2009) 720p BDRip Latino-Ingles.mkv Format : Matroska Format version : Version 4 / Version 2 File size : 6.24 GiB Duration : 1 h 28 min Overall bit rate : 10.1 Mb/s Movie name : www.club-hd.com Encoder/Uploader : ivanoff666 Encoded date : UTC 2018-06-26 23:20:25 Writing application : mkvmerge v20.0.0 ('I Am The Sun') 64-bit Writing library : libebml v1.3.5 + libmatroska v1.4.8 Video ID : 1 Format : AVC Format/Info : Advanced Video Codec Format profile : High@L4.1 Format settings : CABAC / 8 Ref Frames Format settings, CABAC : Yes Format settings, RefFrames : 8 frames Codec ID : V_MPEG4/ISO/AVC Duration : 1 h 28 min Bit rate : 9 044 kb/s Width : 1 280 pixels Height : 690 pixels Display aspect ratio : 1.85:1 Frame rate mode : Constant Frame rate : 23.976 FPS Color space : YUV Chroma subsampling : 4:2:0 Bit depth : 8 bits Scan type : Progressive Bits/(Pixel*Frame) : 0.427 Stream size : 5.56 GiB (89%) Title : - Old Dogs (2009) 720p BDRip Latino-Ingles Writing library : x264 core 85 r1442 781d300 Default : Yes Forced : No Audio #1 ID : 2 Format : AC-3 Format/Info : Audio Coding 3 Codec ID : A_AC3 Duration : 1 h 28 min Bit rate mode : Constant Bit rate : 448 kb/s Channel(s) : 6 channels Channel positions : Front: L C R, Side: L R, LFE Sampling rate : 48.0 kHz Frame rate : 31.250 FPS (1536 SPF) Bit depth : 16 bits Compression mode : Lossy Stream size : 283 MiB (4%) Title : Español Latino Language : Spanish Service kind : Complete Main Default : Yes Forced : No Audio #2 ID : 3 Format : AC-3 Format/Info : Audio Coding 3 Codec ID : A_AC3 Duration : 1 h 28 min Bit rate mode : Constant Bit rate : 640 kb/s Channel(s) : 6 channels Channel positions : Front: L C R, Side: L R, LFE Sampling rate : 48.0 kHz Frame rate : 31.250 FPS (1536 SPF) Bit depth : 16 bits Compression mode : Lossy Stream size : 404 MiB (6%) Title : Ingles Language : English Service kind : Complete Main Default : No Forced : No Text #1 ID : 4 Format : UTF-8 Codec ID : S_TEXT/UTF8 Codec ID/Info : UTF-8 Plain Text Duration : 1 h 24 min Bit rate : 73 b/s Count of elements : 1281 Stream size : 45.1 KiB (0%) Title : Sub. Español Latino Language : Spanish Default : No Forced : No Text #2 ID : 5 Format : UTF-8 Codec ID : S_TEXT/UTF8 Codec ID/Info : UTF-8 Plain Text Duration : 1 h 22 min Bit rate : 82 b/s Count of elements : 1328 Stream size : 50.2 KiB (0%) Title : Sub. Ingles Language : English Default : No Forced : No

    ★ DESCARGA ★
    Todos los links son Intercambiables!




    Compra tu Membresía VIP y apoya a Club-HD!

    Click Aquí para más información.

    ATENCIÓN! Finalmente tenemos TODO el material de Club-HD disponible por Mega, enlaces 100% activos y online hoy







    Compra tu Membresía VIP y apoya a Club-HD!

    Click Aquí para más información.

    ATENCIÓN! Finalmente tenemos TODO el material de Club-HD disponible por Mega, enlaces 100% activos y online hoy







    1. Primero, deben estár registrados, sino no habrá manera de que puedan ver los Enlaces.

    2. Una vez registrados, sólo deben dejar un simple comentario de Siete (7) letras/carácteres mínimo, o también un simple "Me gusta".

    Con eso ya podrán ver los links sin ningún problema.

    Nota: Usamos este sistema para proteger los links de Club-HD, y hasta la fecha funciona muy bien.





    1. Primero, deben estár registrados, sino no habrá manera de que puedan ver los Enlaces.

    2. Una vez registrados, sólo deben dejar un simple comentario de Siete (7) letras/carácteres mínimo, o también un simple "Me gusta".

    Con eso ya podrán ver los links sin ningún problema.

    Nota: Usamos este sistema para proteger los links de Club-HD, y hasta la fecha funciona muy bien.


    ★ CONTRASEÑA ★
    www.club-hd.com



    Uploaded.net, el filehost recomendado por Club-HD. Si piensan comprar una cuenta premium, pueden hacerlo desde el siguiente banner, de esta manera se ganarían el privilegio de que les resubamos cualquier aporte perdido de Club-HD!




    Última edición por Vizard; 27/06/2018 a las 03:19

  2. Los siguientes 7 Usuarios dieron Me Gusta a ivanoff666 por este Post:

    caspercito (27/06/2018),cripp (27/06/2018),flujo (27/06/2018),gabrieltru4 (28/06/2018),koselucho (29/06/2018),Leo (02/07/2018),valenciameister (29/06/2018)

  3. #2
    Miembro Destacado
    Avatar de caspercito
    Fecha de ingreso
    28 ago, 12
    Mensajes
    3,419
    Última Actividad
    hoy @ 19:16
    Nacionalidad
    Mexico

    Poder de reputación
    9

    Predeterminado Re: Old Dogs (2009) 720p BDRip Dual Latino-Inglés [Subt. Esp.-Ing.] (Comedia. Cine familiar)

    gracias

  4. #3
    Miembro Destacado
    Avatar de cripp
    Fecha de ingreso
    27 ago, 12
    Mensajes
    5,564
    Última Actividad
    20/07/2018 @ 13:57
    Nacionalidad
    Costa Rica

    Poder de reputación
    14

    Predeterminado Re: Old Dogs (2009) 720p BDRip Dual Latino-Inglés [Subt. Esp.-Ing.] (Comedia. Cine familiar)

    Gracias por compartir

  5. #4
    Gran Miembro
    Avatar de flujo
    Fecha de ingreso
    28 dic, 14
    Mensajes
    4,618
    Última Actividad
    hoy @ 14:22
    Nacionalidad
    Mexico
    Sexo
    Hombre

    Poder de reputación
    9

    Predeterminado Re: Old Dogs (2009) 720p BDRip Dual Latino-Inglés [Subt. Esp.-Ing.] (Comedia. Cine familiar)

    gracias

  6. #5
    Miembro Destacado
    Avatar de Tony Stark
    Fecha de ingreso
    28 ago, 12
    Mensajes
    1,555
    Última Actividad
    Ayer @ 23:32
    Nacionalidad
    Mexico
    Sexo
    Hombre

    Poder de reputación
    7

    Predeterminado Re: Old Dogs (2009) 720p BDRip Dual Latino-Inglés [Subt. Esp.-Ing.] (Comedia. Cine familiar)


  7. #6
    Miembro Destacado
    Avatar de Howl
    Fecha de ingreso
    28 ago, 12
    Mensajes
    1,527
    Última Actividad
    hoy @ 14:56
    Nacionalidad
    Colombia
    Sexo
    Hombre

    Poder de reputación
    7

    Predeterminado Re: Old Dogs (2009) 720p BDRip Dual Latino-Inglés [Subt. Esp.-Ing.] (Comedia. Cine familiar)

    gracias

  8. #7
    Miembro Destacado
    Avatar de rasras
    Fecha de ingreso
    29 ago, 12
    Mensajes
    2,453
    Última Actividad
    15/07/2018 @ 14:52
    Nacionalidad
    Costa Rica

    Poder de reputación
    8

    Predeterminado Re: Old Dogs (2009) 720p BDRip Dual Latino-Inglés [Subt. Esp.-Ing.] (Comedia. Cine familiar)

    gracias

  9. #8
    Gran Miembro
    Avatar de jvictorbn64
    Fecha de ingreso
    28 ago, 12
    Ubicación
    Mxico D¡istrito federal
    Edad
    49
    Mensajes
    1,424
    Última Actividad
    hoy @ 18:27
    Nacionalidad
    Mexico

    Poder de reputación
    7

    Predeterminado Re: Old Dogs (2009) 720p BDRip Dual Latino-Inglés [Subt. Esp.-Ing.] (Comedia. Cine familiar)


  10. #9
    Miembro Destacado
    Avatar de Juanchorga
    Fecha de ingreso
    27 ago, 12
    Mensajes
    1,808
    Última Actividad
    Ayer @ 18:10
    Nacionalidad
    Argentina
    Sexo
    Hombre

    Poder de reputación
    7

    Predeterminado Re: Old Dogs (2009) 720p BDRip Dual Latino-Inglés [Subt. Esp.-Ing.] (Comedia. Cine familiar)

    Deluxe!!!

  11. #10
    Miembro Destacado
    Avatar de mache.081378
    Fecha de ingreso
    27 ago, 12
    Mensajes
    1,974
    Última Actividad
    20/07/2018 @ 20:29
    Nacionalidad
    Argentina
    Sexo
    Hombre

    Poder de reputación
    8

    Predeterminado Re: Old Dogs (2009) 720p BDRip Dual Latino-Inglés [Subt. Esp.-Ing.] (Comedia. Cine familiar)

    buenisimo

Información de tema

Usuarios viendo este tema

Actualmente hay 1 usuarios viendo este tema. (0 miembros y 1 visitantes)

Temas similares

  1. Respuestas: 20
    Último mensaje: 09/07/2018, 18:15
  2. Respuestas: 49
    Último mensaje: 16/06/2018, 23:54
  3. Respuestas: 46
    Último mensaje: 10/06/2018, 14:12
  4. Respuestas: 26
    Último mensaje: 07/06/2018, 23:18
  5. Respuestas: 33
    Último mensaje: 06/04/2018, 10:10

Miembros que han leído este tema: 32

Etiquetas para este tema

Marcadores

Permisos de publicación

  • No puedes crear nuevos temas
  • No puedes responder temas
  • No puedes subir archivos adjuntos
  • No puedes editar tus mensajes
  •