Banner Uploaded Yon

Página 1 de 3 123 ÚltimoÚltimo
Resultados 1 al 25 de 62

Tema: Cleopatra (1963) 1080p BDRip Dual Latino-Inglés [Subt. Esp] (Drama)

  1. #1
    RARBG = Shit


    Avatar de Vizard
    Fecha de ingreso
    19 feb, 16
    Mensajes
    323
    Última Actividad
    @
    Nacionalidad
    Nepal
    Sexo
    Hombre

    Poder de reputación
    24

    Cool Cleopatra (1963) 1080p BDRip Dual Latino-Inglés [Subt. Esp] (Drama)





    Título Original: Cleopatra
    Título Latinoamerica: Cleopatra
    Año: 1963
    Duración: 243 min.
    País: Estados Unidos
    Director: Joseph L. Mankiewicz
    Guión: Joseph L. Mankiewicz, Ranald MacDougall, Sidney Buchman
    Reparto: Elizabeth Taylor, Richard Burton, Rex Harrison, Roddy McDowall, Martin Landau, Pamela Brown, George Cole, Hume Cronyn, Cesare Danova, Kenneth Haigh, Robert Stephens, Margaret Lee
    Productora: 20th-Century-Fox
    Género: Drama | Histórico. Biográfico. Antiguo Egipto. Antigua Roma. Cine épico



    El victorioso general Julio César se ve obligado a visitar Egipto para evitar la guerra civil provocada por la falta de entendimiento entre Cleopatra y su hermano Tolomeo, que comparten el poder en Egipto. César, cautivado por la inteligencia y belleza de la joven, la proclama reina indiscutible de Egipto, y tras el nacimiento de su hijo, Cesarión, la convierte en su esposa.







    Tamaño.: 8.97 GiB / 10.3 GiB
    Video.....: MPEG-4 AVC / 8700 kbps / 1080p / 23.976 fps / 16:9 / High Profile 4.1
    Audio.....: Inglés / DTS / 5.1 / 48 kHz / 1509 kbps / 24-bit
    Audio.....: Español Latino / AC3 / 5.1 / 48 kHz / 448 kbps
    Audio.....: Commentarios - Cast & Crew (AC3 / 2.0 / 48 kHz / 224 kbps)
    Sub........: Español Latino, Español Latino (Comentarios) / PGS
    Sub........: Español Latino, Español Latino (Comentarios) / .srt
    Fuente...: Bluray USA / BDInfo

    Notas.

    Código:
    --------------------------------- Parte 1 ---------------------------------
    General Unique ID : 170388360388082032515110608452447299171 (0x802F9AC37017BB5FEFC26791F172E663) Complete name : [Club-HD] Cleopatra (1963) [Part 1] 1080p BDRip Dual Latino-Inglés.mkv Format : Matroska Format version : Version 4 / Version 2 File size : 8.97 GiB Duration : 1 h 56 min Overall bit rate : 11.0 Mb/s Movie name : Cleopatra (1963) [Part 1] Encoded by : Vizard Encoded date : UTC 2018-06-16 08:49:56 Writing application : mkvmerge v23.0.0 ('The Bride Said No') 64-bit Writing library : libebml v1.3.6 + libmatroska v1.4.9 Uploader : Vizard Web : www.club-hd.com Video ID : 1 Format : AVC Format/Info : Advanced Video Codec Format profile : High@L4.1 Format settings : CABAC / 4 Ref Frames Format settings, CABAC : Yes Format settings, RefFrames : 4 frames Codec ID : V_MPEG4/ISO/AVC Duration : 1 h 56 min Bit rate : 8 700 kb/s Width : 1 920 pixels Height : 1 080 pixels Display aspect ratio : 16:9 Frame rate mode : Constant Frame rate : 23.976 (24000/1001) FPS Color space : YUV Chroma subsampling : 4:2:0 Bit depth : 8 bits Scan type : Progressive Bits/(Pixel*Frame) : 0.175 Stream size : 7.11 GiB (79%) Title : MPEG-4 AVC / 8700 kbps / 1080p / 23.976 fps / 16:9 / High Profile 4.1 (Blu-ray) Writing library : x264 core 152 r2851 ba24899 Encoding settings : cabac=1 / ref=4 / deblock=1:-3:-3 / analyse=0x3:0x133 / me=umh / subme=11 / psy=1 / psy_rd=1.00:0.00 / mixed_ref=1 / me_range=64 / chroma_me=1 / trellis=2 / 8x8dct=1 / cqm=0 / deadzone=21,11 / fast_pskip=0 / chroma_qp_offset=-2 / threads=6 / lookahead_threads=1 / sliced_threads=0 / nr=0 / decimate=0 / interlaced=0 / bluray_compat=0 / constrained_intra=0 / bframes=16 / b_pyramid=2 / b_adapt=2 / b_bias=0 / direct=3 / weightb=1 / open_gop=0 / weightp=2 / keyint=250 / keyint_min=23 / scenecut=40 / intra_refresh=0 / rc=2pass / mbtree=0 / bitrate=8700 / ratetol=1.0 / qcomp=0.60 / qpmin=0 / qpmax=69 / qpstep=4 / cplxblur=20.0 / qblur=0.5 / ip_ratio=1.30 / pb_ratio=1.20 / aq=3:0.75 Default : Yes Forced : No Audio #1 ID : 2 Format : DTS Format/Info : Digital Theater Systems Codec ID : A_DTS Duration : 1 h 56 min Bit rate mode : Constant Bit rate : 1 509 kb/s Channel(s) : 6 channels Channel positions : Front: L C R, Side: L R, LFE Sampling rate : 48.0 kHz Frame rate : 93.750 FPS (512 SPF) Bit depth : 24 bits Compression mode : Lossy Stream size : 1.23 GiB (14%) Title : Inglés / DTS / 5.1 / 48 kHz / 1509 kbps / 24-bit (Blu-ray) Language : English Default : No Forced : No Audio #2 ID : 3 Format : AC-3 Format/Info : Audio Coding 3 Codec ID : A_AC3 Duration : 1 h 56 min Bit rate mode : Constant Bit rate : 448 kb/s Channel(s) : 6 channels Channel positions : Front: L C R, Side: L R, LFE Sampling rate : 48.0 kHz Frame rate : 31.250 FPS (1536 SPF) Bit depth : 16 bits Compression mode : Lossy Stream size : 375 MiB (4%) Title : Español Latino / AC3 / 5.1 / 48 kHz / 448 kbps (Blu-ray) Language : Spanish Service kind : Complete Main Default : Yes Forced : No Audio #3 ID : 4 Format : AC-3 Format/Info : Audio Coding 3 Codec ID : A_AC3 Duration : 1 h 56 min Bit rate mode : Constant Bit rate : 224 kb/s Channel(s) : 2 channels Channel positions : Front: L R Sampling rate : 48.0 kHz Frame rate : 31.250 FPS (1536 SPF) Bit depth : 16 bits Compression mode : Lossy Stream size : 187 MiB (2%) Title : Commentarios - Cast & Crew (AC3 / 2.0 / 48 kHz / 224 kbps) (Blu-ray) Language : English Service kind : Complete Main Default : No Forced : No Text #1 ID : 5 Format : PGS Codec ID : S_HDMV/PGS Codec ID/Info : Picture based subtitle format used on BDs/HD-DVDs Duration : 1 h 51 min Bit rate : 29.3 kb/s Count of elements : 2473 Stream size : 23.4 MiB (0%) Title : Español Latino / PGS (Blu-ray) Language : Spanish Default : No Forced : No Text #2 ID : 6 Format : UTF-8 Codec ID : S_TEXT/UTF8 Codec ID/Info : UTF-8 Plain Text Duration : 1 h 50 min Bit rate : 54 b/s Count of elements : 1235 Stream size : 44.4 KiB (0%) Title : Español Latino / SubRip (Blu-ray) Language : Spanish Default : No Forced : No Text #3 ID : 7 Format : PGS Codec ID : S_HDMV/PGS Codec ID/Info : Picture based subtitle format used on BDs/HD-DVDs Duration : 1 h 51 min Bit rate : 27.6 kb/s Count of elements : 2473 Stream size : 22.1 MiB (0%) Title : Español (España) / PGS (Blu-ray) Language : Spanish Default : No Forced : No Text #4 ID : 8 Format : PGS Codec ID : S_HDMV/PGS Codec ID/Info : Picture based subtitle format used on BDs/HD-DVDs Duration : 1 h 52 min Bit rate : 43.6 kb/s Count of elements : 3380 Stream size : 34.9 MiB (0%) Title : Español Latino / PGS [Commentarios - Cast & Crew] (Blu-ray) Language : Spanish Default : No Forced : No Text #5 ID : 9 Format : UTF-8 Codec ID : S_TEXT/UTF8 Codec ID/Info : UTF-8 Plain Text Duration : 1 h 51 min Bit rate : 82 b/s Count of elements : 1688 Stream size : 67.5 KiB (0%) Title : Español Latino / SubRip [Commentarios - Cast & Crew] (Blu-ray) Language : Spanish Default : No Forced : No Menu 00:00:00.000 : en:Chapter 1 00:02:29.149 : en:Chapter 2 00:04:56.171 : en:Chapter 3 00:09:14.429 : en:Chapter 4 00:18:11.507 : en:Chapter 5 00:28:03.515 : en:Chapter 6 00:32:19.771 : en:Chapter 7 00:37:31.499 : en:Chapter 8 00:43:50.461 : en:Chapter 9 00:48:15.517 : en:Chapter 10 00:49:53.824 : en:Chapter 11 00:52:47.789 : en:Chapter 12 00:57:49.299 : en:Chapter 13 01:02:28.244 : en:Chapter 14 01:06:10.675 : en:Chapter 15 01:08:03.496 : en:Chapter 16 01:14:00.644 : en:Chapter 17 01:16:51.523 : en:Chapter 18 01:20:36.456 : en:Chapter 19 01:29:57.600 : en:Chapter 20 01:31:11.466 : en:Chapter 21 01:37:02.316 : en:Chapter 22 01:41:45.516 : en:Chapter 23 01:46:30.217 : en:Chapter 24 01:51:30.350 : en:Chapter 25
    --------------------------------- Parte 2 ---------------------------------
    General Unique ID : 35442272647199997952931855579983937517 (0x1AA9EEF489764FE10627EB677AE87FED) Complete name : [Club-HD] Cleopatra (1963) [Part 2] 1080p BDRip Dual Latino-Inglés.mkv Format : Matroska Format version : Version 4 / Version 2 File size : 10.3 GiB Duration : 2 h 14 min Overall bit rate : 11.0 Mb/s Movie name : Cleopatra (1963) [Part 2] Encoded by : Vizard Encoded date : UTC 2018-06-16 08:54:03 Writing application : mkvmerge v23.0.0 ('The Bride Said No') 64-bit Writing library : libebml v1.3.6 + libmatroska v1.4.9 Uploader : Vizard Web : www.club-hd.com Video ID : 1 Format : AVC Format/Info : Advanced Video Codec Format profile : High@L4.1 Format settings : CABAC / 4 Ref Frames Format settings, CABAC : Yes Format settings, RefFrames : 4 frames Codec ID : V_MPEG4/ISO/AVC Duration : 2 h 14 min Bit rate : 8 700 kb/s Width : 1 920 pixels Height : 1 080 pixels Display aspect ratio : 16:9 Frame rate mode : Constant Frame rate : 23.976 (24000/1001) FPS Color space : YUV Chroma subsampling : 4:2:0 Bit depth : 8 bits Scan type : Progressive Bits/(Pixel*Frame) : 0.175 Stream size : 8.15 GiB (79%) Title : MPEG-4 AVC / 8700 kbps / 1080p / 23.976 fps / 16:9 / High Profile 4.1 (Blu-ray) Writing library : x264 core 152 r2851 ba24899 Encoding settings : cabac=1 / ref=4 / deblock=1:-3:-3 / analyse=0x3:0x133 / me=umh / subme=11 / psy=1 / psy_rd=1.00:0.00 / mixed_ref=1 / me_range=64 / chroma_me=1 / trellis=2 / 8x8dct=1 / cqm=0 / deadzone=21,11 / fast_pskip=0 / chroma_qp_offset=-2 / threads=6 / lookahead_threads=1 / sliced_threads=0 / nr=0 / decimate=0 / interlaced=0 / bluray_compat=0 / constrained_intra=0 / bframes=16 / b_pyramid=2 / b_adapt=2 / b_bias=0 / direct=3 / weightb=1 / open_gop=0 / weightp=2 / keyint=250 / keyint_min=23 / scenecut=40 / intra_refresh=0 / rc=2pass / mbtree=0 / bitrate=8700 / ratetol=1.0 / qcomp=0.60 / qpmin=0 / qpmax=69 / qpstep=4 / cplxblur=20.0 / qblur=0.5 / ip_ratio=1.30 / pb_ratio=1.20 / aq=3:0.75 Default : Yes Forced : No Audio #1 ID : 2 Format : DTS Format/Info : Digital Theater Systems Codec ID : A_DTS Duration : 2 h 14 min Bit rate mode : Constant Bit rate : 1 509 kb/s Channel(s) : 6 channels Channel positions : Front: L C R, Side: L R, LFE Sampling rate : 48.0 kHz Frame rate : 93.750 FPS (512 SPF) Bit depth : 24 bits Compression mode : Lossy Stream size : 1.41 GiB (14%) Title : Inglés / DTS / 5.1 / 48 kHz / 1509 kbps / 24-bit (Blu-ray) Language : English Default : No Forced : No Audio #2 ID : 3 Format : AC-3 Format/Info : Audio Coding 3 Codec ID : A_AC3 Duration : 2 h 14 min Bit rate mode : Constant Bit rate : 448 kb/s Channel(s) : 6 channels Channel positions : Front: L C R, Side: L R, LFE Sampling rate : 48.0 kHz Frame rate : 31.250 FPS (1536 SPF) Bit depth : 16 bits Compression mode : Lossy Stream size : 430 MiB (4%) Title : Español Latino / AC3 / 5.1 / 48 kHz / 448 kbps (Blu-ray) Language : Spanish Service kind : Complete Main Default : Yes Forced : No Audio #3 ID : 4 Format : AC-3 Format/Info : Audio Coding 3 Codec ID : A_AC3 Duration : 2 h 14 min Bit rate mode : Constant Bit rate : 224 kb/s Channel(s) : 2 channels Channel positions : Front: L R Sampling rate : 48.0 kHz Frame rate : 31.250 FPS (1536 SPF) Bit depth : 16 bits Compression mode : Lossy Stream size : 215 MiB (2%) Title : Commentarios - Cast & Crew (AC3 / 2.0 / 48 kHz / 224 kbps) (Blu-ray) Language : English Service kind : Complete Main Default : No Forced : No Text #1 ID : 5 Format : PGS Codec ID : S_HDMV/PGS Codec ID/Info : Picture based subtitle format used on BDs/HD-DVDs Duration : 2 h 8 min Bit rate : 24.6 kb/s Count of elements : 2582 Stream size : 22.7 MiB (0%) Title : Español Latino / PGS (Blu-ray) Language : Spanish Default : No Forced : No Text #2 ID : 6 Format : UTF-8 Codec ID : S_TEXT/UTF8 Codec ID/Info : UTF-8 Plain Text Duration : 2 h 7 min Bit rate : 45 b/s Count of elements : 1290 Stream size : 42.9 KiB (0%) Title : Español Latino / SubRip (Blu-ray) Language : Spanish Default : No Forced : No Text #3 ID : 7 Format : PGS Codec ID : S_HDMV/PGS Codec ID/Info : Picture based subtitle format used on BDs/HD-DVDs Duration : 2 h 8 min Bit rate : 23.0 kb/s Count of elements : 2582 Stream size : 21.2 MiB (0%) Title : Español (España) / PGS (Blu-ray) Language : Spanish Default : No Forced : No Text #4 ID : 8 Format : PGS Codec ID : S_HDMV/PGS Codec ID/Info : Picture based subtitle format used on BDs/HD-DVDs Duration : 2 h 8 min Bit rate : 42.2 kb/s Count of elements : 3877 Stream size : 38.9 MiB (0%) Title : Español Latino / PGS [Commentarios - Cast & Crew] (Blu-ray) Language : Spanish Default : No Forced : No Text #5 ID : 9 Format : UTF-8 Codec ID : S_TEXT/UTF8 Codec ID/Info : UTF-8 Plain Text Duration : 2 h 7 min Bit rate : 80 b/s Count of elements : 1934 Stream size : 75.2 KiB (0%) Title : Español Latino / SubRip [Commentarios - Cast & Crew] (Blu-ray) Language : Spanish Default : No Forced : No Menu 00:00:00.000 : en:Chapter 1 00:02:37.741 : en:Chapter 2 00:07:37.832 : en:Chapter 3 00:12:12.940 : en:Chapter 4 00:15:42.942 : en:Chapter 5 00:22:58.961 : en:Chapter 6 00:30:57.022 : en:Chapter 7 00:37:19.112 : en:Chapter 8 00:47:05.406 : en:Chapter 9 00:49:56.577 : en:Chapter 10 00:55:47.969 : en:Chapter 11 01:00:49.896 : en:Chapter 12 01:05:11.908 : en:Chapter 13 01:08:09.585 : en:Chapter 14 01:18:29.580 : en:Chapter 15 01:23:55.906 : en:Chapter 16 01:27:25.657 : en:Chapter 17 01:29:40.250 : en:Chapter 18 01:36:02.256 : en:Chapter 19 01:41:16.237 : en:Chapter 20 01:44:43.902 : en:Chapter 21 01:50:53.230 : en:Chapter 22 01:55:06.065 : en:Chapter 23 01:58:46.035 : en:Chapter 24 02:01:10.763 : en:Chapter 25 02:04:56.739 : en:Chapter 26 02:08:44.133 : en:Chapter 27 02:11:45.272 : en:Chapter 28
















    Todos los links son Intercambiables!




    Compra tu Membresía VIP y apoya a Club-HD!

    Click Aquí para más información.

    ATENCIÓN! Finalmente tenemos TODO el material de Club-HD disponible por Mega, enlaces 100% activos y online hoy







    Compra tu Membresía VIP y apoya a Club-HD!

    Click Aquí para más información.

    ATENCIÓN! Finalmente tenemos TODO el material de Club-HD disponible por Mega, enlaces 100% activos y online hoy







    1. Primero, deben estár registrados, sino no habrá manera de que puedan ver los Enlaces.

    2. Una vez registrados, sólo deben dejar un simple comentario de Siete (7) letras/carácteres mínimo, o también un simple "Me gusta".

    Con eso ya podrán ver los links sin ningún problema.

    Nota: Usamos este sistema para proteger los links de Club-HD, y hasta la fecha funciona muy bien.





    1. Primero, deben estár registrados, sino no habrá manera de que puedan ver los Enlaces.

    2. Una vez registrados, sólo deben dejar un simple comentario de Siete (7) letras/carácteres mínimo, o también un simple "Me gusta".

    Con eso ya podrán ver los links sin ningún problema.

    Nota: Usamos este sistema para proteger los links de Club-HD, y hasta la fecha funciona muy bien.



    Código:
    www.club-hd.com
    Última edición por Vizard; 29/06/2018 a las 04:51

  2. Los siguientes 18 Usuarios dieron Me Gusta a Vizard por este Post:

    beaubinz (20/06/2018),caspercito (21/06/2018),cripp (20/06/2018),dariokk (20/06/2018),darkzaul (23/06/2018),DavePR (21/06/2018),eljumachi (20/06/2018),elneon (20/06/2018),ERRE (14/07/2018),flujo (20/06/2018),fzxx (07/12/2018),jm8421 (17/07/2018),JUANADOLFO007 (20/06/2018),kristo27 (21/06/2018),Leo (20/06/2018),mechero (20/06/2018),oscarteach (21/06/2018),RickAnto (20/06/2018)

  3. #2
    Gran Miembro
    Avatar de leuco88
    Fecha de ingreso
    22 ago, 15
    Mensajes
    1,024
    Última Actividad
    hoy @ 03:28
    Nacionalidad
    Mexico
    Sexo
    Hombre

    Poder de reputación
    5

    Predeterminado Re: Cleopatra (1963) 1080p BDRip Dual Latino-Inglés [Sub Esp] (Drama)

    gracias

  4. #3
    Miembro Destacado
    Avatar de eljumachi
    Fecha de ingreso
    28 ago, 12
    Mensajes
    2,026
    Última Actividad
    hoy @ 03:36
    Nacionalidad
    Honduras

    Poder de reputación
    11

    Predeterminado Re: Cleopatra (1963) 1080p BDRip Dual Latino-Inglés [Sub Esp] (Drama)

    Gracias Vizard saludos

  5. #4
    Gran Miembro
    Avatar de VHD
    Fecha de ingreso
    28 ago, 12
    Mensajes
    1,128
    Última Actividad
    hoy @ 00:31
    Nacionalidad
    Ecuador

    Poder de reputación
    8

    Predeterminado Re: Cleopatra (1963) 1080p BDRip Dual Latino-Inglés [Sub Esp] (Drama)

    Gracias...

  6. #5
    Miembro Destacado
    Avatar de Josiba
    Fecha de ingreso
    27 ago, 12
    Edad
    50
    Mensajes
    4,701
    Última Actividad
    Ayer @ 06:28
    Nacionalidad
    Costa Rica

    Poder de reputación
    12

    Predeterminado Re: Cleopatra (1963) 1080p BDRip Dual Latino-Inglés [Sub Esp] (Drama)


  7. #6
    Gran Miembro
    Avatar de Patagonia
    Fecha de ingreso
    15 feb, 17
    Mensajes
    1,061
    Última Actividad
    Ayer @ 11:28
    Nacionalidad
    Chile
    Sexo
    Hombre

    Poder de reputación
    3

    Predeterminado Re: Cleopatra (1963) 1080p BDRip Dual Latino-Inglés [Sub Esp] (Drama)

    gracias

  8. #7
    Gran Miembro
    Avatar de pepititoma
    Fecha de ingreso
    27 ago, 12
    Mensajes
    354
    Última Actividad
    Ayer @ 19:17
    Nacionalidad
    Argentina

    Poder de reputación
    7

    Predeterminado Re: Cleopatra (1963) 1080p BDRip Dual Latino-Inglés [Sub Esp] (Drama)

    gracias.

  9. #8
    Miembro Destacado
    Avatar de Alan Maiden
    Fecha de ingreso
    01 ago, 15
    Mensajes
    616
    Última Actividad
    Ayer @ 22:05
    Nacionalidad
    Argentina
    Sexo
    Hombre

    Poder de reputación
    4

    Predeterminado Re: Cleopatra (1963) 1080p BDRip Dual Latino-Inglés [Sub Esp] (Drama)

    Gracias!!

  10. #9
    Miembro Destacado
    Avatar de elkaiser2001
    Fecha de ingreso
    23 sep, 12
    Mensajes
    637
    Última Actividad
    11/12/2018 @ 19:49
    Nacionalidad
    Argentina

    Poder de reputación
    7

    Predeterminado Re: Cleopatra (1963) 1080p BDRip Dual Latino-Inglés [Sub Esp] (Drama)

    Gracoas por el aporte

  11. #10
    Miembro Destacado
    Avatar de Marco
    Fecha de ingreso
    28 ago, 12
    Mensajes
    1,498
    Última Actividad
    hoy @ 01:12
    Nacionalidad
    Ecuador
    Sexo
    Hombre

    Poder de reputación
    19

    Predeterminado Re: Cleopatra (1963) 1080p BDRip Dual Latino-Inglés [Sub Esp] (Drama)

    Gran aporte, me la llevó. Mil Gracias.

  12. Los siguientes Usuarios dieron Me Gusta a Marco por este Post:

    Cristy (21/06/2018)

  13. #11
    Miembro Destacado
    Avatar de cripp
    Fecha de ingreso
    28 ago, 12
    Mensajes
    6,223
    Última Actividad
    Ayer @ 12:41
    Nacionalidad
    Costa Rica

    Poder de reputación
    16

    Predeterminado Re: Cleopatra (1963) 1080p BDRip Dual Latino-Inglés [Sub Esp] (Drama)

    Gracias por compartir

  14. #12
    Miembro Destacado
    Avatar de kevhins
    Fecha de ingreso
    28 ago, 12
    Mensajes
    193
    Última Actividad
    hoy @ 01:49
    Nacionalidad
    Ecuador

    Poder de reputación
    7

    Predeterminado Re: Cleopatra (1963) 1080p BDRip Dual Latino-Inglés [Sub Esp] (Drama)

    Gran aporte del cine clásico.

  15. #13
    Miembro Destacado
    Avatar de dariokk
    Fecha de ingreso
    25 mar, 15
    Mensajes
    442
    Última Actividad
    Ayer @ 13:59
    Nacionalidad
    Argentina
    Sexo
    Hombre

    Poder de reputación
    5

    Predeterminado Re: Cleopatra (1963) 1080p BDRip Dual Latino-Inglés [Sub Esp] (Drama)

    Gracias amigo un clasico tremendo esto xdd . Saludos

  16. #14
    Miembro Destacado
    Avatar de tolnainamur
    Fecha de ingreso
    25 sep, 12
    Mensajes
    2,252
    Última Actividad
    Ayer @ 18:12
    Nacionalidad
    Argentina

    Poder de reputación
    12

    Predeterminado Re: Cleopatra (1963) 1080p BDRip Dual Latino-Inglés [Sub Esp] (Drama)

    Gracias.

  17. #15
    Gran Miembro
    Avatar de flujo
    Fecha de ingreso
    28 dic, 14
    Mensajes
    5,319
    Última Actividad
    Ayer @ 19:01
    Nacionalidad
    Mexico
    Sexo
    Hombre

    Poder de reputación
    11

    Predeterminado Re: Cleopatra (1963) 1080p BDRip Dual Latino-Inglés [Sub Esp] (Drama)

    gracias

  18. #16
    Gran Miembro
    Avatar de miyagi
    Fecha de ingreso
    12 feb, 16
    Mensajes
    198
    Última Actividad
    31/10/2018 @ 20:50
    Nacionalidad
    Argentina
    Sexo
    Hombre

    Poder de reputación
    3

    Predeterminado Re: Cleopatra (1963) 1080p BDRip Dual Latino-Inglés [Sub Esp] (Drama)

    Exelente aporte gracias"!!!

  19. #17
    Miembro Destacado
    Avatar de JCAvila
    Fecha de ingreso
    07 sep, 12
    Edad
    38
    Mensajes
    4,098
    Última Actividad
    Ayer @ 18:24
    Nacionalidad
    Mexico

    Poder de reputación
    13

    Predeterminado Re: Cleopatra (1963) 1080p BDRip Dual Latino-Inglés [Sub Esp] (Drama)

    gracias!

  20. #18
    Gran Miembro
    Avatar de consuelobarturen
    Fecha de ingreso
    02 ene, 14
    Mensajes
    1,194
    Última Actividad
    hoy @ 00:09
    Nacionalidad
    Peru
    Sexo
    Hombre

    Poder de reputación
    7

    Predeterminado Re: Cleopatra (1963) 1080p BDRip Dual Latino-Inglés [Sub Esp] (Drama)

    graciassssss

  21. #19
    Miembro Destacado
    Avatar de Tony Stark
    Fecha de ingreso
    28 ago, 12
    Mensajes
    1,697
    Última Actividad
    Ayer @ 14:14
    Nacionalidad
    Mexico
    Sexo
    Hombre

    Poder de reputación
    8

    Predeterminado Re: Cleopatra (1963) 1080p BDRip Dual Latino-Inglés [Sub Esp] (Drama)


  22. #20
    Gran Miembro
    Avatar de claudio f
    Fecha de ingreso
    25 may, 18
    Mensajes
    157
    Última Actividad
    Ayer @ 22:01
    Nacionalidad
    Chile
    Sexo
    Hombre

    Poder de reputación
    1

    Predeterminado Re: Cleopatra (1963) 1080p BDRip Dual Latino-Inglés [Sub Esp] (Drama)

    muchas gracias

  23. #21
    Miembro Destacado
    Avatar de elneon
    Fecha de ingreso
    28 ago, 12
    Mensajes
    566
    Última Actividad
    09/12/2018 @ 19:02
    Nacionalidad
    Mexico

    Poder de reputación
    7

    Predeterminado Re: Cleopatra (1963) 1080p BDRip Dual Latino-Inglés [Sub Esp] (Drama)

    Vizard Muchas Gracias !!

  24. #22
    Miembro Destacado
    Avatar de gamma0203
    Fecha de ingreso
    01 sep, 12
    Mensajes
    618
    Última Actividad
    10/12/2018 @ 23:31
    Nacionalidad
    Mexico

    Poder de reputación
    7

    Predeterminado Re: Cleopatra (1963) 1080p BDRip Dual Latino-Inglés [Sub Esp] (Drama)

    Clasico pa los abuelos....

  25. #23
    Miembro VIP en Club-HD!
    Avatar de SAAEDVI
    Fecha de ingreso
    09 nov, 14
    Mensajes
    792
    Última Actividad
    Ayer @ 22:50
    Nacionalidad
    Chile
    Sexo
    Hombre

    Poder de reputación
    5

    Predeterminado Re: Cleopatra (1963) 1080p BDRip Dual Latino-Inglés [Sub Esp] (Drama)

    me gusta

  26. #24
    Gran Miembro
    Avatar de clubhd73
    Fecha de ingreso
    24 feb, 15
    Mensajes
    1,664
    Última Actividad
    Ayer @ 23:38
    Nacionalidad
    Mexico
    Sexo
    Hombre

    Poder de reputación
    5

    Predeterminado Re: Cleopatra (1963) 1080p BDRip Dual Latino-Inglés [Subt. Esp] (Drama)

    Gracias

  27. #25
    Gran Miembro
    Avatar de fewac
    Fecha de ingreso
    26 abr, 13
    Mensajes
    1,697
    Última Actividad
    26/11/2018 @ 20:05
    Nacionalidad
    Mexico
    Sexo
    Hombre

    Poder de reputación
    7

    Predeterminado Re: Cleopatra (1963) 1080p BDRip Dual Latino-Inglés [Subt. Esp] (Drama)

    Muchas gracias!!!

Información de tema

Usuarios viendo este tema

Actualmente hay 1 usuarios viendo este tema. (0 miembros y 1 visitantes)

Temas similares

  1. Respuestas: 50
    Último mensaje: 11/12/2018, 01:50
  2. Respuestas: 51
    Último mensaje: 03/10/2018, 21:09
  3. Respuestas: 125
    Último mensaje: 15/08/2018, 19:37
  4. Respuestas: 373
    Último mensaje: 17/10/2017, 19:36
  5. Respuestas: 57
    Último mensaje: 19/07/2017, 17:17

Miembros que han leído este tema: 154

Marcadores

Permisos de publicación

  • No puedes crear nuevos temas
  • No puedes responder temas
  • No puedes subir archivos adjuntos
  • No puedes editar tus mensajes
  •