Banner Uploaded Vizard

Resultados 1 al 25 de 67

Tema: Sherlock Gnomes (2018) 1080p BDRip Dual Audio Latino-Inglés [Subt. Esp] (Animación. Fantástico. Infantil)

Ver modo hilado

Mensaje anterior Mensaje anterior   Próximo mensaje Próximo mensaje
  1. #1
    Dohko de Libra

    Avatar de HemoAr
    Fecha de ingreso
    08 mar, 13
    Ubicación
    Rozan
    Edad
    34
    Mensajes
    9,641
    Última Actividad
    @
    Nacionalidad
    Mexico
    Sexo
    Hombre

    Poder de reputación
    381

    Cool Sherlock Gnomes (2018) 1080p BDRip Dual Audio Latino-Inglés [Subt. Esp] (Animación. Fantástico. Infantil)










    Título original: Gnomeo & Juliet: Sherlock Gnomes
    Año: 2018
    Duración: 85 min.
    País: Estados Unidos
    Director: John Stevenson
    Reparto: Animation
    Productora: MGM / Paramount Animation / Rocket Pictures
    Género: Animación. Fantástico. Infantil | Muñecos. Secuela

    Sinopsis: Los famosos gnomos de jardín Gnomeo y Julieta contratan a un mundialmente conocido detective: Sherlock Gnomes, para investigar la misteriosa desaparición de algunos ornamentos del jardín.



























    Un agradecimiento muy especial a nuestro amigo Brady por brindarnos este audio Latino de excelente calidad.

    Descarga sólo el audio Latino de este aporte, aquí.







    General

    Format : Matroska
    Format version : Version 4 / Version 2
    File size : 6.14 GiB
    Duration : 1 h 26 min
    Overall bit rate : 10.2 Mb/s
    Movie name : Sherlock Gnomes (2018) 1080p BDRip Dual Audio Latino-Inglés
    Encoded date : UTC 2018-06-11 14:15:54
    Writing application : mkvmerge v21.0.0 ('Tardigrades Will Inherit The Earth') 64-bit
    Writing library : libebml v1.3.5 + libmatroska v1.4.8

    Video
    ID : 1
    Format : AVC
    Format/Info : Advanced Video Codec
    Format profile : High@L4.1
    Format settings : CABAC / 5 Ref Frames
    Format settings, CABAC : Yes
    Format settings, RefFrames : 5 frames
    Codec ID : V_MPEG4/ISO/AVC
    Duration : 1 h 26 min
    Bit rate : 8 041 kb/s
    Width : 1 920 pixels
    Height : 804 pixels
    Display aspect ratio : 2.40:1
    Frame rate mode : Constant
    Frame rate : 23.976 (24000/1001) FPS
    Color space : YUV
    Chroma subsampling : 4:2:0
    Bit depth : 8 bits
    Scan type : Progressive
    Bits/(Pixel*Frame) : 0.217
    Stream size : 4.85 GiB (79%)
    Title : Sherlock Gnomes (2018) 1080p BDRip Dual Audio Latino-Inglés
    Writing library : x264 core 155 r2901 7d0ff22
    Language : English
    Default : Yes
    Forced : No

    Audio #1
    ID : 2
    Format : AC-3
    Format/Info : Audio Coding 3
    Codec ID : A_AC3
    Duration : 1 h 26 min
    Bit rate mode : Constant
    Bit rate : 640 kb/s
    Channel(s) : 6 channels
    Channel positions : Front: L C R, Side: L R, LFE
    Sampling rate : 48.0 kHz
    Frame rate : 31.250 FPS (1536 SPF)
    Bit depth : 16 bits
    Compression mode : Lossy
    Stream size : 395 MiB (6%)
    Title : AC3 5.1 Bluray
    Language : Spanish
    Service kind : Complete Main
    Default : Yes
    Forced : No

    Audio #2
    ID : 3
    Format : DTS
    Format/Info : Digital Theater Systems
    Codec ID : A_DTS
    Duration : 1 h 26 min
    Bit rate mode : Constant
    Bit rate : 1 509 kb/s
    Channel(s) : 6 channels
    Channel positions : Front: L C R, Side: L R, LFE
    Sampling rate : 48.0 kHz
    Frame rate : 93.750 FPS (512 SPF)
    Bit depth : 24 bits
    Compression mode : Lossy
    Stream size : 932 MiB (15%)
    Title : DTS
    Language : English
    Default : No
    Forced : No

    Text #1
    ID : 4
    Format : UTF-8
    Codec ID : S_TEXT/UTF8
    Codec ID/Info : UTF-8 Plain Text
    Duration : 1 h 12 min
    Bit rate : 2 b/s
    Count of elements : 35
    Stream size : 1.25 KiB (0%)
    Title : Subtitulos_Forzados
    Language : Spanish
    Default : Yes
    Forced : No

    Text #2
    ID : 5
    Format : UTF-8
    Codec ID : S_TEXT/UTF8
    Codec ID/Info : UTF-8 Plain Text
    Duration : 1 h 24 min
    Bit rate : 59 b/s
    Count of elements : 1109
    Stream size : 37.3 KiB (0%)
    Title : Subtitulos_Completos
    Language : Spanish
    Default : No
    Forced : No

    Menu
    00:00:00.000 : en:00:00:00.000
    00:05:36.127 : en:00:05:36.127
    00:10:50.650 : en:00:10:50.650
    00:16:40.166 : en:00:16:40.166
    00:24:05.944 : en:00:24:05.944
    00:29:44.074 : en:00:29:44.074
    00:35:39.512 : en:00:35:39.512
    00:40:52.909 : en:00:40:52.909
    00:45:41.530 : en:00:45:41.530
    00:52:31.982 : en:00:52:31.982
    00:58:29.756 : en:00:58:29.756
    01:04:58.520 : en:01:04:58.520
    01:10:40.069 : en:01:10:40.069
    01:16:03.058 : en:01:16:03.058
    01:17:55.212 : en:01:17:55.212





    Contraseña para extraer: www.club-hd.com

    Nota: Los archivos .rev no es necesario descargar al menos que algun .rar este dañado o que este eliminado












    Compra tu Membresía VIP y apoya a Club-HD!

    Click Aquí para más información.

    ATENCIÓN! Finalmente tenemos TODO el material de Club-HD disponible por Mega, enlaces 100% activos y online hoy









    Compra tu Membresía VIP y apoya a Club-HD!

    Click Aquí para más información.

    ATENCIÓN! Finalmente tenemos TODO el material de Club-HD disponible por Mega, enlaces 100% activos y online hoy









    1. Primero, deben estár registrados, sino no habrá manera de que puedan ver los Enlaces.

    2. Una vez registrados, sólo deben dejar un simple comentario de Siete (7) letras/carácteres mínimo, o también un simple "Me gusta".

    Con eso ya podrán ver los links sin ningún problema.

    Nota: Usamos este sistema para proteger los links de Club-HD, y hasta la fecha funciona muy bien.







    1. Primero, deben estár registrados, sino no habrá manera de que puedan ver los Enlaces.

    2. Una vez registrados, sólo deben dejar un simple comentario de Siete (7) letras/carácteres mínimo, o también un simple "Me gusta".

    Con eso ya podrán ver los links sin ningún problema.

    Nota: Usamos este sistema para proteger los links de Club-HD, y hasta la fecha funciona muy bien.


    Última edición por HemoAr; 11/06/2018 a las 12:27



    Uploaded.net, el filehost recomendado por Club-HD. Si piensan comprar una cuenta premium, pueden hacerlo desde el siguiente banner, de esta manera se ganarían el privilegio de que les resubamos cualquier aporte perdido de Club-HD!




  2. Los siguientes 18 Usuarios dieron Me Gusta a HemoAr por este Post:

    armyfan (11/06/2018),bastione (12/06/2018),beaubinz (11/06/2018),caspercito (11/06/2018),cripp (11/06/2018),danos (13/06/2018),DavePR (12/06/2018),elneon (11/06/2018),flujo (11/06/2018),frmr (12/06/2018),granjoso (19/06/2018),Jesus4K (13/07/2018),Leo (11/06/2018),OutworK (11/06/2018),Pepe_soul_hunter (13/06/2018),rcovacon (Ayer),Remr.Boy (17/06/2018),RickAnto (12/06/2018)

Información de tema

Usuarios viendo este tema

Actualmente hay 1 usuarios viendo este tema. (0 miembros y 1 visitantes)

Temas similares

  1. Respuestas: 44
    Último mensaje: 13/07/2018, 22:12
  2. Respuestas: 116
    Último mensaje: 05/07/2018, 15:23
  3. Respuestas: 78
    Último mensaje: 29/06/2018, 19:46
  4. Respuestas: 1
    Último mensaje: 11/06/2018, 10:48
  5. Respuestas: 180
    Último mensaje: 02/08/2017, 22:19

Miembros que han leído este tema: 134

Marcadores

Permisos de publicación

  • No puedes crear nuevos temas
  • No puedes responder temas
  • No puedes subir archivos adjuntos
  • No puedes editar tus mensajes
  •