Banner Uploaded Sider

Resultados 1 al 23 de 23

Tema: Annihilation (2018) 2160p 4k UHD HDR Dual Latino-Inglés [Subt. Esp] (Ciencia Ficción. Thriller)

  1. #1
    HD Brady

    Avatar de Brady
    Fecha de ingreso
    01 jun, 16
    Edad
    22
    Mensajes
    1,490
    Última Actividad
    hoy @ 05:08
    Nacionalidad
    Mexico

    Sexo
    Hombre

    Poder de reputación
    61

    Predeterminado Annihilation (2018) 2160p 4k UHD HDR Dual Latino-Inglés [Subt. Esp] (Ciencia Ficción. Thriller)






    Título Original: Annihilation
    Año: 2018
    Duración: 115 min.
    País: United States
    Director: Alex Garland
    Guion: Alex Garland (Novela: Jeff VanderMeer)
    Reparto: Natalie Portman, Óscar Isaac, Jennifer Jason Leigh, Gina Rodriguez, Tessa Thompson, Benedict Wong, David Gyasi, Sonoya Mizuno, Crystal Clarke, Kumud Pant, Tuva Novotny, Cosmo Jarvis, Mairead Armstrong
    Productora: Coproducción Estados Unidos-Reino Unido; DNA Films / Paramount Pictures / Scott Rudin Productions / Skydance Productions. Distribuida por Netflix
    Género: Ciencia ficción. Thriller | Thriller psicológico


    SINOPSIS
    Cuando su marido desaparece durante una misión secreta para regresar sin recordar nada, la bióloga Lena se une a una expedición a una misteriosa región acordonada por el gobierno de los Estados Unidos. El grupo, compuesto por 5 mujeres científicas, investiga la zona X, un intrigante lugar controlado por una poderosa fuerza alienígena. La zona X es un lugar al que han ido otras expediciones, pero del que ninguna ha vuelto. (FILMAFFINITY)

    TRAILER


    Datos Técnicos
    Video:
    MPEGH HEVC / 2160p / High Profile 5.1 / 10.5 mbps

    Audio:
    Español Latino / AC3 5.1/ 640 kbps / 48kHz / Bluray 4k
    Inglés / TrueHD/Atmos 7.1 / 4062/7278 kbps / 48kHz / Bluray 4k
    Inglés / AC3 5.1/ 640 kbps / 48kHz / Bluray 4k

    Subs:
    Español Latino / SubRip / Bluray 4k
    Español Latino / Sup / Bluray 4k
    Inglés / Sup / Bluray 4k


    Código:
    General
    Unique ID                                : 328430691671971964638622546313527114870 (0xF715734BC16455B0C249BAF4E2BB3C76)
    Format                                   : Matroska
    Format version                           : Version 4 / Version 2
    File size                                : 12.8 GiB
    Duration                                 : 1 h 55 min
    Overall bit rate mode                    : Variable
    Overall bit rate                         : 16.0 Mb/s
    Encoded date                             : UTC 2018-06-01 12:26:51
    Writing application                      : mkvmerge v20.0.0 ('I Am The Sun') 64-bit
    Writing library                          : libebml v1.3.5 + libmatroska v1.4.8
    Uploader                                 : Brady
    Web                                      : www.club-hd.com
    
    Video
    ID                                       : 1
    Format                                   : HEVC
    Format/Info                              : High Efficiency Video Coding
    Format profile                           : Main 10@L5.1@High
    Codec ID                                 : V_MPEGH/ISO/HEVC
    Duration                                 : 1 h 55 min
    Bit rate                                 : 10.5 Mb/s
    Width                                    : 3 840 pixels
    Height                                   : 1 606 pixels
    Display aspect ratio                     : 2.40:1
    Frame rate mode                          : Constant
    Frame rate                               : 23.976 (24000/1001) FPS
    Color space                              : YUV
    Chroma subsampling                       : 4:2:0 (Type 2)
    Bit depth                                : 10 bits
    Bits/(Pixel*Frame)                       : 0.071
    Stream size                              : 8.46 GiB (66%)
    Writing library                          : x265 2.7+338-147b7dcee675:[Windows][GCC 6.3.0][64 bit] 10bit
    Encoding settings                        : cpuid=1111039 / frame-threads=5 / numa-pools=36 / wpp / no-pmode / no-pme / no-psnr / no-ssim / log-level=2 / input-csp=1 / input-res=3840x1606 / interlace=0 / total-frames=165445 / level-idc=51 / high-tier=1 / uhd-bd=0 / ref=4 / no-allow-non-conformance / repeat-headers / annexb / aud / hrd / info / hash=0 / no-temporal-layers / no-open-gop / min-keyint=1 / keyint=24 / gop-lookahead=0 / bframes=4 / b-adapt=2 / b-pyramid / bframe-bias=0 / rc-lookahead=25 / lookahead-slices=4 / scenecut=40 / radl=0 / no-intra-refresh / ctu=64 / min-cu-size=8 / rect / no-amp / max-tu-size=32 / tu-inter-depth=1 / tu-intra-depth=1 / limit-tu=0 / rdoq-level=2 / dynamic-rd=0.00 / no-ssim-rd / signhide / no-tskip / nr-intra=0 / nr-inter=0 / no-constrained-intra / no-strong-intra-smoothing / max-merge=3 / limit-refs=3 / limit-modes / me=3 / subme=3 / merange=57 / temporal-mvp / weightp / no-weightb / no-analyze-src-pics / deblock=-3:-3 / no-sao / no-sao-non-deblock / rd=4 / no-early-skip / rskip / no-fast-intra / no-tskip-fast / no-cu-lossless / no-b-intra / no-splitrd-skip / rdpenalty=0 / psy-rd=2.00 / psy-rdoq=1.00 / no-rd-refine / no-lossless / cbqpoffs=0 / crqpoffs=0 / rc=crf / crf=17.0 / qcomp=0.60 / qpstep=4 / stats-write=0 / stats-read=0 / vbv-maxrate=160000 / vbv-bufsize=160000 / vbv-init=0.9 / crf-max=0.0 / crf-min=0.0 / ipratio=1.40 / pbratio=1.30 / aq-mode=1 / aq-strength=1.00 / cutree / zone-count=0 / no-strict-cbr / qg-size=32 / no-rc-grain / qpmax=69 / qpmin=0 / no-const-vbv / sar=1 / overscan=0 / videoformat=5 / range=0 / colorprim=9 / transfer=16 / colormatrix=9 / chromaloc=1 / chromaloc-top=2 / chromaloc-bottom=2 / display-window=0 / master-display=G(13250,34500)B(7500,3000)R(34000,16000)WP(15635,16450)L(10000000,1) / max-cll=0,0 / min-luma=0 / max-luma=1023 / log2-max-poc-lsb=8 / vui-timing-info / vui-hrd-info / slices=1 / no-opt-qp-pps / no-opt-ref-list-length-pps / no-multi-pass-opt-rps / scenecut-bias=0.05 / no-opt-cu-delta-qp / no-aq-motion / hdr / hdr-opt / no-dhdr10-opt / no-idr-recovery-sei / analysis-reuse-level=5 / scale-factor=0 / refine-intra=0 / refine-inter=0 / refine-mv=0 / no-limit-sao / ctu-info=0 / no-lowpass-dct / refine-mv-type=0 / copy-pic=1 / max-ausize-factor=1.0 / no-dynamic-refine / no-single-sei
    Language                                 : English
    Default                                  : Yes
    Forced                                   : No
    Color range                              : Limited
    Color primaries                          : BT.2020
    Transfer characteristics                 : PQ
    Matrix coefficients                      : BT.2020 non-constant
    Mastering display color primaries        : Display P3
    Mastering display luminance              : min: 0.0001 cd/m2, max: 1000 cd/m2
    
    Audio #1
    ID                                       : 2
    Format                                   : AC-3
    Format/Info                              : Audio Coding 3
    Codec ID                                 : A_AC3
    Duration                                 : 1 h 55 min
    Bit rate mode                            : Constant
    Bit rate                                 : 640 kb/s
    Channel(s)                               : 6 channels
    Channel positions                        : Front: L C R, Side: L R, LFE
    Sampling rate                            : 48.0 kHz
    Frame rate                               : 31.250 FPS (1536 SPF)
    Bit depth                                : 16 bits
    Compression mode                         : Lossy
    Stream size                              : 526 MiB (4%)
    Title                                    : Latino AC3 5.1 640 kbps Bluray 4k
    Language                                 : Latin
    Service kind                             : Complete Main
    Default                                  : Yes
    Forced                                   : No
    
    Audio #2
    ID                                       : 3
    Format                                   : TrueHD
    Format profile                           : TrueHD+Atmos / TrueHD
    Codec ID                                 : A_TRUEHD
    Duration                                 : 1 h 55 min
    Bit rate mode                            : Variable
    Bit rate                                 : 4 062 kb/s
    Maximum bit rate                         : 7 278 kb/s
    Channel(s)                               : Object Based / 8 channels
    Channel positions                        : Object Based / Front: L C R, Side: L R, Back: L R, LFE
    Sampling rate                            :  / 48.0 kHz
    Frame rate                               : 1 200.000 FPS (40 SPF)
    Compression mode                         : Lossless
    Stream size                              : 3.26 GiB (25%)
    Title                                    : Ingles TrueHD/Atmos 7.1 4062/7278 kbps Bluray 4k
    Language                                 : English
    Default                                  : No
    Forced                                   : No
    
    Audio #3
    ID                                       : 4
    Format                                   : AC-3
    Format/Info                              : Audio Coding 3
    Codec ID                                 : A_AC3
    Duration                                 : 1 h 55 min
    Bit rate mode                            : Constant
    Bit rate                                 : 640 kb/s
    Channel(s)                               : 6 channels
    Channel positions                        : Front: L C R, Side: L R, LFE
    Sampling rate                            : 48.0 kHz
    Frame rate                               : 31.250 FPS (1536 SPF)
    Bit depth                                : 16 bits
    Compression mode                         : Lossy
    Stream size                              : 526 MiB (4%)
    Title                                    : Ingles AC3 5.1 640 kbps Bluray 4k
    Language                                 : English
    Service kind                             : Complete Main
    Default                                  : No
    Forced                                   : No
    
    Text #1
    ID                                       : 5
    Format                                   : UTF-8
    Codec ID                                 : S_TEXT/UTF8
    Codec ID/Info                            : UTF-8 Plain Text
    Duration                                 : 1 h 46 min
    Bit rate                                 : 30 b/s
    Count of elements                        : 931
    Stream size                              : 23.4 KiB (0%)
    Title                                    : Latino
    Language                                 : Latin
    Default                                  : No
    Forced                                   : No
    
    Text #2
    ID                                       : 6
    Format                                   : PGS
    Muxing mode                              : zlib
    Codec ID                                 : S_HDMV/PGS
    Codec ID/Info                            : Picture based subtitle format used on BDs/HD-DVDs
    Duration                                 : 1 h 46 min
    Bit rate                                 : 19.1 kb/s
    Count of elements                        : 1879
    Stream size                              : 14.5 MiB (0%)
    Title                                    : Latino
    Language                                 : Latin
    Default                                  : No
    Forced                                   : No
    
    Text #3
    ID                                       : 7
    Format                                   : PGS
    Muxing mode                              : zlib
    Codec ID                                 : S_HDMV/PGS
    Codec ID/Info                            : Picture based subtitle format used on BDs/HD-DVDs
    Duration                                 : 1 h 46 min
    Bit rate                                 : 20.8 kb/s
    Count of elements                        : 2016
    Stream size                              : 15.8 MiB (0%)
    Title                                    : Ingles
    Language                                 : English
    Default                                  : No
    Forced                                   : No











    DESCARGA

    Links Intercambiables





    Compra tu Membresía VIP y apoya a Club-HD!

    Click Aquí para más información.

    ATENCIÓN! Finalmente tenemos TODO el material de Club-HD disponible por Mega, enlaces 100% activos y online hoy







    Compra tu Membresía VIP y apoya a Club-HD!

    Click Aquí para más información.

    ATENCIÓN! Finalmente tenemos TODO el material de Club-HD disponible por Mega, enlaces 100% activos y online hoy







    1. Primero, deben estár registrados, sino no habrá manera de que puedan ver los Enlaces.

    2. Una vez registrados, sólo deben dejar un simple comentario de Siete (7) letras/carácteres mínimo, o también un simple "Me gusta".

    Con eso ya podrán ver los links sin ningún problema.

    Nota: Usamos este sistema para proteger los links de Club-HD, y hasta la fecha funciona muy bien.





    1. Primero, deben estár registrados, sino no habrá manera de que puedan ver los Enlaces.

    2. Una vez registrados, sólo deben dejar un simple comentario de Siete (7) letras/carácteres mínimo, o también un simple "Me gusta".

    Con eso ya podrán ver los links sin ningún problema.

    Nota: Usamos este sistema para proteger los links de Club-HD, y hasta la fecha funciona muy bien.




    Código:
    www.club-hd.com
    Let's Go, Do Your Job.

    Si te gusta mi material en 4K, que mejor que una cuenta de uploaded premium para bajar sin limites y gozar de una pelicula en 4K HDR, no te pierdas esta gran oportunidad, solo ingresa al Banner de abajo y compra tu cuenta Uploaded Premium, no te arrepentiras

  2. Los siguientes 8 Usuarios dieron Me Gusta a Brady por este Post:

    beaubinz (04/06/2018),cripp (04/06/2018),flujo (04/06/2018),frmr (05/06/2018),kempes54 (09/06/2018),Leo (08/06/2018),Pte.A.Carmine (04/06/2018),Uziel (04/06/2018)

  3. #2
    Miembro Destacado
    Avatar de Josiba
    Fecha de ingreso
    27 ago, 12
    Edad
    49
    Mensajes
    4,052
    Última Actividad
    hoy @ 09:37
    Nacionalidad
    Costa Rica


    Poder de reputación
    11

    Predeterminado Re: Annihilation (2018) 2160p 4k UHD HDR Dual Latino-Inglés [Subt. Esp] (Ciencia Ficción. Thriller)


  4. #3
    Miembro Destacado
    Avatar de JCAvila
    Fecha de ingreso
    07 sep, 12
    Edad
    38
    Mensajes
    3,681
    Última Actividad
    hoy @ 01:31
    Nacionalidad
    Mexico


    Poder de reputación
    10

    Predeterminado Re: Annihilation (2018) 2160p 4k UHD HDR Dual Latino-Inglés [Subt. Esp] (Ciencia Ficción. Thriller)

    gracias!

  5. #4
    Miembro Destacado
    Avatar de mdieter
    Fecha de ingreso
    03 jun, 15
    Mensajes
    603
    Última Actividad
    hoy @ 01:54
    Nacionalidad
    Chile

    Sexo
    Hombre

    Poder de reputación
    4

    Predeterminado Re: Annihilation (2018) 2160p 4k UHD HDR Dual Latino-Inglés [Subt. Esp] (Ciencia Ficción. Thriller)


  6. #5
    Miembro Destacado
    Avatar de cripp
    Fecha de ingreso
    27 ago, 12
    Mensajes
    5,462
    Última Actividad
    hoy @ 13:12
    Nacionalidad
    Costa Rica


    Poder de reputación
    14

    Predeterminado Re: Annihilation (2018) 2160p 4k UHD HDR Dual Latino-Inglés [Subt. Esp] (Ciencia Ficción. Thriller)

    Gracias por compartir

  7. #6
    Gran Miembro
    Avatar de flujo
    Fecha de ingreso
    28 dic, 14
    Mensajes
    4,510
    Última Actividad
    Ayer @ 22:07
    Nacionalidad
    Mexico

    Sexo
    Hombre

    Poder de reputación
    9

    Predeterminado Re: Annihilation (2018) 2160p 4k UHD HDR Dual Latino-Inglés [Subt. Esp] (Ciencia Ficción. Thriller)

    gracias

  8. #7
    Miembro Destacado
    Avatar de PATRICIOG
    Fecha de ingreso
    29 may, 15
    Mensajes
    1,540
    Última Actividad
    Ayer @ 10:20
    Nacionalidad
    Chile

    Sexo
    Hombre

    Poder de reputación
    5

    Predeterminado Re: Annihilation (2018) 2160p 4k UHD HDR Dual Latino-Inglés [Subt. Esp] (Ciencia Ficción. Thriller)

    Muchas Gracias.

  9. #8
    Miembro Destacado
    Avatar de RESIDENT_EVIL
    Fecha de ingreso
    28 ago, 12
    Mensajes
    1,255
    Última Actividad
    hoy @ 01:09
    Nacionalidad
    Mexico


    Poder de reputación
    7

    Predeterminado Re: Annihilation (2018) 2160p 4k UHD HDR Dual Latino-Inglés [Subt. Esp] (Ciencia Ficción. Thriller)


  10. #9
    Gran Miembro
    Avatar de riu56
    Fecha de ingreso
    15 sep, 16
    Edad
    34
    Mensajes
    345
    Última Actividad
    18/06/2018 @ 14:51
    Nacionalidad
    Argentina

    Sexo
    Hombre

    Poder de reputación
    2

    Predeterminado Re: Annihilation (2018) 2160p 4k UHD HDR Dual Latino-Inglés [Subt. Esp] (Ciencia Ficción. Thriller)


  11. #10
    Gran Miembro
    Avatar de leuco88
    Fecha de ingreso
    22 ago, 15
    Mensajes
    821
    Última Actividad
    hoy @ 04:49
    Nacionalidad
    Mexico

    Sexo
    Hombre

    Poder de reputación
    3

    Predeterminado Re: Annihilation (2018) 2160p 4k UHD HDR Dual Latino-Inglés [Subt. Esp] (Ciencia Ficción. Thriller)

    gracias

  12. #11
    Gran Miembro
    Avatar de sosalexfame
    Fecha de ingreso
    10 jul, 15
    Ubicación
    Mexico
    Edad
    37
    Mensajes
    1,141
    Última Actividad
    hoy @ 01:52
    Nacionalidad
    Mexico

    Sexo
    Hombre

    Poder de reputación
    4

    Predeterminado Re: Annihilation (2018) 2160p 4k UHD HDR Dual Latino-Inglés [Subt. Esp] (Ciencia Ficción. Thriller)

    gracias

  13. #12
    Miembro Junior Avatar de nr140e
    Fecha de ingreso
    31 may, 18
    Edad
    37
    Mensajes
    5
    Última Actividad
    09/06/2018 @ 04:13
    Nacionalidad
    Mexico

    Sexo
    Hombre

    Poder de reputación
    1

    Predeterminado Re: Annihilation (2018) 2160p 4k UHD HDR Dual Latino-Inglés [Subt. Esp] (Ciencia Ficción. Thriller)

    gracias

  14. #13
    Gran Miembro
    Avatar de GASA2010
    Fecha de ingreso
    01 feb, 14
    Mensajes
    646
    Última Actividad
    Ayer @ 20:50
    Nacionalidad
    Macau

    Sexo
    Hombre

    Poder de reputación
    5

    Predeterminado Re: Annihilation (2018) 2160p 4k UHD HDR Dual Latino-Inglés [Subt. Esp] (Ciencia Ficción. Thriller)

    gracias

  15. #14
    Gran Miembro
    Avatar de x3ro
    Fecha de ingreso
    01 sep, 12
    Edad
    33
    Mensajes
    402
    Última Actividad
    Ayer @ 22:09
    Nacionalidad
    Chile


    Poder de reputación
    6

    Predeterminado Re: Annihilation (2018) 2160p 4k UHD HDR Dual Latino-Inglés [Subt. Esp] (Ciencia Ficción. Thriller)

    muchas gracias

  16. #15
    Miembro Destacado
    Avatar de cpola
    Fecha de ingreso
    25 feb, 14
    Edad
    50
    Mensajes
    2,044
    Última Actividad
    hoy @ 07:37
    Nacionalidad
    United States

    Sexo
    Hombre

    Poder de reputación
    7

    Predeterminado Re: Annihilation (2018) 2160p 4k UHD HDR Dual Latino-Inglés [Subt. Esp] (Ciencia Ficción. Thriller)

    Gracias

  17. #16
    Gran Miembro
    Avatar de adelgado
    Fecha de ingreso
    28 ago, 12
    Mensajes
    388
    Última Actividad
    18/06/2018 @ 20:36
    Nacionalidad
    Chile


    Poder de reputación
    6

    Predeterminado Re: Annihilation (2018) 2160p 4k UHD HDR Dual Latino-Inglés [Subt. Esp] (Ciencia Ficción. Thriller)

    Gracias

  18. #17
    Gran Miembro
    Avatar de fewac
    Fecha de ingreso
    26 abr, 13
    Mensajes
    1,240
    Última Actividad
    hoy @ 02:35
    Nacionalidad
    Mexico

    Sexo
    Hombre

    Poder de reputación
    7

    Predeterminado Re: Annihilation (2018) 2160p 4k UHD HDR Dual Latino-Inglés [Subt. Esp] (Ciencia Ficción. Thriller)

    Muchas gracias!!!

  19. #18
    Gran Miembro
    Avatar de gamerinoc
    Fecha de ingreso
    22 nov, 12
    Mensajes
    328
    Última Actividad
    07/06/2018 @ 23:23
    Nacionalidad
    Chile

    Sexo
    Hombre

    Poder de reputación
    6

    Predeterminado Re: Annihilation (2018) 2160p 4k UHD HDR Dual Latino-Inglés [Subt. Esp] (Ciencia Ficción. Thriller)

    GRACIASS

  20. #19
    Gran Miembro
    Avatar de troyano2010
    Fecha de ingreso
    20 may, 14
    Edad
    38
    Mensajes
    807
    Última Actividad
    08/06/2018 @ 21:37
    Nacionalidad
    Chile

    Sexo
    Hombre

    Poder de reputación
    7

    Predeterminado Re: Annihilation (2018) 2160p 4k UHD HDR Dual Latino-Inglés [Subt. Esp] (Ciencia Ficción. Thriller)


  21. #20
    Miembro Destacado
    Avatar de juniorgarabo
    Fecha de ingreso
    16 sep, 12
    Edad
    35
    Mensajes
    3,062
    Última Actividad
    17/06/2018 @ 22:30
    Nacionalidad
    Dominican Republic

    Sexo
    Hombre

    Poder de reputación
    24

    Predeterminado Re: Annihilation (2018) 2160p 4k UHD HDR Dual Latino-Inglés [Subt. Esp] (Ciencia Ficción. Thriller)


  22. #21
    Miembro Junior Avatar de Paja18
    Fecha de ingreso
    09 abr, 18
    Mensajes
    13
    Última Actividad
    09/06/2018 @ 18:59
    Nacionalidad
    Mexico

    Sexo
    Mujer

    Poder de reputación
    1

    Predeterminado Re: Annihilation (2018) 2160p 4k UHD HDR Dual Latino-Inglés [Subt. Esp] (Ciencia Ficción. Thriller)

    Descargando, muchas gracias!

  23. #22
    Miembro Destacado
    Avatar de ecuavideos
    Fecha de ingreso
    28 ago, 12
    Mensajes
    2,515
    Última Actividad
    16/06/2018 @ 11:15
    Nacionalidad
    Ecuador


    Poder de reputación
    8

    Predeterminado Re: Annihilation (2018) 2160p 4k UHD HDR Dual Latino-Inglés [Subt. Esp] (Ciencia Ficción. Thriller)

    gracias

  24. #23
    Miembro VIP en Club-HD!
    Avatar de LANINADULCE
    Fecha de ingreso
    28 ago, 12
    Edad
    39
    Mensajes
    2,810
    Última Actividad
    hoy @ 01:21
    Nacionalidad
    Mexico

    Sexo
    Hombre

    Poder de reputación
    13

    Predeterminado Re: Annihilation (2018) 2160p 4k UHD HDR Dual Latino-Inglés [Subt. Esp] (Ciencia Ficción. Thriller)


Información de tema

Usuarios viendo este tema

Actualmente hay 1 usuarios viendo este tema. (0 miembros y 1 visitantes)

Temas similares

  1. Respuestas: 98
    Último mensaje: 14/06/2018, 22:46
  2. Respuestas: 47
    Último mensaje: 10/06/2018, 20:54
  3. Respuestas: 35
    Último mensaje: 08/06/2018, 12:02
  4. Respuestas: 43
    Último mensaje: 05/06/2018, 15:51
  5. Respuestas: 120
    Último mensaje: 15/05/2018, 13:06

Miembros que han leído este tema: 61

Marcadores

Permisos de publicación

  • No puedes crear nuevos temas
  • No puedes responder temas
  • No puedes subir archivos adjuntos
  • No puedes editar tus mensajes
  •