Banner Uploaded Maria

Página 1 de 2 12 ÚltimoÚltimo
Resultados 1 al 25 de 49

Tema: Black Panther (2018) 2160p 4k UHD HDR Dual Latino-Inglés [Subt. Esp] (Acción. Fantástico)

  1. #1
    HD Brady

    Avatar de Brady
    Fecha de ingreso
    01 jun, 16
    Edad
    21
    Mensajes
    1,465
    Última Actividad
    hoy @ 16:19
    Nacionalidad
    Mexico

    Sexo
    Hombre

    Poder de reputación
    55

    Predeterminado Black Panther (2018) 2160p 4k UHD HDR Dual Latino-Inglés [Subt. Esp] (Acción. Fantástico)






    Título Original: Black Panther
    Año: 2018
    Duración: 134 min.
    País: United States
    Director: Ryan Coogler
    Guion: Joe Robert Cole, Ryan Coogler (Cómic: Jack Kirby, Stan Lee)
    Reparto: Chadwick Boseman, Michael B. Jordan, Lupita Nyong'o, Danai Gurira, Martin Freeman, Angela Bassett, Forest Whitaker, Andy Serkis, Winston Duke, Daniel Kaluuya, Sterling K. Brown, Florence Kasumba, Letitia Wright, Phylicia Rashad, Sydelle Noel, John Kani, Stan Lee
    Productora: Marvel Studios / Walt Disney Pictures
    Género: Acción. Fantástico. Aventuras | Superhéroes. Cómic. Marvel Comics. 3-D


    SINOPSIS
    “Black Panther" cuenta la historia de T'Challa quien, después de los acontecimientos de "Capitán América: Civil War", vuelve a casa, a la nación de Wakanda, aislada y muy avanzada tecnológicamente, para ser proclamado Rey. Pero la reaparición de un viejo enemigo pone a prueba el temple de T'Challa como Rey y Black Panther ya que se ve arrastrado a un conflicto que pone en peligro todo el destino de Wakanda y del mundo.

    TRAILER


    Datos Técnicos
    Video:
    MPEGH HEVC / 2160p / High Profile 5.1 / 11.0 mbps

    Audio:
    Español Latino / AC3 5.1/ 640 kbps / 48kHz / Bluray 4k
    Español Latino / E-AC3/Core 7.1/5.1/ 1024/576 kbps / 48kHz / Bluray 4k
    Inglés / TrueHD/Atmos 7.1 / 4327/7134 kbps / 48kHz / Bluray 4k
    Inglés / AC3 5.1/ 640 kbps / 48kHz / Bluray 4k

    Subs:
    Español Latino / Sup / Bluray 4k
    Español Latino Forzados / Sup / Bluray 4k
    Inglés / Sup / Bluray 4k


    Código:
    General
    Unique ID                                : 278465259111048252346559877182537505899 (0xD17E7545FFC676D051D2E66BB1A69C6B)
    Format                                   : Matroska
    Format version                           : Version 4 / Version 2
    File size                                : 16.7 GiB
    Duration                                 : 2 h 14 min
    Overall bit rate mode                    : Variable
    Overall bit rate                         : 17.7 Mb/s
    Encoded date                             : UTC 2018-05-15 02:13:02
    Writing application                      : mkvmerge v20.0.0 ('I Am The Sun') 64-bit
    Writing library                          : libebml v1.3.5 + libmatroska v1.4.8
    Uploader                                 : Brady
    Web                                      : www.club-hd.com
    
    Video
    ID                                       : 1
    Format                                   : HEVC
    Format/Info                              : High Efficiency Video Coding
    Format profile                           : Main 10@L5.1@High
    Codec ID                                 : V_MPEGH/ISO/HEVC
    Duration                                 : 2 h 14 min
    Bit rate                                 : 11.0 Mb/s
    Width                                    : 3 840 pixels
    Height                                   : 1 608 pixels
    Display aspect ratio                     : 2.40:1
    Frame rate mode                          : Constant
    Frame rate                               : 23.976 (24000/1001) FPS
    Color space                              : YUV
    Chroma subsampling                       : 4:2:0 (Type 2)
    Bit depth                                : 10 bits
    Bits/(Pixel*Frame)                       : 0.074
    Stream size                              : 10.3 GiB (62%)
    Writing library                          : x265 2.7+3-0b781d592c8e:[Windows][GCC 6.3.0][64 bit] 10bit
    Encoding settings                        : cpuid=1173503 / frame-threads=4 / numa-pools=16 / wpp / no-pmode / no-pme / no-psnr / no-ssim / log-level=2 / input-csp=1 / input-res=3840x1608 / interlace=0 / total-frames=193592 / level-idc=51 / high-tier=1 / uhd-bd=0 / ref=4 / no-allow-non-conformance / repeat-headers / annexb / aud / hrd / info / hash=0 / no-temporal-layers / no-open-gop / min-keyint=24 / keyint=240 / gop-lookahead=0 / bframes=4 / b-adapt=2 / b-pyramid / bframe-bias=0 / rc-lookahead=25 / lookahead-slices=4 / scenecut=40 / radl=0 / no-intra-refresh / ctu=64 / min-cu-size=8 / rect / no-amp / max-tu-size=32 / tu-inter-depth=1 / tu-intra-depth=1 / limit-tu=0 / rdoq-level=2 / dynamic-rd=0.00 / no-ssim-rd / signhide / no-tskip / nr-intra=0 / nr-inter=0 / no-constrained-intra / no-strong-intra-smoothing / max-merge=3 / limit-refs=3 / limit-modes / me=3 / subme=3 / merange=57 / temporal-mvp / weightp / no-weightb / no-analyze-src-pics / deblock=-3:-3 / no-sao / no-sao-non-deblock / rd=4 / no-early-skip / rskip / no-fast-intra / no-tskip-fast / no-cu-lossless / no-b-intra / no-splitrd-skip / rdpenalty=0 / psy-rd=2.00 / psy-rdoq=1.00 / no-rd-refine / no-lossless / cbqpoffs=0 / crqpoffs=0 / rc=crf / crf=17.0 / qcomp=0.60 / qpstep=4 / stats-write=0 / stats-read=0 / vbv-maxrate=160000 / vbv-bufsize=160000 / vbv-init=0.9 / crf-max=0.0 / crf-min=0.0 / ipratio=1.40 / pbratio=1.30 / aq-mode=1 / aq-strength=1.00 / cutree / zone-count=0 / no-strict-cbr / qg-size=32 / no-rc-grain / qpmax=69 / qpmin=0 / no-const-vbv / sar=1 / overscan=0 / videoformat=5 / range=0 / colorprim=9 / transfer=16 / colormatrix=9 / chromaloc=1 / chromaloc-top=2 / chromaloc-bottom=2 / display-window=0 / master-display=G(13250,34500)B(7500,3000)R(34000,16000)WP(15635,16450)L(10000000,1) / max-cll=0,0 / min-luma=0 / max-luma=1023 / log2-max-poc-lsb=8 / vui-timing-info / vui-hrd-info / slices=1 / no-opt-qp-pps / no-opt-ref-list-length-pps / no-multi-pass-opt-rps / scenecut-bias=0.05 / no-opt-cu-delta-qp / no-aq-motion / hdr / hdr-opt / no-dhdr10-opt / analysis-reuse-level=5 / scale-factor=0 / refine-intra=0 / refine-inter=0 / refine-mv=0 / no-limit-sao / ctu-info=0 / no-lowpass-dct / refine-mv-type=0 / copy-pic=1
    Language                                 : English
    Default                                  : Yes
    Forced                                   : No
    Color range                              : Limited
    Color primaries                          : BT.2020
    Transfer characteristics                 : PQ
    Matrix coefficients                      : BT.2020 non-constant
    Mastering display color primaries        : Display P3
    Mastering display luminance              : min: 0.0001 cd/m2, max: 1000 cd/m2
    
    Audio #1
    ID                                       : 2
    Format                                   : AC-3
    Format/Info                              : Audio Coding 3
    Codec ID                                 : A_AC3
    Duration                                 : 2 h 14 min
    Bit rate mode                            : Constant
    Bit rate                                 : 640 kb/s
    Channel(s)                               : 6 channels
    Channel positions                        : Front: L C R, Side: L R, LFE
    Sampling rate                            : 48.0 kHz
    Frame rate                               : 31.250 FPS (1536 SPF)
    Bit depth                                : 16 bits
    Compression mode                         : Lossy
    Stream size                              : 616 MiB (4%)
    Title                                    : Latino AC3 5.1 640 kbps Bluray 4k
    Language                                 : Latin
    Service kind                             : Complete Main
    Default                                  : Yes
    Forced                                   : No
    
    Audio #2
    ID                                       : 3
    Format                                   : E-AC-3
    Format/Info                              : Enhanced Audio Coding 3
    Codec ID                                 : A_EAC3
    Duration                                 : 2 h 14 min
    Bit rate mode                            : Constant
    Bit rate                                 : 500 b/s
    Channel(s)                               : 6 channels
    Channel positions                        : Front: L C R, Side: L R, LFE
    Sampling rate                            : 48.0 kHz
    Frame rate                               : 187.500 FPS (256 SPF)
    Compression mode                         : Lossy
    Stream size                              : 986 MiB (6%)
    Title                                    : Latino E-AC3/Core 7.1/5.1 1024/576 kbps Bluray 4k
    Language                                 : Latin
    Service kind                             : Complete Main
    Default                                  : No
    Forced                                   : No
    
    Audio #3
    ID                                       : 4
    Format                                   : TrueHD
    Format profile                           : TrueHD+Atmos / TrueHD
    Codec ID                                 : A_TRUEHD
    Duration                                 : 2 h 14 min
    Bit rate mode                            : Variable
    Bit rate                                 : 4 327 kb/s
    Maximum bit rate                         : 7 134 kb/s
    Channel(s)                               : Object Based / 8 channels
    Channel positions                        : Object Based / Front: L C R, Side: L R, Back: L R, LFE
    Sampling rate                            :  / 48.0 kHz
    Frame rate                               : 1 200.000 FPS (40 SPF)
    Compression mode                         : Lossless
    Stream size                              : 4.07 GiB (24%)
    Title                                    : Ingles TrueHD/Atmos 7.1 7134 kbps Bluray 4k
    Language                                 : English
    Default                                  : No
    Forced                                   : No
    
    Audio #4
    ID                                       : 5
    Format                                   : AC-3
    Format/Info                              : Audio Coding 3
    Codec ID                                 : A_AC3
    Duration                                 : 2 h 14 min
    Bit rate mode                            : Constant
    Bit rate                                 : 640 kb/s
    Channel(s)                               : 6 channels
    Channel positions                        : Front: L C R, Side: L R, LFE
    Sampling rate                            : 48.0 kHz
    Frame rate                               : 31.250 FPS (1536 SPF)
    Bit depth                                : 16 bits
    Compression mode                         : Lossy
    Stream size                              : 616 MiB (4%)
    Title                                    : Ingles AC3 5.1 640 kbps Bluray 4k
    Language                                 : English
    Service kind                             : Complete Main
    Default                                  : No
    Forced                                   : No
    
    Text #1
    ID                                       : 6
    Format                                   : PGS
    Muxing mode                              : zlib
    Codec ID                                 : S_HDMV/PGS
    Codec ID/Info                            : Picture based subtitle format used on BDs/HD-DVDs
    Duration                                 : 2 h 14 min
    Bit rate                                 : 26.9 kb/s
    Count of elements                        : 2906
    Stream size                              : 25.8 MiB (0%)
    Title                                    : Latino
    Language                                 : Latin
    Default                                  : No
    Forced                                   : No
    
    Text #2
    ID                                       : 7
    Format                                   : PGS
    Muxing mode                              : zlib
    Codec ID                                 : S_HDMV/PGS
    Codec ID/Info                            : Picture based subtitle format used on BDs/HD-DVDs
    Duration                                 : 2 h 10 min
    Bit rate                                 : 1 021 b/s
    Count of elements                        : 152
    Stream size                              : 980 KiB (0%)
    Title                                    : Forzados
    Language                                 : Latin
    Default                                  : Yes
    Forced                                   : No
    
    Text #3
    ID                                       : 8
    Format                                   : PGS
    Muxing mode                              : zlib
    Codec ID                                 : S_HDMV/PGS
    Codec ID/Info                            : Picture based subtitle format used on BDs/HD-DVDs
    Duration                                 : 2 h 14 min
    Bit rate                                 : 32.4 kb/s
    Count of elements                        : 3670
    Stream size                              : 31.0 MiB (0%)
    Title                                    : Ingles
    Language                                 : English
    Default                                  : No
    Forced                                   : No











    DESCARGA

    Links Intercambiables





    Compra tu Membresía VIP y apoya a Club-HD!

    Click Aquí para más información.

    ATENCIÓN! Finalmente tenemos TODO el material de Club-HD disponible por Mega, enlaces 100% activos y online hoy







    Compra tu Membresía VIP y apoya a Club-HD!

    Click Aquí para más información.

    ATENCIÓN! Finalmente tenemos TODO el material de Club-HD disponible por Mega, enlaces 100% activos y online hoy







    1. Primero, deben estár registrados, sino no habrá manera de que puedan ver los Enlaces.

    2. Una vez registrados, sólo deben dejar un simple comentario de Siete (7) letras/carácteres mínimo, o también un simple "Me gusta".

    Con eso ya podrán ver los links sin ningún problema.

    Nota: Usamos este sistema para proteger los links de Club-HD, y hasta la fecha funciona muy bien.





    1. Primero, deben estár registrados, sino no habrá manera de que puedan ver los Enlaces.

    2. Una vez registrados, sólo deben dejar un simple comentario de Siete (7) letras/carácteres mínimo, o también un simple "Me gusta".

    Con eso ya podrán ver los links sin ningún problema.

    Nota: Usamos este sistema para proteger los links de Club-HD, y hasta la fecha funciona muy bien.




    Código:
    www.club-hd.com
    Let's Go, Do Your Job.

    Si te gusta mi material en 4K, que mejor que una cuenta de uploaded premium para bajar sin limites y gozar de una pelicula en 4K HDR, no te pierdas esta gran oportunidad, solo ingresa al Banner de abajo y compra tu cuenta Uploaded Premium, no te arrepentiras

  2. Los siguientes 12 Usuarios dieron Me Gusta a Brady por este Post:

    alainol (15/05/2018),beaubinz (16/05/2018),Chris2000 (Ayer),cripp (15/05/2018),edelartem (15/05/2018),fire9194 (16/05/2018),flujo (15/05/2018),Frafel (15/05/2018),frmr (15/05/2018),Leo (16/05/2018),Mate78 (15/05/2018),oscarteach (16/05/2018)

  3. #2
    Miembro
    Avatar de B.A
    Fecha de ingreso
    12 mar, 18
    Edad
    19
    Mensajes
    60
    Última Actividad
    hoy @ 11:33
    Nacionalidad
    Mexico

    Sexo
    Hombre

    Poder de reputación
    1

    Predeterminado Re: Black Panther (2018) 2160p 4k UHD HDR Dual Latino-Inglés [Subt. Esp] (Acción. Fantástico)

    Aunque ya la tengo desde el fin de semana Gracias!!

  4. #3
    Miembro Destacado
    Avatar de Josiba
    Fecha de ingreso
    27 ago, 12
    Edad
    49
    Mensajes
    3,956
    Última Actividad
    hoy @ 16:13
    Nacionalidad
    Costa Rica


    Poder de reputación
    10

    Predeterminado Re: Black Panther (2018) 2160p 4k UHD HDR Dual Latino-Inglés [Subt. Esp] (Acción. Fantástico)


  5. #4
    Miembro Destacado
    Avatar de virus619
    Fecha de ingreso
    28 ago, 12
    Edad
    29
    Mensajes
    3,344
    Última Actividad
    hoy @ 16:16
    Nacionalidad
    Chile


    Poder de reputación
    10

    Predeterminado Re: Black Panther (2018) 2160p 4k UHD HDR Dual Latino-Inglés [Subt. Esp] (Acción. Fantástico)


  6. #5
    Miembro Destacado
    Avatar de tsubasa100
    Fecha de ingreso
    04 sep, 12
    Mensajes
    2,330
    Última Actividad
    15/05/2018 @ 18:40
    Nacionalidad
    Chile


    Poder de reputación
    8

    Predeterminado Re: Black Panther (2018) 2160p 4k UHD HDR Dual Latino-Inglés [Subt. Esp] (Acción. Fantástico)

    Gracias!

  7. #6
    Gran Miembro
    Avatar de GASA2010
    Fecha de ingreso
    01 feb, 14
    Mensajes
    628
    Última Actividad
    Ayer @ 13:15
    Nacionalidad
    Macau

    Sexo
    Hombre

    Poder de reputación
    5

    Predeterminado Re: Black Panther (2018) 2160p 4k UHD HDR Dual Latino-Inglés [Subt. Esp] (Acción. Fantástico)

    GRACIAS

  8. #7
    Miembro Destacado
    Avatar de PATRICIOG
    Fecha de ingreso
    29 may, 15
    Mensajes
    1,468
    Última Actividad
    hoy @ 10:49
    Nacionalidad
    Chile

    Sexo
    Hombre

    Poder de reputación
    5

    Predeterminado Re: Black Panther (2018) 2160p 4k UHD HDR Dual Latino-Inglés [Subt. Esp] (Acción. Fantástico)


  9. #8
    Gran Miembro
    Avatar de tzamxchel
    Fecha de ingreso
    28 ago, 12
    Edad
    29
    Mensajes
    657
    Última Actividad
    @
    Nacionalidad
    Mexico


    Poder de reputación
    6

    Predeterminado Re: Black Panther (2018) 2160p 4k UHD HDR Dual Latino-Inglés [Subt. Esp] (Acción. Fantástico)


  10. #9
    Gran Miembro
    Avatar de flujo
    Fecha de ingreso
    28 dic, 14
    Mensajes
    4,376
    Última Actividad
    hoy @ 14:03
    Nacionalidad
    Mexico

    Sexo
    Hombre

    Poder de reputación
    9

    Predeterminado Re: Black Panther (2018) 2160p 4k UHD HDR Dual Latino-Inglés [Subt. Esp] (Acción. Fantástico)

    gracias

  11. #10
    Miembro Destacado
    Avatar de NitroJ
    Fecha de ingreso
    27 ago, 12
    Edad
    31
    Mensajes
    243
    Última Actividad
    18/05/2018 @ 21:14
    Nacionalidad
    Argentina


    Poder de reputación
    6

    Predeterminado Re: Black Panther (2018) 2160p 4k UHD HDR Dual Latino-Inglés [Subt. Esp] (Acción. Fantástico)

    gracias por el aporte

  12. #11
    Miembro Junior Avatar de mario e
    Fecha de ingreso
    16 nov, 17
    Mensajes
    40
    Última Actividad
    Ayer @ 14:53
    Nacionalidad
    Mexico

    Sexo
    Hombre

    Poder de reputación
    1

    Predeterminado Re: Black Panther (2018) 2160p 4k UHD HDR Dual Latino-Inglés [Subt. Esp] (Acción. Fantástico)

    gracias!!

  13. #12
    Gran Miembro
    Avatar de jpabloy
    Fecha de ingreso
    21 sep, 12
    Edad
    36
    Mensajes
    359
    Última Actividad
    18/05/2018 @ 19:37
    Nacionalidad
    Colombia


    Poder de reputación
    6

    Predeterminado Re: Black Panther (2018) 2160p 4k UHD HDR Dual Latino-Inglés [Subt. Esp] (Acción. Fantástico)

    que buena pelicula

  14. #13
    Miembro Destacado
    Avatar de mdieter
    Fecha de ingreso
    03 jun, 15
    Mensajes
    575
    Última Actividad
    Ayer @ 20:41
    Nacionalidad
    Chile

    Sexo
    Hombre

    Poder de reputación
    4

    Predeterminado Re: Black Panther (2018) 2160p 4k UHD HDR Dual Latino-Inglés [Subt. Esp] (Acción. Fantástico)


  15. #14
    Miembro Destacado
    Avatar de cripp
    Fecha de ingreso
    27 ago, 12
    Mensajes
    5,313
    Última Actividad
    18/05/2018 @ 18:39
    Nacionalidad
    Costa Rica


    Poder de reputación
    13

    Predeterminado Re: Black Panther (2018) 2160p 4k UHD HDR Dual Latino-Inglés [Subt. Esp] (Acción. Fantástico)

    Gracias por compartir

  16. #15
    Gran Miembro
    Avatar de silnarvaez
    Fecha de ingreso
    10 jun, 13
    Mensajes
    549
    Última Actividad
    17/05/2018 @ 00:55
    Nacionalidad
    Chile

    Sexo
    Hombre

    Poder de reputación
    6

    Predeterminado Re: Black Panther (2018) 2160p 4k UHD HDR Dual Latino-Inglés [Subt. Esp] (Acción. Fantástico)

    gracias

  17. #16
    Gran Miembro
    Avatar de mmartelli
    Fecha de ingreso
    27 ago, 12
    Edad
    39
    Mensajes
    548
    Última Actividad
    Ayer @ 21:17
    Nacionalidad
    Argentina


    Poder de reputación
    6

    Predeterminado Re: Black Panther (2018) 2160p 4k UHD HDR Dual Latino-Inglés [Subt. Esp] (Acción. Fantástico)

    buenisimo

  18. #17
    Gran Miembro
    Avatar de Gibraine
    Fecha de ingreso
    09 jun, 16
    Mensajes
    217
    Última Actividad
    Ayer @ 13:38
    Nacionalidad
    Mexico

    Sexo
    Hombre

    Poder de reputación
    2

    Predeterminado Re: Black Panther (2018) 2160p 4k UHD HDR Dual Latino-Inglés [Subt. Esp] (Acción. Fantástico)

    Gracias!

  19. #18
    Gran Miembro
    Avatar de jmst1011
    Fecha de ingreso
    17 oct, 12
    Mensajes
    398
    Última Actividad
    16/05/2018 @ 00:05
    Nacionalidad
    Chile

    Sexo
    Hombre

    Poder de reputación
    6

    Predeterminado Re: Black Panther (2018) 2160p 4k UHD HDR Dual Latino-Inglés [Subt. Esp] (Acción. Fantástico)

    gracias

  20. #19
    Miembro Junior Avatar de francisco_28
    Fecha de ingreso
    16 abr, 16
    Edad
    30
    Mensajes
    48
    Última Actividad
    15/05/2018 @ 21:44
    Nacionalidad
    Chile

    Sexo
    Hombre

    Poder de reputación
    3

    Predeterminado Re: Black Panther (2018) 2160p 4k UHD HDR Dual Latino-Inglés [Subt. Esp] (Acción. Fantástico)

    excelente gracias

  21. #20
    Gran Miembro
    Avatar de iori_2700
    Fecha de ingreso
    26 abr, 15
    Mensajes
    190
    Última Actividad
    hoy @ 13:45
    Nacionalidad
    Mexico

    Sexo
    Hombre

    Poder de reputación
    4

    Predeterminado Re: Black Panther (2018) 2160p 4k UHD HDR Dual Latino-Inglés [Subt. Esp] (Acción. Fantástico)


  22. #21
    Gran Miembro
    Avatar de El14mago
    Fecha de ingreso
    10 sep, 14
    Edad
    49
    Mensajes
    637
    Última Actividad
    17/05/2018 @ 22:53
    Nacionalidad
    Argentina

    Sexo
    Hombre

    Poder de reputación
    4

    Predeterminado Re: Black Panther (2018) 2160p 4k UHD HDR Dual Latino-Inglés [Subt. Esp] (Acción. Fantástico)

    Gracias por el aporte.-

  23. #22
    Miembro Destacado
    Avatar de gibrannr1
    Fecha de ingreso
    25 ene, 16
    Mensajes
    228
    Última Actividad
    hoy @ 02:26
    Nacionalidad
    Mexico

    Sexo
    Hombre

    Poder de reputación
    3

    Predeterminado Re: Black Panther (2018) 2160p 4k UHD HDR Dual Latino-Inglés [Subt. Esp] (Acción. Fantástico)


  24. #23
    Gran Miembro
    Avatar de fewac
    Fecha de ingreso
    26 abr, 13
    Mensajes
    1,156
    Última Actividad
    Ayer @ 15:24
    Nacionalidad
    Mexico

    Sexo
    Hombre

    Poder de reputación
    7

    Predeterminado Re: Black Panther (2018) 2160p 4k UHD HDR Dual Latino-Inglés [Subt. Esp] (Acción. Fantástico)

    Muchas gracias!!!

  25. #24
    Gran Miembro
    Avatar de josefo08
    Fecha de ingreso
    14 abr, 14
    Edad
    46
    Mensajes
    1,094
    Última Actividad
    hoy @ 16:19
    Nacionalidad
    Colombia

    Sexo
    Hombre

    Poder de reputación
    6

    Predeterminado Re: Black Panther (2018) 2160p 4k UHD HDR Dual Latino-Inglés [Subt. Esp] (Acción. Fantástico)


  26. #25
    Miembro Destacado
    Avatar de canales5113
    Fecha de ingreso
    30 ago, 12
    Edad
    36
    Mensajes
    1,193
    Última Actividad
    Ayer @ 18:57
    Nacionalidad
    Honduras


    Poder de reputación
    7

    Predeterminado Re: Black Panther (2018) 2160p 4k UHD HDR Dual Latino-Inglés [Subt. Esp] (Acción. Fantástico)

    gracias

Información de tema

Usuarios viendo este tema

Actualmente hay 1 usuarios viendo este tema. (0 miembros y 1 visitantes)

Temas similares

  1. Respuestas: 433
    Último mensaje: hoy, 12:16
  2. Respuestas: 374
    Último mensaje: hoy, 02:23
  3. Respuestas: 135
    Último mensaje: Ayer, 15:13
  4. Black Panther (2018) Solo Audio Latino [AC3 5.1] [Extraido Del DVD]
    Por BryanTV en el foro Solo Audios Latinos.
    Respuestas: 142
    Último mensaje: 16/05/2018, 22:38
  5. Black Panther 2018 Trailer #2 Subtitulado
    Por Brady en el foro Trailers de Películas de los próximos estrenos!
    Respuestas: 0
    Último mensaje: 16/10/2017, 11:08

Miembros que han leído este tema: 131

Marcadores

Permisos de publicación

  • No puedes crear nuevos temas
  • No puedes responder temas
  • No puedes subir archivos adjuntos
  • No puedes editar tus mensajes
  •