Banner Uploaded Yon

Resultados 1 al 16 de 16

Tema: Gladiator (2000) EXTENDED REMASTERED 720p BDRip Dual Latino-Inglés [Subt. Esp] (Acción. Aventuras)

  1. #1
    HD Brady

    Avatar de Brady
    Fecha de ingreso
    01 jun, 16
    Edad
    21
    Mensajes
    1,465
    Última Actividad
    hoy @ 16:23
    Nacionalidad
    Mexico

    Sexo
    Hombre

    Poder de reputación
    55

    Predeterminado Gladiator (2000) EXTENDED REMASTERED 720p BDRip Dual Latino-Inglés [Subt. Esp] (Acción. Aventuras)






    Título Original: Gladiator
    Año: 2000
    Duración: 150 min.
    País: United States
    Director: Ridley Scott
    Guion: David Franzoni, John Logan, William Nicholson
    Reparto: Russell Crowe, Joaquin Phoenix, Connie Nielsen, Oliver Reed, Richard Harris, Ralf Moeller, Derek Jacobi, Djimon Hounsou, David Schofield, John Shrapnel, Spencer Treat Clark, Tomas Arana, David Hemmings, Tommy Flanagan, Sven-Ole Thorsen, Tony Curran, Giorgio Cantarini, Omid Djalili, Giannina Facio
    Productora: Coproducción Estados Unidos-Reino Unido; Universal Pictures / DreamWorks SKG / Scott Free Productions / Mill Film / C&L / Red Wagon Entertainment
    Género: Acción. Aventuras. Drama | Antigua Roma. Esclavitud. Venganza. Cine épico


    SINOPSIS
    En el año 180, el Imperio Romano domina todo el mundo conocido. Tras una gran victoria sobre los bárbaros del norte, el anciano emperador Marco Aurelio (Richard Harris) decide transferir el poder a Máximo (Russell Crowe), bravo general de sus ejércitos y hombre de inquebrantable lealtad al imperio. Pero su hijo Cómodo (Joaquin Phoenix), que aspiraba al trono, no lo acepta y trata de asesinar a Máximo.

    TRAILER


    Datos Técnicos
    Video:
    MPEG-4 AVC / 720p / High Profile 4.1 / 5730 kbps

    Audio:
    Español Latino / AC3 5.1/ 640 kbps / 48kHz / Bluray
    Inglés / AC3 5.1/ 640 kbps / 48kHz / Bluray

    Subs:
    Español Latino / Sup / Bluray
    Español Castellano Forzados / Sup / Bluray
    Inglés / Sup / Bluray


    Subtitulos Srt
    Creditos: clasaase



    Chapters
    Creditos: clasaase



    Código:
    General
    Unique ID                                : 23673576845217842921358954122285558602 (0x11CF5D7428B477BDC878094407822B4A)
    Format                                   : Matroska
    Format version                           : Version 4 / Version 2
    File size                                : 8.39 GiB
    Duration                                 : 2 h 50 min
    Overall bit rate                         : 7 026 kb/s
    Encoded date                             : UTC 2018-05-10 10:03:26
    Writing application                      : mkvmerge v20.0.0 ('I Am The Sun') 64-bit
    Writing library                          : libebml v1.3.5 + libmatroska v1.4.8
    Uploader                                 : Brady
    Web                                      : www.club-hd.com
    
    Video
    ID                                       : 1
    Format                                   : AVC
    Format/Info                              : Advanced Video Codec
    Format profile                           : High@L4.1
    Format settings                          : CABAC / 5 Ref Frames
    Format settings, CABAC                   : Yes
    Format settings, RefFrames               : 5 frames
    Codec ID                                 : V_MPEG4/ISO/AVC
    Duration                                 : 2 h 50 min
    Bit rate                                 : 5 730 kb/s
    Width                                    : 1 280 pixels
    Height                                   : 544 pixels
    Display aspect ratio                     : 2.35:1
    Frame rate mode                          : Constant
    Frame rate                               : 23.976 (24000/1001) FPS
    Color space                              : YUV
    Chroma subsampling                       : 4:2:0
    Bit depth                                : 8 bits
    Scan type                                : Progressive
    Bits/(Pixel*Frame)                       : 0.343
    Stream size                              : 6.84 GiB (82%)
    Writing library                          : x264 core 148 r2708 86b7198
    Encoding settings                        : cabac=1 / ref=5 / deblock=1:-1:-1 / analyse=0x3:0x113 / me=umh / subme=8 / psy=1 / psy_rd=1.00:0.15 / mixed_ref=1 / me_range=16 / chroma_me=1 / trellis=1 / 8x8dct=1 / cqm=0 / deadzone=21,11 / fast_pskip=1 / chroma_qp_offset=-3 / threads=6 / lookahead_threads=1 / sliced_threads=0 / nr=0 / decimate=1 / interlaced=0 / bluray_compat=0 / constrained_intra=0 / bframes=3 / b_pyramid=2 / b_adapt=2 / b_bias=0 / direct=3 / weightb=1 / open_gop=0 / weightp=2 / keyint=240 / keyint_min=24 / scenecut=40 / intra_refresh=0 / rc_lookahead=50 / rc=crf / mbtree=1 / crf=17.0 / qcomp=0.60 / qpmin=0 / qpmax=69 / qpstep=4 / vbv_maxrate=62500 / vbv_bufsize=78125 / crf_max=0.0 / nal_hrd=none / filler=0 / ip_ratio=1.40 / aq=1:1.00
    Language                                 : English
    Default                                  : Yes
    Forced                                   : No
    Color range                              : Limited
    Color primaries                          : BT.709
    Transfer characteristics                 : BT.709
    Matrix coefficients                      : BT.709
    
    Audio #1
    ID                                       : 2
    Format                                   : AC-3
    Format/Info                              : Audio Coding 3
    Codec ID                                 : A_AC3
    Duration                                 : 2 h 50 min
    Bit rate mode                            : Constant
    Bit rate                                 : 640 kb/s
    Channel(s)                               : 6 channels
    Channel positions                        : Front: L C R, Side: L R, LFE
    Sampling rate                            : 48.0 kHz
    Frame rate                               : 31.250 FPS (1536 SPF)
    Bit depth                                : 16 bits
    Compression mode                         : Lossy
    Stream size                              : 783 MiB (9%)
    Title                                    : Latino AC3 5.1 640 kbps Bluray
    Language                                 : Latin
    Service kind                             : Complete Main
    Default                                  : Yes
    Forced                                   : No
    
    Audio #2
    ID                                       : 3
    Format                                   : AC-3
    Format/Info                              : Audio Coding 3
    Codec ID                                 : A_AC3
    Duration                                 : 2 h 50 min
    Bit rate mode                            : Constant
    Bit rate                                 : 640 kb/s
    Channel(s)                               : 6 channels
    Channel positions                        : Front: L C R, Side: L R, LFE
    Sampling rate                            : 48.0 kHz
    Frame rate                               : 31.250 FPS (1536 SPF)
    Bit depth                                : 16 bits
    Compression mode                         : Lossy
    Stream size                              : 783 MiB (9%)
    Title                                    : Ingles AC3 5.1 640 kbps Bluray
    Language                                 : English
    Service kind                             : Complete Main
    Default                                  : No
    Forced                                   : No
    
    Text #1
    ID                                       : 4
    Format                                   : PGS
    Muxing mode                              : zlib
    Codec ID                                 : S_HDMV/PGS
    Codec ID/Info                            : Picture based subtitle format used on BDs/HD-DVDs
    Duration                                 : 2 h 49 min
    Bit rate                                 : 21.4 kb/s
    Count of elements                        : 2670
    Stream size                              : 26.0 MiB (0%)
    Title                                    : Latino
    Language                                 : Latin
    Default                                  : No
    Forced                                   : No
    
    Text #2
    ID                                       : 5
    Format                                   : PGS
    Muxing mode                              : zlib
    Codec ID                                 : S_HDMV/PGS
    Codec ID/Info                            : Picture based subtitle format used on BDs/HD-DVDs
    Duration                                 : 2 h 45 min
    Bit rate                                 : 285 b/s
    Count of elements                        : 24
    Stream size                              : 346 KiB (0%)
    Title                                    : Forzados
    Language                                 : Latin
    Default                                  : Yes
    Forced                                   : No
    
    Text #3
    ID                                       : 6
    Format                                   : PGS
    Muxing mode                              : zlib
    Codec ID                                 : S_HDMV/PGS
    Codec ID/Info                            : Picture based subtitle format used on BDs/HD-DVDs
    Duration                                 : 2 h 41 min
    Bit rate                                 : 25.9 kb/s
    Count of elements                        : 3250
    Stream size                              : 29.8 MiB (0%)
    Title                                    : Ingles
    Language                                 : English
    Default                                  : No
    Forced                                   : No









    DESCARGA

    Links Intercambiables





    Compra tu Membresía VIP y apoya a Club-HD!

    Click Aquí para más información.

    ATENCIÓN! Finalmente tenemos TODO el material de Club-HD disponible por Mega, enlaces 100% activos y online hoy







    Compra tu Membresía VIP y apoya a Club-HD!

    Click Aquí para más información.

    ATENCIÓN! Finalmente tenemos TODO el material de Club-HD disponible por Mega, enlaces 100% activos y online hoy







    1. Primero, deben estár registrados, sino no habrá manera de que puedan ver los Enlaces.

    2. Una vez registrados, sólo deben dejar un simple comentario de Siete (7) letras/carácteres mínimo, o también un simple "Me gusta".

    Con eso ya podrán ver los links sin ningún problema.

    Nota: Usamos este sistema para proteger los links de Club-HD, y hasta la fecha funciona muy bien.





    1. Primero, deben estár registrados, sino no habrá manera de que puedan ver los Enlaces.

    2. Una vez registrados, sólo deben dejar un simple comentario de Siete (7) letras/carácteres mínimo, o también un simple "Me gusta".

    Con eso ya podrán ver los links sin ningún problema.

    Nota: Usamos este sistema para proteger los links de Club-HD, y hasta la fecha funciona muy bien.




    Código:
    www.club-hd.com
    Let's Go, Do Your Job.

    Si te gusta mi material en 4K, que mejor que una cuenta de uploaded premium para bajar sin limites y gozar de una pelicula en 4K HDR, no te pierdas esta gran oportunidad, solo ingresa al Banner de abajo y compra tu cuenta Uploaded Premium, no te arrepentiras

  2. Los siguientes 8 Usuarios dieron Me Gusta a Brady por este Post:

    cripp (11/05/2018),DavePR (14/05/2018),elpiquetero (11/05/2018),Ezze (11/05/2018),flujo (11/05/2018),koselucho (12/05/2018),Leo (12/05/2018),valenciameister (15/05/2018)

  3. #2
    Gran Miembro
    Avatar de flujo
    Fecha de ingreso
    28 dic, 14
    Mensajes
    4,376
    Última Actividad
    hoy @ 14:03
    Nacionalidad
    Mexico

    Sexo
    Hombre

    Poder de reputación
    9

    Predeterminado Re: Gladiator (2000) EXTENDED REMASTERED 720p BDRip Dual Latino-Inglés [Subt. Esp] (Acción. Aventuras)

    gracias

  4. #3
    Miembro Destacado
    Avatar de cripp
    Fecha de ingreso
    27 ago, 12
    Mensajes
    5,313
    Última Actividad
    18/05/2018 @ 18:39
    Nacionalidad
    Costa Rica


    Poder de reputación
    13

    Predeterminado Re: Gladiator (2000) EXTENDED REMASTERED 720p BDRip Dual Latino-Inglés [Subt. Esp] (Acción. Aventuras)

    Gracias por compartir

  5. #4
    Miembro Destacado
    Avatar de virus619
    Fecha de ingreso
    28 ago, 12
    Edad
    29
    Mensajes
    3,344
    Última Actividad
    hoy @ 16:16
    Nacionalidad
    Chile


    Poder de reputación
    10

    Predeterminado Re: Gladiator (2000) EXTENDED REMASTERED 720p BDRip Dual Latino-Inglés [Subt. Esp] (Acción. Aventuras)


  6. #5
    Miembro Destacado
    Avatar de bbto_77
    Fecha de ingreso
    02 sep, 12
    Ubicación
    Guadalajara
    Edad
    27
    Mensajes
    2,399
    Última Actividad
    Ayer @ 22:59
    Nacionalidad
    Mexico

    Sexo
    Hombre

    Poder de reputación
    49

    Predeterminado Re: Gladiator (2000) EXTENDED REMASTERED 720p BDRip Dual Latino-Inglés [Subt. Esp] (Acción. Aventuras)



    ۩ .r.e.a.l. м.a.d.r.ι.d. .c.ғ.™ ۩

    GRACIAS CLUB HD

  7. #6
    Ezze
    Avatar de Ezze
    Fecha de ingreso
    28 ago, 12
    Ubicación
    En la Torre de Observación
    Mensajes
    1,659
    Última Actividad
    @
    Nacionalidad
    Argentina

    Sexo
    Hombre

    Poder de reputación
    31

    Predeterminado Re: Gladiator (2000) EXTENDED REMASTERED 720p BDRip Dual Latino-Inglés [Subt. Esp] (Acción. Aventuras)

    Gracias, gracias
    Todos son importantes en Club-HD... Cuiden sus cuentas Saludos

  8. #7
    Gran Miembro
    Avatar de greenwoodiana
    Fecha de ingreso
    27 ago, 12
    Mensajes
    2,455
    Última Actividad
    hoy @ 13:48
    Nacionalidad
    Mexico


    Poder de reputación
    8

    Predeterminado Re: Gladiator (2000) EXTENDED REMASTERED 720p BDRip Dual Latino-Inglés [Subt. Esp] (Acción. Aventuras)


  9. #8
    Miembro Destacado
    Avatar de March45
    Fecha de ingreso
    27 ago, 12
    Mensajes
    1,213
    Última Actividad
    hoy @ 11:15
    Nacionalidad
    Ecuador


    Poder de reputación
    7

    Predeterminado Re: Gladiator (2000) EXTENDED REMASTERED 720p BDRip Dual Latino-Inglés [Subt. Esp] (Acción. Aventuras)


  10. #9
    Miembro Destacado
    Avatar de damisaiyan
    Fecha de ingreso
    27 ago, 12
    Edad
    29
    Mensajes
    421
    Última Actividad
    17/05/2018 @ 02:10
    Nacionalidad
    Mexico

    Sexo
    Hombre

    Poder de reputación
    6

    Predeterminado Re: Gladiator (2000) EXTENDED REMASTERED 720p BDRip Dual Latino-Inglés [Subt. Esp] (Acción. Aventuras)

    wow una version remasterizada, sin duda es un super aporte muchas gracias por compartirlo

  11. #10
    Gran Miembro
    Avatar de ThePredator
    Fecha de ingreso
    27 ago, 12
    Ubicación
    James Craik
    Edad
    24
    Mensajes
    1,015
    Última Actividad
    hoy @ 08:31
    Nacionalidad
    Argentina

    Sexo
    Hombre

    Poder de reputación
    7

    Predeterminado Re: Gladiator (2000) EXTENDED REMASTERED 720p BDRip Dual Latino-Inglés [Subt. Esp] (Acción. Aventuras)


  12. #11
    Miembro Destacado
    Avatar de RagazzoRosso
    Fecha de ingreso
    08 sep, 12
    Edad
    34
    Mensajes
    416
    Última Actividad
    hoy @ 13:10
    Nacionalidad
    Mexico


    Poder de reputación
    6

    Predeterminado Re: Gladiator (2000) EXTENDED REMASTERED 720p BDRip Dual Latino-Inglés [Subt. Esp] (Acción. Aventuras)


  13. #12
    Gran Miembro
    Avatar de Piggy
    Fecha de ingreso
    27 ago, 15
    Mensajes
    501
    Última Actividad
    Ayer @ 13:53
    Nacionalidad
    Mexico

    Sexo
    Hombre

    Poder de reputación
    3

    Predeterminado Re: Gladiator (2000) EXTENDED REMASTERED 720p BDRip Dual Latino-Inglés [Subt. Esp] (Acción. Aventuras)

    Muchas gracias por este aporte

  14. #13
    Miembro Destacado
    Avatar de raul2176
    Fecha de ingreso
    27 ago, 12
    Mensajes
    915
    Última Actividad
    14/05/2018 @ 01:00
    Nacionalidad
    Mexico


    Poder de reputación
    6

    Predeterminado Re: Gladiator (2000) EXTENDED REMASTERED 720p BDRip Dual Latino-Inglés [Subt. Esp] (Acción. Aventuras)


  15. #14
    Miembro Destacado
    Avatar de DavePR
    Fecha de ingreso
    14 sep, 12
    Mensajes
    2,696
    Última Actividad
    15/05/2018 @ 08:23
    Nacionalidad
    Puerto Rico


    Poder de reputación
    8

    Predeterminado Re: Gladiator (2000) EXTENDED REMASTERED 720p BDRip Dual Latino-Inglés [Subt. Esp] (Acción. Aventuras)

    Gracias

  16. #15
    Miembro Destacado
    Avatar de jererado
    Fecha de ingreso
    11 jul, 14
    Edad
    38
    Mensajes
    597
    Última Actividad
    18/05/2018 @ 15:10
    Nacionalidad
    Peru

    Sexo
    Hombre

    Poder de reputación
    4

    Predeterminado Re: Gladiator (2000) EXTENDED REMASTERED 720p BDRip Dual Latino-Inglés [Subt. Esp] (Acción. Aventuras)

    Gracias

  17. #16
    Miembro Destacado
    Avatar de proveedores
    Fecha de ingreso
    17 nov, 12
    Mensajes
    1,336
    Última Actividad
    hoy @ 01:31
    Nacionalidad
    Chile

    Sexo
    Mujer

    Poder de reputación
    7

    Predeterminado Re: Gladiator (2000) EXTENDED REMASTERED 720p BDRip Dual Latino-Inglés [Subt. Esp] (Acción. Aventuras)

    Gracias

Información de tema

Usuarios viendo este tema

Actualmente hay 1 usuarios viendo este tema. (0 miembros y 1 visitantes)

Temas similares

  1. Respuestas: 276
    Último mensaje: 15/05/2018, 10:44

Miembros que han leído este tema: 34

Marcadores

Permisos de publicación

  • No puedes crear nuevos temas
  • No puedes responder temas
  • No puedes subir archivos adjuntos
  • No puedes editar tus mensajes
  •