Banner Uploaded WHEELS

Resultados 1 al 20 de 20

Tema: Peter Rabbit (2018) 2160p 4k UHD HDR Dual Latino-Inglés [Subt. Esp] (Animación. Comedia)

  1. #1
    HD Brady

    Avatar de Brady
    Fecha de ingreso
    01 jun, 16
    Edad
    21
    Mensajes
    1,470
    Última Actividad
    hoy @ 12:40
    Nacionalidad
    Mexico

    Sexo
    Hombre

    Poder de reputación
    57

    Predeterminado Peter Rabbit (2018) 2160p 4k UHD HDR Dual Latino-Inglés [Subt. Esp] (Animación. Comedia)






    Título Original: Peter Rabbit
    Año: 2018
    Duración: 95 min.
    País: United States
    Director: Will Gluck
    Guion: Will Gluck, Rob Lieber (Libros: Beatrix Potter)
    Reparto: Animation, Domhnall Gleeson, Rose Byrne, Sam Neill, Sia, Bernardo Santos, Deborah Rock, Jill Buchanan, Vauxhall Jermaine, Ty Hurley
    Productora: Coproducción Estados Unidos-Australia; Sony Pictures Animation / Animal Logic Entertainment / Olive Bridge Entertainment / Animal Logic / ColumbiaColor
    Género: Animación. Comedia. Infantil | Cine familiar


    SINOPSIS
    Adaptación del cuento clásico de Beatrix Potter de un conejo rebelde y de lo más revoltoso que intenta hacerse con el control de la huerta de un granjero.

    TRAILER


    Datos Técnicos
    Video:
    MPEGH HEVC / 2160p / High Profile 5.1 / 14.5 mbps

    Audio:
    Español Latino / AC3 5.1/ 640 kbps / 48kHz / Bluray 4k
    Inglés / TrueHD/Atmos 7.1 / 4603/8133 kbps / 48kHz / Bluray 4k
    Inglés / AC3 5.1/ 640 kbps / 48kHz / Bluray 4k

    Subs:
    Español Latino / SubRip / Bluray 4k
    Español Latino / Sup / Bluray 4k
    Inglés / Sup / Bluray 4k


    Código:
    General
    Unique ID                                : 316833102200631791728638310082632222096 (0xEE5BD5FCE542A04828C2E4D6DF980590)
    Format                                   : Matroska
    Format version                           : Version 4 / Version 2
    File size                                : 13.6 GiB
    Duration                                 : 1 h 34 min
    Overall bit rate mode                    : Variable
    Overall bit rate                         : 20.5 Mb/s
    Encoded date                             : UTC 2018-05-08 10:24:29
    Writing application                      : mkvmerge v20.0.0 ('I Am The Sun') 64-bit
    Writing library                          : libebml v1.3.5 + libmatroska v1.4.8
    Uploader                                 : Brady
    Web                                      : www.club-hd.com
    
    Video
    ID                                       : 1
    Format                                   : HEVC
    Format/Info                              : High Efficiency Video Coding
    Format profile                           : Main 10@L5.1@High
    Codec ID                                 : V_MPEGH/ISO/HEVC
    Duration                                 : 1 h 34 min
    Bit rate                                 : 14.5 Mb/s
    Width                                    : 3 840 pixels
    Height                                   : 1 606 pixels
    Display aspect ratio                     : 2.40:1
    Frame rate mode                          : Constant
    Frame rate                               : 23.976 (24000/1001) FPS
    Color space                              : YUV
    Chroma subsampling                       : 4:2:0 (Type 2)
    Bit depth                                : 10 bits
    Bits/(Pixel*Frame)                       : 0.098
    Stream size                              : 9.61 GiB (71%)
    Writing library                          : x265 2.7+336-07defe235cde:[Windows][GCC 6.3.0][64 bit] 10bit
    Encoding settings                        : cpuid=1111039 / frame-threads=5 / numa-pools=36 / wpp / no-pmode / no-pme / no-psnr / no-ssim / log-level=2 / input-csp=1 / input-res=3840x1606 / interlace=0 / total-frames=136248 / level-idc=51 / high-tier=1 / uhd-bd=0 / ref=4 / no-allow-non-conformance / repeat-headers / annexb / aud / hrd / info / hash=0 / no-temporal-layers / no-open-gop / min-keyint=1 / keyint=24 / gop-lookahead=0 / bframes=4 / b-adapt=2 / b-pyramid / bframe-bias=0 / rc-lookahead=25 / lookahead-slices=4 / scenecut=40 / radl=0 / no-intra-refresh / ctu=64 / min-cu-size=8 / rect / no-amp / max-tu-size=32 / tu-inter-depth=1 / tu-intra-depth=1 / limit-tu=0 / rdoq-level=2 / dynamic-rd=0.00 / no-ssim-rd / signhide / no-tskip / nr-intra=0 / nr-inter=0 / no-constrained-intra / no-strong-intra-smoothing / max-merge=3 / limit-refs=3 / limit-modes / me=3 / subme=3 / merange=57 / temporal-mvp / weightp / no-weightb / no-analyze-src-pics / deblock=-3:-3 / no-sao / no-sao-non-deblock / rd=4 / no-early-skip / rskip / no-fast-intra / no-tskip-fast / no-cu-lossless / no-b-intra / no-splitrd-skip / rdpenalty=0 / psy-rd=2.00 / psy-rdoq=1.00 / no-rd-refine / no-lossless / cbqpoffs=0 / crqpoffs=0 / rc=crf / crf=17.0 / qcomp=0.60 / qpstep=4 / stats-write=0 / stats-read=0 / vbv-maxrate=160000 / vbv-bufsize=160000 / vbv-init=0.9 / crf-max=0.0 / crf-min=0.0 / ipratio=1.40 / pbratio=1.30 / aq-mode=1 / aq-strength=1.00 / cutree / zone-count=0 / no-strict-cbr / qg-size=32 / no-rc-grain / qpmax=69 / qpmin=0 / no-const-vbv / sar=1 / overscan=0 / videoformat=5 / range=0 / colorprim=9 / transfer=16 / colormatrix=9 / chromaloc=1 / chromaloc-top=2 / chromaloc-bottom=2 / display-window=0 / master-display=G(13250,34500)B(7500,3000)R(34000,16000)WP(15635,16450)L(40000000,50) / max-cll=3991,240 / min-luma=0 / max-luma=1023 / log2-max-poc-lsb=8 / vui-timing-info / vui-hrd-info / slices=1 / no-opt-qp-pps / no-opt-ref-list-length-pps / no-multi-pass-opt-rps / scenecut-bias=0.05 / no-opt-cu-delta-qp / no-aq-motion / hdr / hdr-opt / no-dhdr10-opt / no-idr-recovery-sei / analysis-reuse-level=5 / scale-factor=0 / refine-intra=0 / refine-inter=0 / refine-mv=0 / no-limit-sao / ctu-info=0 / no-lowpass-dct / refine-mv-type=0 / copy-pic=1 / max-ausize-factor=1.0 / no-dynamic-refine / no-single-sei
    Language                                 : English
    Default                                  : Yes
    Forced                                   : No
    Color range                              : Limited
    Color primaries                          : BT.2020
    Transfer characteristics                 : PQ
    Matrix coefficients                      : BT.2020 non-constant
    Mastering display color primaries        : Display P3
    Mastering display luminance              : min: 0.0050 cd/m2, max: 4000 cd/m2
    Maximum Content Light Level              : 3991 cd/m2
    Maximum Frame-Average Light Level        : 240 cd/m2
    
    Audio #1
    ID                                       : 2
    Format                                   : AC-3
    Format/Info                              : Audio Coding 3
    Codec ID                                 : A_AC3
    Duration                                 : 1 h 34 min
    Bit rate mode                            : Constant
    Bit rate                                 : 640 kb/s
    Channel(s)                               : 6 channels
    Channel positions                        : Front: L C R, Side: L R, LFE
    Sampling rate                            : 48.0 kHz
    Frame rate                               : 31.250 FPS (1536 SPF)
    Bit depth                                : 16 bits
    Compression mode                         : Lossy
    Stream size                              : 434 MiB (3%)
    Title                                    : Latino AC3 5.1 640 kbps Bluray 4k
    Language                                 : Latin
    Service kind                             : Complete Main
    Default                                  : Yes
    Forced                                   : No
    
    Audio #2
    ID                                       : 3
    Format                                   : TrueHD
    Format profile                           : TrueHD+Atmos / TrueHD
    Codec ID                                 : A_TRUEHD
    Duration                                 : 1 h 34 min
    Bit rate mode                            : Variable
    Bit rate                                 : 4 603 kb/s
    Maximum bit rate                         : 8 133 kb/s
    Channel(s)                               : Object Based / 8 channels
    Channel positions                        : Object Based / Front: L C R, Side: L R, Back: L R, LFE
    Sampling rate                            :  / 48.0 kHz
    Frame rate                               : 1 200.000 FPS (40 SPF)
    Compression mode                         : Lossless
    Stream size                              : 3.05 GiB (22%)
    Title                                    : Ingles TrueHD/Atmos 7.1 4603/8133
    Language                                 : English
    Default                                  : No
    Forced                                   : No
    
    Audio #3
    ID                                       : 4
    Format                                   : AC-3
    Format/Info                              : Audio Coding 3
    Codec ID                                 : A_AC3
    Duration                                 : 1 h 34 min
    Bit rate mode                            : Constant
    Bit rate                                 : 640 kb/s
    Channel(s)                               : 6 channels
    Channel positions                        : Front: L C R, Side: L R, LFE
    Sampling rate                            : 48.0 kHz
    Frame rate                               : 31.250 FPS (1536 SPF)
    Bit depth                                : 16 bits
    Compression mode                         : Lossy
    Stream size                              : 434 MiB (3%)
    Title                                    : Ingles AC3 5.1 640 kbps Bluray 4k
    Language                                 : English
    Service kind                             : Complete Main
    Default                                  : No
    Forced                                   : No
    
    Text #1
    ID                                       : 5
    Format                                   : UTF-8
    Codec ID                                 : S_TEXT/UTF8
    Codec ID/Info                            : UTF-8 Plain Text
    Duration                                 : 1 h 25 min
    Bit rate                                 : 68 b/s
    Count of elements                        : 1252
    Stream size                              : 42.9 KiB (0%)
    Title                                    : Latino
    Language                                 : Latin
    Default                                  : No
    Forced                                   : No
    
    Text #2
    ID                                       : 6
    Format                                   : PGS
    Muxing mode                              : zlib
    Codec ID                                 : S_HDMV/PGS
    Codec ID/Info                            : Picture based subtitle format used on BDs/HD-DVDs
    Duration                                 : 1 h 33 min
    Bit rate                                 : 45.5 kb/s
    Count of elements                        : 2512
    Stream size                              : 30.5 MiB (0%)
    Title                                    : Latino
    Language                                 : Latin
    Default                                  : No
    Forced                                   : No
    
    Text #3
    ID                                       : 7
    Format                                   : PGS
    Muxing mode                              : zlib
    Codec ID                                 : S_HDMV/PGS
    Codec ID/Info                            : Picture based subtitle format used on BDs/HD-DVDs
    Duration                                 : 1 h 26 min
    Bit rate                                 : 53.8 kb/s
    Count of elements                        : 3082
    Stream size                              : 33.1 MiB (0%)
    Title                                    : Ingles
    Language                                 : English
    Default                                  : No











    DESCARGA

    Links Intercambiables





    Compra tu Membresía VIP y apoya a Club-HD!

    Click Aquí para más información.

    ATENCIÓN! Finalmente tenemos TODO el material de Club-HD disponible por Mega, enlaces 100% activos y online hoy







    Compra tu Membresía VIP y apoya a Club-HD!

    Click Aquí para más información.

    ATENCIÓN! Finalmente tenemos TODO el material de Club-HD disponible por Mega, enlaces 100% activos y online hoy







    1. Primero, deben estár registrados, sino no habrá manera de que puedan ver los Enlaces.

    2. Una vez registrados, sólo deben dejar un simple comentario de Siete (7) letras/carácteres mínimo, o también un simple "Me gusta".

    Con eso ya podrán ver los links sin ningún problema.

    Nota: Usamos este sistema para proteger los links de Club-HD, y hasta la fecha funciona muy bien.





    1. Primero, deben estár registrados, sino no habrá manera de que puedan ver los Enlaces.

    2. Una vez registrados, sólo deben dejar un simple comentario de Siete (7) letras/carácteres mínimo, o también un simple "Me gusta".

    Con eso ya podrán ver los links sin ningún problema.

    Nota: Usamos este sistema para proteger los links de Club-HD, y hasta la fecha funciona muy bien.




    Código:
    www.club-hd.com
    Let's Go, Do Your Job.

    Si te gusta mi material en 4K, que mejor que una cuenta de uploaded premium para bajar sin limites y gozar de una pelicula en 4K HDR, no te pierdas esta gran oportunidad, solo ingresa al Banner de abajo y compra tu cuenta Uploaded Premium, no te arrepentiras

  2. Los siguientes 4 Usuarios dieron Me Gusta a Brady por este Post:

    beaubinz (13/05/2018),cripp (11/05/2018),flujo (11/05/2018),Leo (12/05/2018)

  3. #2
    Gran Miembro
    Avatar de frmr
    Fecha de ingreso
    25 jun, 14
    Mensajes
    467
    Última Actividad
    hoy @ 01:20
    Nacionalidad
    Chile

    Sexo
    Hombre

    Poder de reputación
    4

    Predeterminado Re: Peter Rabbit (2018) 2160p 4k UHD HDR Dual Latino-Inglés [Subt. Esp] (Animación. Comedia)

    Gracias por el aporte

  4. #3
    Miembro Destacado
    Avatar de joelmax18
    Fecha de ingreso
    28 ago, 12
    Edad
    38
    Mensajes
    1,424
    Última Actividad
    Ayer @ 12:52
    Nacionalidad
    Dominican Republic


    Poder de reputación
    7

    Predeterminado Re: Peter Rabbit (2018) 2160p 4k UHD HDR Dual Latino-Inglés [Subt. Esp] (Animación. Comedia)

    gracias

  5. #4
    Gran Miembro
    Avatar de flujo
    Fecha de ingreso
    28 dic, 14
    Mensajes
    4,409
    Última Actividad
    hoy @ 14:31
    Nacionalidad
    Mexico

    Sexo
    Hombre

    Poder de reputación
    9

    Predeterminado Re: Peter Rabbit (2018) 2160p 4k UHD HDR Dual Latino-Inglés [Subt. Esp] (Animación. Comedia)

    gracias

  6. #5
    Miembro Destacado
    Avatar de Josiba
    Fecha de ingreso
    27 ago, 12
    Edad
    49
    Mensajes
    3,982
    Última Actividad
    hoy @ 17:15
    Nacionalidad
    Costa Rica


    Poder de reputación
    10

    Predeterminado Re: Peter Rabbit (2018) 2160p 4k UHD HDR Dual Latino-Inglés [Subt. Esp] (Animación. Comedia)


  7. #6
    Miembro Destacado
    Avatar de cripp
    Fecha de ingreso
    27 ago, 12
    Mensajes
    5,339
    Última Actividad
    hoy @ 14:45
    Nacionalidad
    Costa Rica


    Poder de reputación
    14

    Predeterminado Re: Peter Rabbit (2018) 2160p 4k UHD HDR Dual Latino-Inglés [Subt. Esp] (Animación. Comedia)

    Gracias por compartir

  8. #7
    Gran Miembro
    Avatar de GASA2010
    Fecha de ingreso
    01 feb, 14
    Mensajes
    628
    Última Actividad
    hoy @ 16:41
    Nacionalidad
    Macau

    Sexo
    Hombre

    Poder de reputación
    5

    Predeterminado Re: Peter Rabbit (2018) 2160p 4k UHD HDR Dual Latino-Inglés [Subt. Esp] (Animación. Comedia)

    GRACIAS

  9. #8
    Miembro Destacado
    Avatar de virus619
    Fecha de ingreso
    28 ago, 12
    Edad
    29
    Mensajes
    3,357
    Última Actividad
    hoy @ 08:16
    Nacionalidad
    Chile


    Poder de reputación
    10

    Predeterminado Re: Peter Rabbit (2018) 2160p 4k UHD HDR Dual Latino-Inglés [Subt. Esp] (Animación. Comedia)


  10. #9
    Miembro Destacado
    Avatar de JCAvila
    Fecha de ingreso
    07 sep, 12
    Edad
    38
    Mensajes
    3,607
    Última Actividad
    hoy @ 16:25
    Nacionalidad
    Mexico


    Poder de reputación
    10

    Predeterminado Re: Peter Rabbit (2018) 2160p 4k UHD HDR Dual Latino-Inglés [Subt. Esp] (Animación. Comedia)

    gracias!

  11. #10
    Miembro VIP en Club-HD!
    Avatar de LANINADULCE
    Fecha de ingreso
    28 ago, 12
    Edad
    39
    Mensajes
    2,779
    Última Actividad
    hoy @ 03:31
    Nacionalidad
    Mexico

    Sexo
    Hombre

    Poder de reputación
    13

    Predeterminado Re: Peter Rabbit (2018) 2160p 4k UHD HDR Dual Latino-Inglés [Subt. Esp] (Animación. Comedia)


  12. #11
    Miembro VIP en Club-HD!
    Avatar de novatoxp
    Fecha de ingreso
    05 sep, 12
    Mensajes
    3,944
    Última Actividad
    hoy @ 15:01
    Nacionalidad
    Peru

    Sexo
    Hombre

    Poder de reputación
    10

    Predeterminado Re: Peter Rabbit (2018) 2160p 4k UHD HDR Dual Latino-Inglés [Subt. Esp] (Animación. Comedia)


  13. #12
    Miembro Destacado
    Avatar de el bodoke
    Fecha de ingreso
    26 sep, 15
    Mensajes
    353
    Última Actividad
    23/05/2018 @ 18:14
    Nacionalidad
    United States

    Sexo
    Hombre

    Poder de reputación
    3

    Predeterminado Re: Peter Rabbit (2018) 2160p 4k UHD HDR Dual Latino-Inglés [Subt. Esp] (Animación. Comedia)

    gracias por compartir tan buen material

  14. #13
    Miembro Destacado
    Avatar de juniorgarabo
    Fecha de ingreso
    16 sep, 12
    Edad
    34
    Mensajes
    3,012
    Última Actividad
    21/05/2018 @ 12:26
    Nacionalidad
    Dominican Republic

    Sexo
    Hombre

    Poder de reputación
    24

    Predeterminado Re: Peter Rabbit (2018) 2160p 4k UHD HDR Dual Latino-Inglés [Subt. Esp] (Animación. Comedia)


  15. #14
    Miembro Destacado
    Avatar de muruagam
    Fecha de ingreso
    29 ago, 12
    Ubicación
    Buenos Aires
    Edad
    44
    Mensajes
    1,242
    Última Actividad
    hoy @ 09:40
    Nacionalidad
    Argentina

    Sexo
    Hombre

    Poder de reputación
    7

    Predeterminado Re: Peter Rabbit (2018) 2160p 4k UHD HDR Dual Latino-Inglés [Subt. Esp] (Animación. Comedia)


  16. #15
    Miembro
    Avatar de sandovallucio
    Fecha de ingreso
    11 nov, 17
    Mensajes
    95
    Última Actividad
    20/05/2018 @ 02:54
    Nacionalidad
    Peru

    Sexo
    Hombre

    Poder de reputación
    1

    Predeterminado Re: Peter Rabbit (2018) 2160p 4k UHD HDR Dual Latino-Inglés [Subt. Esp] (Animación. Comedia)


  17. #16
    Miembro Junior Avatar de jarasao
    Fecha de ingreso
    12 may, 18
    Mensajes
    9
    Última Actividad
    17/05/2018 @ 22:54
    Nacionalidad
    Colombia

    Sexo
    Hombre

    Poder de reputación
    1

    Predeterminado Re: Peter Rabbit (2018) 2160p 4k UHD HDR Dual Latino-Inglés [Subt. Esp] (Animación. Comedia)

    Excelente película la recomiendo

  18. #17
    Gran Miembro
    Avatar de fewac
    Fecha de ingreso
    26 abr, 13
    Mensajes
    1,159
    Última Actividad
    Ayer @ 12:28
    Nacionalidad
    Mexico

    Sexo
    Hombre

    Poder de reputación
    7

    Predeterminado Re: Peter Rabbit (2018) 2160p 4k UHD HDR Dual Latino-Inglés [Subt. Esp] (Animación. Comedia)

    Muchas gracias!!!

  19. #18
    Gran Miembro
    Avatar de tonirello
    Fecha de ingreso
    08 sep, 12
    Edad
    34
    Mensajes
    373
    Última Actividad
    20/05/2018 @ 22:09
    Nacionalidad
    Argentina


    Poder de reputación
    6

    Predeterminado Re: Peter Rabbit (2018) 2160p 4k UHD HDR Dual Latino-Inglés [Subt. Esp] (Animación. Comedia)


  20. #19
    Gran Miembro
    Avatar de xikoh99
    Fecha de ingreso
    16 sep, 12
    Ubicación
    Santiago
    Edad
    28
    Mensajes
    1,269
    Última Actividad
    23/05/2018 @ 01:05
    Nacionalidad
    Chile

    Sexo
    Hombre

    Poder de reputación
    7

    Predeterminado Re: Peter Rabbit (2018) 2160p 4k UHD HDR Dual Latino-Inglés [Subt. Esp] (Animación. Comedia)


  21. #20
    Gran Miembro
    Avatar de spamthiss
    Fecha de ingreso
    20 oct, 16
    Mensajes
    142
    Última Actividad
    hoy @ 03:18
    Nacionalidad
    Chile

    Sexo
    Hombre

    Poder de reputación
    2

    Predeterminado Re: Peter Rabbit (2018) 2160p 4k UHD HDR Dual Latino-Inglés [Subt. Esp] (Animación. Comedia)

    Gracias

Información de tema

Usuarios viendo este tema

Actualmente hay 1 usuarios viendo este tema. (0 miembros y 1 visitantes)

Temas similares

  1. Respuestas: 74
    Último mensaje: 23/05/2018, 11:38
  2. Respuestas: 155
    Último mensaje: 21/05/2018, 09:49
  3. Respuestas: 113
    Último mensaje: 20/05/2018, 15:52
  4. Peter Rabbit (2018) Solo Audio Latino [AC3 5.1] [Extraido Del DVD]
    Por BryanTV en el foro Solo Audios Latinos.
    Respuestas: 109
    Último mensaje: 03/05/2018, 17:04
  5. Respuestas: 336
    Último mensaje: 12/02/2018, 02:29

Miembros que han leído este tema: 35

Marcadores

Permisos de publicación

  • No puedes crear nuevos temas
  • No puedes responder temas
  • No puedes subir archivos adjuntos
  • No puedes editar tus mensajes
  •