Banner Uploaded WHEELS

Resultados 1 al 14 de 14

Tema: The LEGO Ninjago Movie (2017) 2160p 4k UHD HDR Dual Latino-Inglés [Subt. Esp] (Animación. Comedia)

  1. #1
    HD Brady

    Avatar de Brady
    Fecha de ingreso
    01 jun, 16
    Edad
    22
    Mensajes
    1,543
    Última Actividad
    hoy @ 01:19
    Nacionalidad
    Mexico
    Sexo
    Hombre

    Poder de reputación
    71

    Predeterminado The LEGO Ninjago Movie (2017) 2160p 4k UHD HDR Dual Latino-Inglés [Subt. Esp] (Animación. Comedia)






    Título Original: The LEGO Ninjago Movie
    Año: 2017
    Duración: 101min.
    País: United States
    Director: Charlie Bean, Paul Fisher, Bob Logan
    Guion: Bob Logan, Paul Fisher, William Wheeler, Tom Wheeler, Jared Stern, John Whittington (Historia: Hilary Winston, Bob Logan, Paul Fisher, William Wheeler, Tom Wheeler, Dan Hageman, Kevin Hageman)
    Reparto: Animation, Jackie Chan, Dave Franco, Fred Armisen, Kumail Nanjiani, Michael Peña, Abbi Jacobson, Zach Woods, David Burrows, Alex Kauffman, Justin Theroux, Ali Wong
    Productora: Warner Bros. Pictures / LEGO System A/S / Lin Pictures / Lord Miller / RatPac-Dune Entertainment / Vertigo Entertainment / Warner Animation Group / Warner Bros. Animation
    Género: Animación. Comedia. Aventuras | Ninjas. 3-D. Lego


    SINOPSIS
    Ninjago ha estado en paz desde que los ninjas vencieron a Ronin, sin embargo, cuando un desaparecido señor de la guerra vuelve para reclamar la piedra de los elementos, los ninjas tendrán que juntarse con Sensei, Samurai, dragones y luchadores elementales para luchar contra los brujos, guerreros fantasma y la misteriosa liga de los ninjas silenciosos.

    TRAILER


    Datos Técnicos
    Video:
    MPEGH HEVC / 2160p / High Profile 5.1 / 10.5mbps

    Audio:
    Español Latino / AC3 5.1/ 448 kbps / 48kHz / Bluray 4k
    Inglés / TrueHD/Atmos 7.1 / 3938/5967 kbps / 48kHz / Bluray 4k
    Inglés / AC3 5.1 / 448 kbps / 48kHz / Bluray 4k

    Subs:
    Español Latino / SubRip / Bluray 4k
    Español Latino / Sup / Bluray 4k
    Español Latino Forzados / Sup / Bluray 4k
    Inglés / Sup / Bluray 4k


    Código:
    General
    Unique ID                                : 194745842652973391336793850808079672048 (0x9282AF5B927212F2E79B0519A2DEE2F0)
    Format                                   : Matroska
    Format version                           : Version 4 / Version 2
    File size                                : 10.9 GiB
    Duration                                 : 1 h 41 min
    Overall bit rate mode                    : Variable
    Overall bit rate                         : 15.4 Mb/s
    Encoded date                             : UTC 2018-04-14 02:14:08
    Writing application                      : mkvmerge v20.0.0 ('I Am The Sun') 64-bit
    Writing library                          : libebml v1.3.5 + libmatroska v1.4.8
    Uploader                                 : Brady
    Web                                      : www.club-hd.com
    
    Video
    ID                                       : 1
    Format                                   : HEVC
    Format/Info                              : High Efficiency Video Coding
    Format profile                           : Main 10@L5.1@High
    Codec ID                                 : V_MPEGH/ISO/HEVC
    Duration                                 : 1 h 41 min
    Bit rate                                 : 10.5 Mb/s
    Width                                    : 3 840 pixels
    Height                                   : 1 600 pixels
    Display aspect ratio                     : 2.40:1
    Frame rate mode                          : Constant
    Frame rate                               : 23.976 (24000/1001) FPS
    Color space                              : YUV
    Chroma subsampling                       : 4:2:0 (Type 2)
    Bit depth                                : 10 bits
    Bits/(Pixel*Frame)                       : 0.071
    Stream size                              : 7.41 GiB (68%)
    Writing library                          : x265 2.6+4-f7498acb3874:[Windows][GCC 7.2.0][64 bit] 10bit
    Encoding settings                        : cpuid=1049087 / frame-threads=4 / numa-pools=12,12 / wpp / no-pmode / no-pme / no-psnr / no-ssim / log-level=2 / input-csp=1 / input-res=3840x1600 / interlace=0 / total-frames=145987 / level-idc=51 / high-tier=1 / uhd-bd=0 / ref=4 / no-allow-non-conformance / repeat-headers / annexb / aud / hrd / info / hash=0 / no-temporal-layers / no-open-gop / min-keyint=24 / keyint=240 / bframes=4 / b-adapt=2 / b-pyramid / bframe-bias=0 / rc-lookahead=25 / lookahead-slices=4 / scenecut=40 / no-intra-refresh / ctu=64 / min-cu-size=8 / rect / no-amp / max-tu-size=32 / tu-inter-depth=1 / tu-intra-depth=1 / limit-tu=0 / rdoq-level=2 / dynamic-rd=0.00 / no-ssim-rd / signhide / no-tskip / nr-intra=0 / nr-inter=0 / no-constrained-intra / no-strong-intra-smoothing / max-merge=3 / limit-refs=3 / limit-modes / me=3 / subme=3 / merange=57 / temporal-mvp / weightp / no-weightb / no-analyze-src-pics / deblock=-3:-3 / no-sao / no-sao-non-deblock / rd=4 / no-early-skip / rskip / no-fast-intra / no-tskip-fast / no-cu-lossless / no-b-intra / no-splitrd-skip / rdpenalty=0 / psy-rd=2.00 / psy-rdoq=1.00 / no-rd-refine / analysis-reuse-mode=0 / no-lossless / cbqpoffs=0 / crqpoffs=0 / rc=crf / crf=17.0 / qcomp=0.60 / qpstep=4 / stats-write=0 / stats-read=0 / vbv-maxrate=160000 / vbv-bufsize=160000 / vbv-init=0.9 / crf-max=0.0 / crf-min=0.0 / ipratio=1.40 / pbratio=1.30 / aq-mode=1 / aq-strength=1.00 / cutree / zone-count=0 / no-strict-cbr / qg-size=32 / no-rc-grain / qpmax=69 / qpmin=0 / no-const-vbv / sar=1 / overscan=0 / videoformat=5 / range=0 / colorprim=9 / transfer=16 / colormatrix=9 / chromaloc=1 / chromaloc-top=2 / chromaloc-bottom=2 / display-window=0 / master-display=G(13250,34500)B(7500,3000)R(34000,16000)WP(15635,16450)L(40000000,50) / max-cll=810,472 / min-luma=0 / max-luma=1023 / log2-max-poc-lsb=8 / vui-timing-info / vui-hrd-info / slices=1 / opt-qp-pps / opt-ref-list-length-pps / no-multi-pass-opt-rps / scenecut-bias=0.05 / no-opt-cu-delta-qp / no-aq-motion / hdr / hdr-opt / no-dhdr10-opt / analysis-reuse-level=5 / scale-factor=0 / refine-intra=0 / refine-inter=0 / refine-mv=0 / no-limit-sao / ctu-info=0 / no-lowpass-dct / refine-mv-type=0 / copy-pic=1
    Language                                 : English
    Default                                  : Yes
    Forced                                   : No
    Color range                              : Limited
    Color primaries                          : BT.2020
    Transfer characteristics                 : PQ
    Matrix coefficients                      : BT.2020 non-constant
    Mastering display color primaries        : Display P3
    Mastering display luminance              : min: 0.0050 cd/m2, max: 4000 cd/m2
    Maximum Content Light Level              : 810 cd/m2
    Maximum Frame-Average Light Level        : 472 cd/m2
    
    Audio #1
    ID                                       : 2
    Format                                   : AC-3
    Format/Info                              : Audio Coding 3
    Codec ID                                 : A_AC3
    Duration                                 : 1 h 41 min
    Bit rate mode                            : Constant
    Bit rate                                 : 448 kb/s
    Channel(s)                               : 6 channels
    Channel positions                        : Front: L C R, Side: L R, LFE
    Sampling rate                            : 48.0 kHz
    Frame rate                               : 31.250 FPS (1536 SPF)
    Bit depth                                : 16 bits
    Compression mode                         : Lossy
    Stream size                              : 325 MiB (3%)
    Title                                    : Latino AC3 5.1 448 kbps Bluray 4k
    Language                                 : Latin
    Service kind                             : Complete Main
    Default                                  : Yes
    Forced                                   : No
    
    Audio #2
    ID                                       : 3
    Format                                   : TrueHD
    Format profile                           : TrueHD+Atmos / TrueHD
    Codec ID                                 : A_TRUEHD
    Duration                                 : 1 h 41 min
    Bit rate mode                            : Variable
    Bit rate                                 : 3 938 kb/s
    Maximum bit rate                         : 5 967 kb/s
    Channel(s)                               : Object Based / 8 channels
    Channel positions                        : Object Based / Front: L C R, Side: L R, Back: L R, LFE
    Sampling rate                            :  / 48.0 kHz
    Frame rate                               : 1 200.000 FPS (40 SPF)
    Compression mode                         : Lossless
    Stream size                              : 2.79 GiB (26%)
    Title                                    : Ingles TrueHD/Atmos 7.1 5967 kbps Bluray 4k
    Language                                 : English
    Default                                  : No
    Forced                                   : No
    
    Audio #3
    ID                                       : 4
    Format                                   : AC-3
    Format/Info                              : Audio Coding 3
    Codec ID                                 : A_AC3
    Duration                                 : 1 h 41 min
    Bit rate mode                            : Constant
    Bit rate                                 : 448 kb/s
    Channel(s)                               : 6 channels
    Channel positions                        : Front: L C R, Side: L R, LFE
    Sampling rate                            : 48.0 kHz
    Frame rate                               : 31.250 FPS (1536 SPF)
    Bit depth                                : 16 bits
    Compression mode                         : Lossy
    Stream size                              : 325 MiB (3%)
    Title                                    : Ingles AC3 5.1 448 kbps Bluray 4k
    Language                                 : English
    Service kind                             : Complete Main
    Default                                  : No
    Forced                                   : No
    
    Text #1
    ID                                       : 5
    Format                                   : UTF-8
    Codec ID                                 : S_TEXT/UTF8
    Codec ID/Info                            : UTF-8 Plain Text
    Duration                                 : 1 h 35 min
    Bit rate                                 : 77 b/s
    Count of elements                        : 1815
    Stream size                              : 54.2 KiB (0%)
    Title                                    : Latino
    Language                                 : Latin
    Default                                  : No
    Forced                                   : No
    
    Text #2
    ID                                       : 6
    Format                                   : PGS
    Muxing mode                              : zlib
    Codec ID                                 : S_HDMV/PGS
    Codec ID/Info                            : Picture based subtitle format used on BDs/HD-DVDs
    Duration                                 : 1 h 40 min
    Bit rate                                 : 44.3 kb/s
    Count of elements                        : 3610
    Stream size                              : 32.0 MiB (0%)
    Title                                    : Latino
    Language                                 : Latin
    Default                                  : No
    Forced                                   : No
    
    Text #3
    ID                                       : 7
    Format                                   : PGS
    Muxing mode                              : zlib
    Codec ID                                 : S_HDMV/PGS
    Codec ID/Info                            : Picture based subtitle format used on BDs/HD-DVDs
    Duration                                 : 1 h 38 min
    Bit rate                                 : 433 b/s
    Count of elements                        : 30
    Stream size                              : 313 KiB (0%)
    Title                                    : Forzados
    Language                                 : Latin
    Default                                  : Yes
    Forced                                   : No
    
    Text #4
    ID                                       : 8
    Format                                   : PGS
    Muxing mode                              : zlib
    Codec ID                                 : S_HDMV/PGS
    Codec ID/Info                            : Picture based subtitle format used on BDs/HD-DVDs
    Duration                                 : 1 h 40 min
    Bit rate                                 : 48.6 kb/s
    Count of elements                        : 3894
    Stream size                              : 35.1 MiB (0%)
    Title                                    : Ingles
    Language                                 : English
    Default                                  : No
    Forced                                   : No











    DESCARGA

    Links Intercambiables





    Compra tu Membresía VIP y apoya a Club-HD!

    Click Aquí para más información.

    ATENCIÓN! Finalmente tenemos TODO el material de Club-HD disponible por Mega, enlaces 100% activos y online hoy







    Compra tu Membresía VIP y apoya a Club-HD!

    Click Aquí para más información.

    ATENCIÓN! Finalmente tenemos TODO el material de Club-HD disponible por Mega, enlaces 100% activos y online hoy







    1. Primero, deben estár registrados, sino no habrá manera de que puedan ver los Enlaces.

    2. Una vez registrados, sólo deben dejar un simple comentario de Siete (7) letras/carácteres mínimo, o también un simple "Me gusta".

    Con eso ya podrán ver los links sin ningún problema.

    Nota: Usamos este sistema para proteger los links de Club-HD, y hasta la fecha funciona muy bien.





    1. Primero, deben estár registrados, sino no habrá manera de que puedan ver los Enlaces.

    2. Una vez registrados, sólo deben dejar un simple comentario de Siete (7) letras/carácteres mínimo, o también un simple "Me gusta".

    Con eso ya podrán ver los links sin ningún problema.

    Nota: Usamos este sistema para proteger los links de Club-HD, y hasta la fecha funciona muy bien.




    Código:
    www.club-hd.com
    Última edición por Brady; 15/04/2018 a las 19:32
    Let's Go, Do Your Job.

    Si te gusta mi material en 4K, que mejor que una cuenta de uploaded premium para bajar sin limites y gozar de una pelicula en 4K HDR, no te pierdas esta gran oportunidad, solo ingresa al Banner de abajo y compra tu cuenta Uploaded Premium, no te arrepentiras

  2. Los siguientes 6 Usuarios dieron Me Gusta a Brady por este Post:

    B.A (14/04/2018),beaubinz (19/04/2018),cripp (16/04/2018),flujo (14/04/2018),frmr (16/04/2018),Leo (15/04/2018)

  3. #2
    Miembro Destacado
    Avatar de Josiba
    Fecha de ingreso
    27 ago, 12
    Edad
    49
    Mensajes
    4,133
    Última Actividad
    Ayer @ 20:35
    Nacionalidad
    Costa Rica

    Poder de reputación
    11

    Predeterminado Re: The LEGO Ninjago Movie (2017) 2160p 4k UHD HDR Dual Latino-Inglés [Subt. Esp] (Animación. Comedia)


  4. #3
    Miembro Destacado
    Avatar de juniorgarabo
    Fecha de ingreso
    16 sep, 12
    Edad
    35
    Mensajes
    3,113
    Última Actividad
    Ayer @ 16:26
    Nacionalidad
    Dominican Republic
    Sexo
    Hombre

    Poder de reputación
    24

    Predeterminado Re: The LEGO Ninjago Movie (2017) 2160p 4k UHD HDR Dual Latino-Inglés [Subt. Esp] (Animación. Comedia)


  5. #4
    Miembro VIP en Club-HD!
    Avatar de novatoxp
    Fecha de ingreso
    05 sep, 12
    Mensajes
    3,941
    Última Actividad
    19/07/2018 @ 15:26
    Nacionalidad
    Peru
    Sexo
    Hombre

    Poder de reputación
    10

    Predeterminado Re: The LEGO Ninjago Movie (2017) 2160p 4k UHD HDR Dual Latino-Inglés [Subt. Esp] (Animación. Comedia)


  6. #5
    Gran Miembro
    Avatar de flujo
    Fecha de ingreso
    28 dic, 14
    Mensajes
    4,616
    Última Actividad
    hoy @ 00:33
    Nacionalidad
    Mexico
    Sexo
    Hombre

    Poder de reputación
    9

    Predeterminado Re: The LEGO Ninjago Movie (2017) 2160p 4k UHD HDR Dual Latino-Inglés [Subt. Esp] (Animación. Comedia)

    gracias

  7. #6
    Miembro VIP en Club-HD!
    Avatar de cpola
    Fecha de ingreso
    25 feb, 14
    Edad
    50
    Mensajes
    2,056
    Última Actividad
    Ayer @ 19:06
    Nacionalidad
    United States
    Sexo
    Hombre

    Poder de reputación
    7

    Predeterminado Re: The LEGO Ninjago Movie (2017) 2160p 4k UHD HDR Dual Latino-Inglés [Subt. Esp] (Animación. Comedia)

    Gracias

  8. #7
    Miembro Destacado
    Avatar de JCAvila
    Fecha de ingreso
    07 sep, 12
    Edad
    38
    Mensajes
    3,762
    Última Actividad
    Ayer @ 15:21
    Nacionalidad
    Mexico

    Poder de reputación
    10

    Predeterminado Re: The LEGO Ninjago Movie (2017) 2160p 4k UHD HDR Dual Latino-Inglés [Subt. Esp] (Animación. Comedia)

    gracias!

  9. #8
    Miembro Destacado
    Avatar de cripp
    Fecha de ingreso
    27 ago, 12
    Mensajes
    5,564
    Última Actividad
    20/07/2018 @ 13:57
    Nacionalidad
    Costa Rica

    Poder de reputación
    14

    Predeterminado Re: The LEGO Ninjago Movie (2017) 2160p 4k UHD HDR Dual Latino-Inglés [Subt. Esp] (Animación. Comedia)

    Gracias por compartir

  10. #9
    Miembro Destacado
    Avatar de joelmax18
    Fecha de ingreso
    28 ago, 12
    Edad
    38
    Mensajes
    1,516
    Última Actividad
    Ayer @ 23:48
    Nacionalidad
    Dominican Republic

    Poder de reputación
    7

    Predeterminado Re: The LEGO Ninjago Movie (2017) 2160p 4k UHD HDR Dual Latino-Inglés [Subt. Esp] (Animación. Comedia)

    gracias

  11. #10
    Miembro Destacado
    Avatar de romy
    Fecha de ingreso
    27 ago, 12
    Edad
    31
    Mensajes
    222
    Última Actividad
    21/04/2018 @ 11:40
    Nacionalidad
    Argentina
    Sexo
    Mujer

    Poder de reputación
    6

    Predeterminado Re: The LEGO Ninjago Movie (2017) 2160p 4k UHD HDR Dual Latino-Inglés [Subt. Esp] (Animación. Comedia)


  12. #11
    Miembro Destacado
    Avatar de RESIDENT_EVIL
    Fecha de ingreso
    28 ago, 12
    Mensajes
    1,266
    Última Actividad
    Ayer @ 00:37
    Nacionalidad
    Mexico

    Poder de reputación
    7

    Predeterminado Re: The LEGO Ninjago Movie (2017) 2160p 4k UHD HDR Dual Latino-Inglés [Subt. Esp] (Animación. Comedia)


  13. #12
    Gran Miembro
    Avatar de fewac
    Fecha de ingreso
    26 abr, 13
    Mensajes
    1,326
    Última Actividad
    20/07/2018 @ 02:28
    Nacionalidad
    Mexico
    Sexo
    Hombre

    Poder de reputación
    7

    Predeterminado Re: The LEGO Ninjago Movie (2017) 2160p 4k UHD HDR Dual Latino-Inglés [Subt. Esp] (Animación. Comedia)

    gracias!!!

  14. #13
    Miembro Destacado
    Avatar de el bodoke
    Fecha de ingreso
    26 sep, 15
    Mensajes
    382
    Última Actividad
    Ayer @ 18:56
    Nacionalidad
    United States
    Sexo
    Hombre

    Poder de reputación
    3

    Predeterminado Re: The LEGO Ninjago Movie (2017) 2160p 4k UHD HDR Dual Latino-Inglés [Subt. Esp] (Animación. Comedia)

    excelente calidad

  15. #14
    Miembro Destacado
    Avatar de ecuavideos
    Fecha de ingreso
    28 ago, 12
    Mensajes
    2,628
    Última Actividad
    Ayer @ 12:11
    Nacionalidad
    Ecuador

    Poder de reputación
    8

    Predeterminado Re: The LEGO Ninjago Movie (2017) 2160p 4k UHD HDR Dual Latino-Inglés [Subt. Esp] (Animación. Comedia)

    gracias

Información de tema

Usuarios viendo este tema

Actualmente hay 1 usuarios viendo este tema. (0 miembros y 1 visitantes)

Temas similares

  1. Respuestas: 18
    Último mensaje: 17/07/2018, 18:48
  2. Respuestas: 26
    Último mensaje: 17/07/2018, 08:21
  3. Respuestas: 43
    Último mensaje: 10/05/2018, 11:20
  4. Respuestas: 68
    Último mensaje: 15/04/2018, 21:45
  5. Respuestas: 103
    Último mensaje: 26/03/2018, 03:04

Miembros que han leído este tema: 41

Marcadores

Permisos de publicación

  • No puedes crear nuevos temas
  • No puedes responder temas
  • No puedes subir archivos adjuntos
  • No puedes editar tus mensajes
  •