Banner Uploaded Sider

Resultados 1 al 17 de 17

Tema: The Greatest Showman (2017) 2160p 4k UHD HDR Dual Latino-Inglés [Subt. Esp] (Musical. Drama)

  1. #1
    HD Brady

    Avatar de Brady
    Fecha de ingreso
    01 jun, 16
    Edad
    21
    Mensajes
    1,430
    Última Actividad
    hoy @ 07:42
    Nacionalidad
    Mexico

    Sexo
    Hombre

    Poder de reputación
    48

    Predeterminado The Greatest Showman (2017) 2160p 4k UHD HDR Dual Latino-Inglés [Subt. Esp] (Musical. Drama)






    Título Original: The Greatest Showman
    Año: 2017
    Duración: 105 min.
    País: United States
    Director: Michael Gracey
    Guion: Jenny Bicks, Bill Condon (Historia: Jenny Bicks)
    Reparto: Hugh Jackman, Michelle Williams, Zac Efron, Zendaya, Rebecca Ferguson, Diahann Carroll, Fredric Lehne, Keala Settle, Yahya Abdul-Mateen II, Isaac Eshete, Katrina E. Perkins, John Druzba, Shawn Contois, Ethan Coskay, Jamie Jackson
    Productora: Chernin Entertainment / 20th Century-Fox Film Corporation
    Género: Musical. Drama | Biográfico. Circo. Siglo XIX


    SINOPSIS
    Biopic sobre Phineas Taylor Barnum (1810-1891), un empresario circense estadounidense que fundó el "Ringling Bros. and Barnum & Bailey Circus", conocido como "el mayor espectáculo en la tierra".

    TRAILER


    Datos Técnicos
    Video:
    MPEGH HEVC / 2160p / High Profile 5.1 / 12.0 mbps

    Audio:
    Español Latino / AC3 5.1/ 448 kbps / 48kHz / Bluray 4k
    Inglés / TrueHD/Atmos 7.1 / 4572/7779 kbps / 48kHz / Bluray 4k
    Inglés / AC3 5.1/ 640 kbps / 48kHz / Bluray 4k

    Subs:
    Español Latino / SubRip / Bluray 4k
    Español Latino Forzados / SubRip / Bluray 4k
    Español Latino / Sup / Bluray 4k
    Inglés / Sup / Bluray 4k


    Código:
    General
    Unique ID                                : 70858253532315771904257002346688884907 (0x354ECDA061D2B27A3884F8F6DCD530AB)
    Format                                   : Matroska
    Format version                           : Version 4 / Version 2
    File size                                : 13.0 GiB
    Duration                                 : 1 h 44 min
    Overall bit rate mode                    : Variable
    Overall bit rate                         : 17.8 Mb/s
    Encoded date                             : UTC 2018-04-10 00:59:44
    Writing application                      : mkvmerge v20.0.0 ('I Am The Sun') 64-bit
    Writing library                          : libebml v1.3.5 + libmatroska v1.4.8
    Uploader                                 : Brady
    Web                                      : www.club-hd.com
    
    Video
    ID                                       : 1
    Format                                   : HEVC
    Format/Info                              : High Efficiency Video Coding
    Format profile                           : Main 10@L5.1@High
    Codec ID                                 : V_MPEGH/ISO/HEVC
    Duration                                 : 1 h 44 min
    Bit rate                                 : 12.0 Mb/s
    Width                                    : 3 840 pixels
    Height                                   : 1 600 pixels
    Display aspect ratio                     : 2.40:1
    Frame rate mode                          : Constant
    Frame rate                               : 23.976 (24000/1001) FPS
    Color space                              : YUV
    Chroma subsampling                       : 4:2:0 (Type 2)
    Bit depth                                : 10 bits
    Bits/(Pixel*Frame)                       : 0.082
    Stream size                              : 8.82 GiB (68%)
    Writing library                          : x265 2.7+3-0b781d592c8e:[Windows][GCC 6.3.0][64 bit] 10bit
    Encoding settings                        : cpuid=1173503 / frame-threads=4 / numa-pools=16 / wpp / no-pmode / no-pme / no-psnr / no-ssim / log-level=2 / input-csp=1 / input-res=3840x1600 / interlace=0 / total-frames=150792 / level-idc=51 / high-tier=1 / uhd-bd=0 / ref=4 / no-allow-non-conformance / repeat-headers / annexb / aud / hrd / info / hash=0 / no-temporal-layers / no-open-gop / min-keyint=24 / keyint=240 / gop-lookahead=0 / bframes=4 / b-adapt=2 / b-pyramid / bframe-bias=0 / rc-lookahead=25 / lookahead-slices=4 / scenecut=40 / radl=0 / no-intra-refresh / ctu=64 / min-cu-size=8 / rect / no-amp / max-tu-size=32 / tu-inter-depth=1 / tu-intra-depth=1 / limit-tu=0 / rdoq-level=2 / dynamic-rd=0.00 / no-ssim-rd / signhide / no-tskip / nr-intra=0 / nr-inter=0 / no-constrained-intra / no-strong-intra-smoothing / max-merge=3 / limit-refs=3 / limit-modes / me=3 / subme=3 / merange=57 / temporal-mvp / weightp / no-weightb / no-analyze-src-pics / deblock=-3:-3 / no-sao / no-sao-non-deblock / rd=4 / no-early-skip / rskip / no-fast-intra / no-tskip-fast / no-cu-lossless / no-b-intra / no-splitrd-skip / rdpenalty=0 / psy-rd=2.00 / psy-rdoq=1.00 / no-rd-refine / no-lossless / cbqpoffs=0 / crqpoffs=0 / rc=crf / crf=17.0 / qcomp=0.60 / qpstep=4 / stats-write=0 / stats-read=0 / vbv-maxrate=160000 / vbv-bufsize=160000 / vbv-init=0.9 / crf-max=0.0 / crf-min=0.0 / ipratio=1.40 / pbratio=1.30 / aq-mode=1 / aq-strength=1.00 / cutree / zone-count=0 / no-strict-cbr / qg-size=32 / no-rc-grain / qpmax=69 / qpmin=0 / no-const-vbv / sar=1 / overscan=0 / videoformat=5 / range=0 / colorprim=9 / transfer=16 / colormatrix=9 / chromaloc=1 / chromaloc-top=2 / chromaloc-bottom=2 / display-window=0 / master-display=G(13250,34500)B(7500,3000)R(34000,16000)WP(15635,16450)L(10000000,50) / max-cll=0,0 / min-luma=0 / max-luma=1023 / log2-max-poc-lsb=8 / vui-timing-info / vui-hrd-info / slices=1 / no-opt-qp-pps / no-opt-ref-list-length-pps / no-multi-pass-opt-rps / scenecut-bias=0.05 / no-opt-cu-delta-qp / no-aq-motion / hdr / hdr-opt / no-dhdr10-opt / analysis-reuse-level=5 / scale-factor=0 / refine-intra=0 / refine-inter=0 / refine-mv=0 / no-limit-sao / ctu-info=0 / no-lowpass-dct / refine-mv-type=0 / copy-pic=1
    Language                                 : English
    Default                                  : Yes
    Forced                                   : No
    Color range                              : Limited
    Color primaries                          : BT.2020
    Transfer characteristics                 : PQ
    Matrix coefficients                      : BT.2020 non-constant
    Mastering display color primaries        : Display P3
    Mastering display luminance              : min: 0.0050 cd/m2, max: 1000 cd/m2
    
    Audio #1
    ID                                       : 2
    Format                                   : AC-3
    Format/Info                              : Audio Coding 3
    Codec ID                                 : A_AC3
    Duration                                 : 1 h 44 min
    Bit rate mode                            : Constant
    Bit rate                                 : 448 kb/s
    Channel(s)                               : 6 channels
    Channel positions                        : Front: L C R, Side: L R, LFE
    Sampling rate                            : 48.0 kHz
    Frame rate                               : 31.250 FPS (1536 SPF)
    Bit depth                                : 16 bits
    Compression mode                         : Lossy
    Stream size                              : 336 MiB (3%)
    Title                                    : Latino AC3 5.1 448 kbps Bluray 4k
    Language                                 : Latin
    Service kind                             : Complete Main
    Default                                  : Yes
    Forced                                   : No
    
    Audio #2
    ID                                       : 3
    Format                                   : TrueHD
    Format profile                           : TrueHD+Atmos / TrueHD
    Codec ID                                 : A_TRUEHD
    Duration                                 : 1 h 44 min
    Bit rate mode                            : Variable
    Bit rate                                 : 4 572 kb/s
    Maximum bit rate                         : 7 779 kb/s
    Channel(s)                               : Object Based / 8 channels
    Channel positions                        : Object Based / Front: L C R, Side: L R, Back: L R, LFE
    Sampling rate                            :  / 48.0 kHz
    Frame rate                               : 1 200.000 FPS (40 SPF)
    Compression mode                         : Lossless
    Stream size                              : 3.35 GiB (26%)
    Title                                    : Ingles TrueHD/Atmos 7.1 7779 kbps Bluray 4k
    Language                                 : English
    Default                                  : No
    Forced                                   : No
    
    Audio #3
    ID                                       : 4
    Format                                   : AC-3
    Format/Info                              : Audio Coding 3
    Codec ID                                 : A_AC3
    Duration                                 : 1 h 44 min
    Bit rate mode                            : Constant
    Bit rate                                 : 640 kb/s
    Channel(s)                               : 6 channels
    Channel positions                        : Front: L C R, Side: L R, LFE
    Sampling rate                            : 48.0 kHz
    Frame rate                               : 31.250 FPS (1536 SPF)
    Bit depth                                : 16 bits
    Compression mode                         : Lossy
    Stream size                              : 480 MiB (4%)
    Title                                    : Ingles AC3 5.1 640 kbps Bluray 4k
    Language                                 : English
    Service kind                             : Complete Main
    Default                                  : No
    Forced                                   : No
    
    Text #1
    ID                                       : 5
    Format                                   : UTF-8
    Codec ID                                 : S_TEXT/UTF8
    Codec ID/Info                            : UTF-8 Plain Text
    Duration                                 : 1 h 36 min
    Bit rate                                 : 63 b/s
    Count of elements                        : 1443
    Stream size                              : 45.1 KiB (0%)
    Title                                    : Latino
    Language                                 : Latin
    Default                                  : No
    Forced                                   : No
    
    Text #2
    ID                                       : 6
    Format                                   : UTF-8
    Codec ID                                 : S_TEXT/UTF8
    Codec ID/Info                            : UTF-8 Plain Text
    Duration                                 : 1 h 37 min
    Bit rate                                 : 33 b/s
    Count of elements                        : 548
    Stream size                              : 23.9 KiB (0%)
    Title                                    : Forzados
    Language                                 : Latin
    Default                                  : Yes
    Forced                                   : No
    
    Text #3
    ID                                       : 7
    Format                                   : PGS
    Muxing mode                              : zlib
    Codec ID                                 : S_HDMV/PGS
    Codec ID/Info                            : Picture based subtitle format used on BDs/HD-DVDs
    Duration                                 : 1 h 43 min
    Bit rate                                 : 38.9 kb/s
    Count of elements                        : 2932
    Stream size                              : 28.9 MiB (0%)
    Title                                    : Latino
    Language                                 : Latin
    Default                                  : No
    Forced                                   : No
    
    Text #4
    ID                                       : 8
    Format                                   : PGS
    Muxing mode                              : zlib
    Codec ID                                 : S_HDMV/PGS
    Codec ID/Info                            : Picture based subtitle format used on BDs/HD-DVDs
    Duration                                 : 1 h 43 min
    Bit rate                                 : 51.5 kb/s
    Count of elements                        : 3728
    Stream size                              : 38.1 MiB (0%)
    Title                                    : Ingles
    Language                                 : English
    Default                                  : No
    Forced                                   : No











    DESCARGA

    Links Intercambiables





    Compra tu Membresía VIP y apoya a Club-HD!

    Click Aquí para más información.

    ATENCIÓN! Finalmente tenemos TODO el material de Club-HD disponible por Mega, enlaces 100% activos y online hoy







    Compra tu Membresía VIP y apoya a Club-HD!

    Click Aquí para más información.

    ATENCIÓN! Finalmente tenemos TODO el material de Club-HD disponible por Mega, enlaces 100% activos y online hoy







    1. Primero, deben estár registrados, sino no habrá manera de que puedan ver los Enlaces.

    2. Una vez registrados, sólo deben dejar un simple comentario de Siete (7) letras/carácteres mínimo, o también un simple "Me gusta".

    Con eso ya podrán ver los links sin ningún problema.

    Nota: Usamos este sistema para proteger los links de Club-HD, y hasta la fecha funciona muy bien.





    1. Primero, deben estár registrados, sino no habrá manera de que puedan ver los Enlaces.

    2. Una vez registrados, sólo deben dejar un simple comentario de Siete (7) letras/carácteres mínimo, o también un simple "Me gusta".

    Con eso ya podrán ver los links sin ningún problema.

    Nota: Usamos este sistema para proteger los links de Club-HD, y hasta la fecha funciona muy bien.




    Código:
    www.club-hd.com
    Let's Go, Do Your Job.

    Si te gusta mi material en 4K, que mejor que una cuenta de uploaded premium para bajar sin limites y gozar de una pelicula en 4K HDR, no te pierdas esta gran oportunidad, solo ingresa al Banner de abajo y compra tu cuenta Uploaded Premium, no te arrepentiras

  2. Los siguientes 10 Usuarios dieron Me Gusta a Brady por este Post:

    beaubinz (19/04/2018),CinefiloCool (10/04/2018),cripp (12/04/2018),flujo (11/04/2018),frmr (10/04/2018),Gibraine (11/04/2018),Leo (14/04/2018),Max (11/04/2018),oscarteach (11/04/2018),zamwise (11/04/2018)

  3. #2
    Miembro Destacado
    Avatar de Josiba
    Fecha de ingreso
    27 ago, 12
    Edad
    49
    Mensajes
    3,858
    Última Actividad
    hoy @ 01:43
    Nacionalidad
    Costa Rica


    Poder de reputación
    10

    Predeterminado Re: The Greatest Showman (2017) 2160p 4k UHD HDR Dual Latino-Inglés [Subt. Esp] (Musical. Drama)


  4. #3
    Miembro Destacado
    Avatar de JCAvila
    Fecha de ingreso
    07 sep, 12
    Edad
    38
    Mensajes
    3,559
    Última Actividad
    Ayer @ 16:17
    Nacionalidad
    Mexico


    Poder de reputación
    10

    Predeterminado Re: The Greatest Showman (2017) 2160p 4k UHD HDR Dual Latino-Inglés [Subt. Esp] (Musical. Drama)

    gracias!

  5. #4
    Gran Miembro
    Avatar de herbard
    Fecha de ingreso
    28 ago, 12
    Mensajes
    789
    Última Actividad
    20/04/2018 @ 22:54
    Nacionalidad
    Peru


    Poder de reputación
    6

    Predeterminado Re: The Greatest Showman (2017) 2160p 4k UHD HDR Dual Latino-Inglés [Subt. Esp] (Musical. Drama)


  6. #5
    Gran Miembro
    Avatar de flujo
    Fecha de ingreso
    28 dic, 14
    Mensajes
    4,247
    Última Actividad
    Ayer @ 17:38
    Nacionalidad
    Mexico

    Sexo
    Hombre

    Poder de reputación
    9

    Predeterminado Re: The Greatest Showman (2017) 2160p 4k UHD HDR Dual Latino-Inglés [Subt. Esp] (Musical. Drama)

    gracias

  7. #6
    Gran Miembro
    Avatar de jafont32
    Fecha de ingreso
    07 mar, 16
    Edad
    37
    Mensajes
    422
    Última Actividad
    Ayer @ 03:04
    Nacionalidad
    Argentina

    Sexo
    Hombre

    Poder de reputación
    3

    Predeterminado Re: The Greatest Showman (2017) 2160p 4k UHD HDR Dual Latino-Inglés [Subt. Esp] (Musical. Drama)

    Gracias

  8. #7
    Miembro Destacado
    Avatar de novatoxp
    Fecha de ingreso
    05 sep, 12
    Mensajes
    3,857
    Última Actividad
    20/04/2018 @ 23:30
    Nacionalidad
    Peru

    Sexo
    Hombre

    Poder de reputación
    10

    Predeterminado Re: The Greatest Showman (2017) 2160p 4k UHD HDR Dual Latino-Inglés [Subt. Esp] (Musical. Drama)


  9. #8
    Miembro Destacado
    Avatar de cripp
    Fecha de ingreso
    27 ago, 12
    Mensajes
    5,194
    Última Actividad
    20/04/2018 @ 15:53
    Nacionalidad
    Costa Rica


    Poder de reputación
    13

    Predeterminado Re: The Greatest Showman (2017) 2160p 4k UHD HDR Dual Latino-Inglés [Subt. Esp] (Musical. Drama)

    Gracias por compartir

  10. #9
    Miembro Destacado
    Avatar de tincho2273
    Fecha de ingreso
    27 ago, 12
    Ubicación
    Rosario
    Mensajes
    335
    Última Actividad
    13/04/2018 @ 00:05
    Nacionalidad
    Argentina


    Poder de reputación
    6

    Predeterminado Re: The Greatest Showman (2017) 2160p 4k UHD HDR Dual Latino-Inglés [Subt. Esp] (Musical. Drama)


  11. #10
    Miembro Destacado
    Avatar de joelmax18
    Fecha de ingreso
    28 ago, 12
    Edad
    38
    Mensajes
    1,371
    Última Actividad
    20/04/2018 @ 02:00
    Nacionalidad
    Dominican Republic


    Poder de reputación
    7

    Predeterminado Re: The Greatest Showman (2017) 2160p 4k UHD HDR Dual Latino-Inglés [Subt. Esp] (Musical. Drama)

    gracias

  12. #11
    Miembro Destacado
    Avatar de PATRICIOG
    Fecha de ingreso
    29 may, 15
    Mensajes
    1,415
    Última Actividad
    Ayer @ 22:48
    Nacionalidad
    Chile

    Sexo
    Hombre

    Poder de reputación
    4

    Predeterminado Re: The Greatest Showman (2017) 2160p 4k UHD HDR Dual Latino-Inglés [Subt. Esp] (Musical. Drama)


  13. #12
    Gran Miembro
    Avatar de myberc
    Fecha de ingreso
    02 dic, 15
    Mensajes
    334
    Última Actividad
    20/04/2018 @ 18:00
    Nacionalidad
    Bolivia

    Sexo
    Hombre

    Poder de reputación
    3

    Predeterminado Re: The Greatest Showman (2017) 2160p 4k UHD HDR Dual Latino-Inglés [Subt. Esp] (Musical. Drama)

    Gracias

  14. #13
    Gran Miembro
    Avatar de riu56
    Fecha de ingreso
    15 sep, 16
    Edad
    33
    Mensajes
    324
    Última Actividad
    14/04/2018 @ 19:48
    Nacionalidad
    Argentina

    Sexo
    Hombre

    Poder de reputación
    2

    Predeterminado Re: The Greatest Showman (2017) 2160p 4k UHD HDR Dual Latino-Inglés [Subt. Esp] (Musical. Drama)


  15. #14
    Miembro Destacado
    Avatar de juniorgarabo
    Fecha de ingreso
    16 sep, 12
    Edad
    34
    Mensajes
    2,959
    Última Actividad
    20/04/2018 @ 20:59
    Nacionalidad
    Dominican Republic

    Sexo
    Hombre

    Poder de reputación
    23

    Predeterminado Re: The Greatest Showman (2017) 2160p 4k UHD HDR Dual Latino-Inglés [Subt. Esp] (Musical. Drama)


  16. #15
    Miembro Destacado
    Avatar de cpola
    Fecha de ingreso
    25 feb, 14
    Edad
    50
    Mensajes
    1,975
    Última Actividad
    hoy @ 06:47
    Nacionalidad
    United States

    Sexo
    Hombre

    Poder de reputación
    6

    Predeterminado Re: The Greatest Showman (2017) 2160p 4k UHD HDR Dual Latino-Inglés [Subt. Esp] (Musical. Drama)

    Gracias

  17. #16
    Gran Miembro
    Avatar de bettobarbba
    Fecha de ingreso
    19 abr, 13
    Edad
    25
    Mensajes
    334
    Última Actividad
    Ayer @ 17:51
    Nacionalidad
    Mexico

    Sexo
    Hombre

    Poder de reputación
    6

    Predeterminado Re: The Greatest Showman (2017) 2160p 4k UHD HDR Dual Latino-Inglés [Subt. Esp] (Musical. Drama)

    descargando gracias

  18. #17
    Miembro Destacado
    Avatar de tsubasa100
    Fecha de ingreso
    04 sep, 12
    Mensajes
    2,279
    Última Actividad
    Ayer @ 17:22
    Nacionalidad
    Chile


    Poder de reputación
    8

    Predeterminado Re: The Greatest Showman (2017) 2160p 4k UHD HDR Dual Latino-Inglés [Subt. Esp] (Musical. Drama)

    gracias!

Información de tema

Usuarios viendo este tema

Actualmente hay 1 usuarios viendo este tema. (0 miembros y 1 visitantes)

Temas similares

  1. Respuestas: 113
    Último mensaje: Ayer, 13:44
  2. Respuestas: 185
    Último mensaje: Ayer, 01:07
  3. Respuestas: 84
    Último mensaje: 18/04/2018, 08:12
  4. Respuestas: 97
    Último mensaje: 08/04/2018, 03:53
  5. Respuestas: 43
    Último mensaje: 21/02/2018, 16:05

Miembros que han leído este tema: 59

Marcadores

Permisos de publicación

  • No puedes crear nuevos temas
  • No puedes responder temas
  • No puedes subir archivos adjuntos
  • No puedes editar tus mensajes
  •