Banner Uploaded Maria

Resultados 1 al 7 de 7

Tema: WWE Royal Rumble 21 (2008) 720p HDTV Dual Latino-Inglés (Wrestling. Sports)

  1. #1
    HD Brady

    Avatar de Brady
    Fecha de ingreso
    01 jun, 16
    Edad
    21
    Mensajes
    1,433
    Última Actividad
    hoy @ 21:40
    Nacionalidad
    Mexico

    Sexo
    Hombre

    Poder de reputación
    49

    Predeterminado WWE Royal Rumble 21 (2008) 720p HDTV Dual Latino-Inglés (Wrestling. Sports)






    Título Original: Royal Rumble 21
    Año: 2008
    Duración: 146 min.
    País: United States
    Productora: World Wrestling Entertainment AKA WWE
    Género: Wrestling, Entertainment, Sports
    Tema Oficial Del Evento: "Stand Up For Rock 'N' Roll" De Airbourne


    Código:
    General
    Unique ID                                : 140704326929926792548665192540471100231 (0x69DAAAEB5E064FE889DAE2F231150347)
    Format                                   : Matroska
    Format version                           : Version 4 / Version 2
    File size                                : 5.18 GiB
    Duration                                 : 2 h 46 min
    Overall bit rate mode                    : Variable
    Overall bit rate                         : 4 446 kb/s
    Encoded date                             : UTC 2018-04-08 08:50:23
    Writing application                      : mkvmerge v20.0.0 ('I Am The Sun') 64-bit
    Writing library                          : libebml v1.3.5 + libmatroska v1.4.8
    Uploader                                 : Brady
    Web                                      : www.club-hd.com
    
    Video
    ID                                       : 1
    Format                                   : AVC
    Format/Info                              : Advanced Video Codec
    Format profile                           : High@L4
    Format settings                          : CABAC / 3 Ref Frames
    Format settings, CABAC                   : Yes
    Format settings, RefFrames               : 3 frames
    Codec ID                                 : V_MPEG4/ISO/AVC
    Duration                                 : 2 h 46 min
    Bit rate mode                            : Variable
    Bit rate                                 : 4 222 kb/s
    Maximum bit rate                         : 5 500 kb/s
    Width                                    : 1 280 pixels
    Height                                   : 720 pixels
    Display aspect ratio                     : 16:9
    Frame rate mode                          : Constant
    Frame rate                               : 29.970 (30000/1001) FPS
    Color space                              : YUV
    Chroma subsampling                       : 4:2:0
    Bit depth                                : 8 bits
    Scan type                                : Progressive
    Bits/(Pixel*Frame)                       : 0.153
    Stream size                              : 4.91 GiB (95%)
    Language                                 : English
    Default                                  : Yes
    Forced                                   : No
    
    Audio #1
    ID                                       : 2
    Format                                   : MPEG Audio
    Format version                           : Version 1
    Format profile                           : Layer 3
    Codec ID                                 : A_MPEG/L3
    Codec ID/Hint                            : MP3
    Duration                                 : 2 h 46 min
    Bit rate mode                            : Constant
    Bit rate                                 : 128 kb/s
    Channel(s)                               : 2 channels
    Sampling rate                            : 44.1 kHz
    Frame rate                               : 38.281 FPS (1152 SPF)
    Compression mode                         : Lossy
    Delay relative to video                  : -21 ms
    Stream size                              : 153 MiB (3%)
    Title                                    : Latino MP3 128 kbps DVD
    Language                                 : Latin
    Default                                  : Yes
    Forced                                   : No
    
    Audio #2
    ID                                       : 3
    Format                                   : AAC
    Format/Info                              : Advanced Audio Codec
    Format profile                           : LC
    Codec ID                                 : A_AAC-2
    Duration                                 : 2 h 46 min
    Bit rate                                 : 93.5 kb/s
    Channel(s)                               : 2 channels
    Channel positions                        : Front: L R
    Sampling rate                            : 48.0 kHz
    Frame rate                               : 46.875 FPS (1024 SPF)
    Compression mode                         : Lossy
    Delay relative to video                  : -21 ms
    Stream size                              : 111 MiB (2%)
    Title                                    : Ingles AAC 2.0
    Language                                 : English
    Default                                  : No
    Forced                                   : No









    Nota: Estare subiendo todos los Royal Rumbles de la historia desde el 1 de 1988 hasta el de este año 2018, puede que muchos no esten en HD
    ni duales con idioma latino, hare todo lo que pueda por conseguirles en HD y duales los Royal Rumbles entre otros eventos.


    DESCARGA

    Links Intercambiables



    Evento Completo


    Compra tu Membresía VIP y apoya a Club-HD!

    Click Aquí para más información.

    ATENCIÓN! Finalmente tenemos TODO el material de Club-HD disponible por Mega, enlaces 100% activos y online hoy





    Evento Completo


    Compra tu Membresía VIP y apoya a Club-HD!

    Click Aquí para más información.

    ATENCIÓN! Finalmente tenemos TODO el material de Club-HD disponible por Mega, enlaces 100% activos y online hoy





    Evento Completo


    1. Primero, deben estár registrados, sino no habrá manera de que puedan ver los Enlaces.

    2. Una vez registrados, sólo deben dejar un simple comentario de Siete (7) letras/carácteres mínimo, o también un simple "Me gusta".

    Con eso ya podrán ver los links sin ningún problema.

    Nota: Usamos este sistema para proteger los links de Club-HD, y hasta la fecha funciona muy bien.



    Evento Completo


    1. Primero, deben estár registrados, sino no habrá manera de que puedan ver los Enlaces.

    2. Una vez registrados, sólo deben dejar un simple comentario de Siete (7) letras/carácteres mínimo, o también un simple "Me gusta".

    Con eso ya podrán ver los links sin ningún problema.

    Nota: Usamos este sistema para proteger los links de Club-HD, y hasta la fecha funciona muy bien.




    Código:
    www.club-hd.com
    Let's Go, Do Your Job.

    Si te gusta mi material en 4K, que mejor que una cuenta de uploaded premium para bajar sin limites y gozar de una pelicula en 4K HDR, no te pierdas esta gran oportunidad, solo ingresa al Banner de abajo y compra tu cuenta Uploaded Premium, no te arrepentiras

  2. Los siguientes 5 Usuarios dieron Me Gusta a Brady por este Post:

    caspercito (10/04/2018),cripp (09/04/2018),flujo (09/04/2018),Leo (09/04/2018),Max (11/04/2018)

  3. #2
    Miembro Destacado
    Avatar de virus619
    Fecha de ingreso
    28 ago, 12
    Edad
    29
    Mensajes
    3,292
    Última Actividad
    hoy @ 20:19
    Nacionalidad
    Chile


    Poder de reputación
    10

    Predeterminado Re: WWE Royal Rumble 21 (2008) 720p HDTV Dual Latino-Inglés (Wrestling. Sports)


  4. #3
    Miembro Destacado
    Avatar de cripp
    Fecha de ingreso
    27 ago, 12
    Mensajes
    5,217
    Última Actividad
    hoy @ 13:07
    Nacionalidad
    Costa Rica


    Poder de reputación
    13

    Predeterminado Re: WWE Royal Rumble 21 (2008) 720p HDTV Dual Latino-Inglés (Wrestling. Sports)

    Gracias por compartir

  5. #4
    Gran Miembro
    Avatar de flujo
    Fecha de ingreso
    28 dic, 14
    Mensajes
    4,269
    Última Actividad
    hoy @ 13:39
    Nacionalidad
    Mexico

    Sexo
    Hombre

    Poder de reputación
    9

    Predeterminado Re: WWE Royal Rumble 21 (2008) 720p HDTV Dual Latino-Inglés (Wrestling. Sports)

    gracias

  6. #5
    Miembro Destacado
    Avatar de caspercito
    Fecha de ingreso
    28 ago, 12
    Mensajes
    3,236
    Última Actividad
    Ayer @ 23:44
    Nacionalidad
    Mexico


    Poder de reputación
    9

    Predeterminado Re: WWE Royal Rumble 21 (2008) 720p HDTV Dual Latino-Inglés (Wrestling. Sports)


  7. #6
    Miembro Destacado
    Avatar de novatoxp
    Fecha de ingreso
    05 sep, 12
    Mensajes
    3,875
    Última Actividad
    hoy @ 16:29
    Nacionalidad
    Peru

    Sexo
    Hombre

    Poder de reputación
    10

    Predeterminado Re: WWE Royal Rumble 21 (2008) 720p HDTV Dual Latino-Inglés (Wrestling. Sports)


  8. #7
    Miembro Destacado
    Avatar de vladyspy
    Fecha de ingreso
    28 ago, 12
    Mensajes
    1,589
    Última Actividad
    Ayer @ 22:20
    Nacionalidad
    Bolivia


    Poder de reputación
    7

    Predeterminado Re: WWE Royal Rumble 21 (2008) 720p HDTV Dual Latino-Inglés (Wrestling. Sports)

    Gracias

Información de tema

Usuarios viendo este tema

Actualmente hay 1 usuarios viendo este tema. (0 miembros y 1 visitantes)

Temas similares

  1. WWE Royal Rumble 16 (2003) 720p HDTV Dual Latino-Inglés (Wrestling. Sports)
    Por Brady en el foro Películas, series, animes, etc... en 480p
    Respuestas: 21
    Último mensaje: hoy, 11:14
  2. WWE Royal Rumble 19 (2006) 720p HDTV Dual Latino-Inglés (Wrestling. Sports)
    Por Brady en el foro Películas, series, animes, etc... en 480p
    Respuestas: 7
    Último mensaje: 05/04/2018, 17:16
  3. WWE Royal Rumble 17 (2004) 720p HDTV Dual Latino-Inglés (Wrestling. Sports)
    Por Brady en el foro Películas, series, animes, etc... en 480p
    Respuestas: 16
    Último mensaje: 23/01/2018, 23:47
  4. WWF Royal Rumble 13 (2000) 720p HDTV Dual Latino-Inglés (Wrestling. Sports)
    Por Brady en el foro Películas, series, animes, etc... en 480p
    Respuestas: 19
    Último mensaje: 21/01/2018, 14:30
  5. WWF Royal Rumble 14 (2001) 720p HDTV Dual Latino-Inglés (Wrestling. Sports)
    Por Brady en el foro Películas, series, animes, etc... en 480p
    Respuestas: 18
    Último mensaje: 21/01/2018, 14:29

Miembros que han leído este tema: 25

Marcadores

Permisos de publicación

  • No puedes crear nuevos temas
  • No puedes responder temas
  • No puedes subir archivos adjuntos
  • No puedes editar tus mensajes
  •