Banner Uploaded WHEELS

Resultados 1 al 8 de 8

Tema: WWE Royal Rumble 20 (2007) 480p DVDRip Dual Latino-Inglés (Wrestling. Sports)

  1. #1
    HD Brady

    Avatar de Brady
    Fecha de ingreso
    01 jun, 16
    Edad
    22
    Mensajes
    1,543
    Última Actividad
    hoy @ 01:19
    Nacionalidad
    Mexico
    Sexo
    Hombre

    Poder de reputación
    71

    Predeterminado WWE Royal Rumble 20 (2007) 480p DVDRip Dual Latino-Inglés (Wrestling. Sports)






    Título Original: Royal Rumble 20
    Año: 2007
    Duración: 145 min.
    País: United States
    Productora: World Wrestling Entertainment AKA WWE
    Género: Wrestling, Entertainment, Sports
    Tema Oficial Del Evento: "Drones" De Rise Against


    Código:
    General
    Unique ID                                : 227673989679934016305626503999604810407 (0xAB486A5981CF8557A6A3A171D0F262A7)
    Format                                   : Matroska
    Format version                           : Version 4 / Version 2
    File size                                : 2.13 GiB
    Duration                                 : 2 h 45 min
    Overall bit rate                         : 1 850 kb/s
    Encoded date                             : UTC 2018-04-08 08:47:14
    Writing application                      : mkvmerge v20.0.0 ('I Am The Sun') 64-bit
    Writing library                          : libebml v1.3.5 + libmatroska v1.4.8
    Uploader                                 : Brady
    Web                                      : www.club-hd.com
    
    Video
    ID                                       : 1
    Format                                   : AVC
    Format/Info                              : Advanced Video Codec
    Format profile                           : Main@L4
    Format settings                          : CABAC / 4 Ref Frames
    Format settings, CABAC                   : Yes
    Format settings, RefFrames               : 4 frames
    Codec ID                                 : V_MPEG4/ISO/AVC
    Duration                                 : 2 h 45 min
    Bit rate                                 : 1 600 kb/s
    Width                                    : 640 pixels
    Height                                   : 480 pixels
    Display aspect ratio                     : 1.423
    Original display aspect ratio            : 1.422
    Frame rate mode                          : Constant
    Frame rate                               : 25.000 FPS
    Color space                              : YUV
    Chroma subsampling                       : 4:2:0
    Bit depth                                : 8 bits
    Scan type                                : Progressive
    Bits/(Pixel*Frame)                       : 0.208
    Stream size                              : 1.83 GiB (86%)
    Writing library                          : x264 core 142 r2479 dd79a61
    Encoding settings                        : cabac=1 / ref=1 / deblock=1:0:0 / analyse=0x1:0x111 / me=hex / subme=2 / psy=1 / psy_rd=1.00:0.00 / mixed_ref=0 / me_range=16 / chroma_me=1 / trellis=0 / 8x8dct=0 / cqm=0 / deadzone=21,11 / fast_pskip=1 / chroma_qp_offset=0 / threads=6 / lookahead_threads=2 / sliced_threads=0 / nr=0 / decimate=1 / interlaced=0 / bluray_compat=0 / constrained_intra=0 / bframes=3 / b_pyramid=2 / b_adapt=1 / b_bias=0 / direct=1 / weightb=1 / open_gop=0 / weightp=1 / keyint=250 / keyint_min=25 / scenecut=40 / intra_refresh=0 / rc_lookahead=10 / rc=abr / mbtree=1 / bitrate=1600 / ratetol=1.0 / qcomp=0.60 / qpmin=0 / qpmax=69 / qpstep=4 / vbv_maxrate=20000 / vbv_bufsize=25000 / nal_hrd=none / filler=0 / ip_ratio=1.40 / aq=1:1.00
    Language                                 : English
    Default                                  : Yes
    Forced                                   : No
    Color range                              : Limited
    Color primaries                          : BT.601 PAL
    Transfer characteristics                 : BT.709
    Matrix coefficients                      : BT.601
    
    Audio #1
    ID                                       : 2
    Format                                   : AAC
    Format/Info                              : Advanced Audio Codec
    Format profile                           : LC
    Codec ID                                 : A_AAC-2
    Duration                                 : 2 h 45 min
    Bit rate                                 : 128 kb/s
    Channel(s)                               : 2 channels
    Channel positions                        : Front: L R
    Sampling rate                            : 48.0 kHz
    Frame rate                               : 46.875 FPS (1024 SPF)
    Compression mode                         : Lossy
    Stream size                              : 151 MiB (7%)
    Title                                    : Latino AAC 2.0 128 kbps DVD
    Language                                 : Latin
    Default                                  : Yes
    Forced                                   : No
    
    Audio #2
    ID                                       : 3
    Format                                   : AAC
    Format/Info                              : Advanced Audio Codec
    Format profile                           : LC
    Codec ID                                 : A_AAC-2
    Duration                                 : 2 h 45 min
    Bit rate                                 : 128 kb/s
    Channel(s)                               : 2 channels
    Channel positions                        : Front: L R
    Sampling rate                            : 48.0 kHz
    Frame rate                               : 46.875 FPS (1024 SPF)
    Compression mode                         : Lossy
    Stream size                              : 151 MiB (7%)
    Title                                    : Ingles AAC 2.0 128 kbps DVD
    Language                                 : English
    Default                                  : No
    Forced                                   : No









    Nota: Estare subiendo todos los Royal Rumbles de la historia desde el 1 de 1988 hasta el de este año 2018, puede que muchos no esten en HD
    ni duales con idioma latino, hare todo lo que pueda por conseguirles en HD y duales los Royal Rumbles entre otros eventos.


    DESCARGA

    Links Intercambiables



    Evento Completo


    Compra tu Membresía VIP y apoya a Club-HD!

    Click Aquí para más información.

    ATENCIÓN! Finalmente tenemos TODO el material de Club-HD disponible por Mega, enlaces 100% activos y online hoy





    Evento Completo


    Compra tu Membresía VIP y apoya a Club-HD!

    Click Aquí para más información.

    ATENCIÓN! Finalmente tenemos TODO el material de Club-HD disponible por Mega, enlaces 100% activos y online hoy





    Evento Completo


    1. Primero, deben estár registrados, sino no habrá manera de que puedan ver los Enlaces.

    2. Una vez registrados, sólo deben dejar un simple comentario de Siete (7) letras/carácteres mínimo, o también un simple "Me gusta".

    Con eso ya podrán ver los links sin ningún problema.

    Nota: Usamos este sistema para proteger los links de Club-HD, y hasta la fecha funciona muy bien.



    Evento Completo


    1. Primero, deben estár registrados, sino no habrá manera de que puedan ver los Enlaces.

    2. Una vez registrados, sólo deben dejar un simple comentario de Siete (7) letras/carácteres mínimo, o también un simple "Me gusta".

    Con eso ya podrán ver los links sin ningún problema.

    Nota: Usamos este sistema para proteger los links de Club-HD, y hasta la fecha funciona muy bien.




    Código:
    www.club-hd.com
    Let's Go, Do Your Job.

    Si te gusta mi material en 4K, que mejor que una cuenta de uploaded premium para bajar sin limites y gozar de una pelicula en 4K HDR, no te pierdas esta gran oportunidad, solo ingresa al Banner de abajo y compra tu cuenta Uploaded Premium, no te arrepentiras

  2. Los siguientes 5 Usuarios dieron Me Gusta a Brady por este Post:

    caspercito (10/04/2018),cripp (09/04/2018),flujo (09/04/2018),Leo (09/04/2018),Max (11/04/2018)

  3. #2
    Miembro Destacado
    Avatar de virus619
    Fecha de ingreso
    28 ago, 12
    Edad
    29
    Mensajes
    3,434
    Última Actividad
    Ayer @ 23:44
    Nacionalidad
    Chile

    Poder de reputación
    10

    Predeterminado Re: WWE Royal Rumble 20 (2007) 480p DVDRip Dual Latino-Inglés (Wrestling. Sports)


  4. #3
    Miembro Destacado
    Avatar de cripp
    Fecha de ingreso
    27 ago, 12
    Mensajes
    5,564
    Última Actividad
    20/07/2018 @ 13:57
    Nacionalidad
    Costa Rica

    Poder de reputación
    14

    Predeterminado Re: WWE Royal Rumble 20 (2007) 480p DVDRip Dual Latino-Inglés (Wrestling. Sports)

    Gracias por compartir

  5. #4
    Gran Miembro
    Avatar de flujo
    Fecha de ingreso
    28 dic, 14
    Mensajes
    4,616
    Última Actividad
    hoy @ 00:33
    Nacionalidad
    Mexico
    Sexo
    Hombre

    Poder de reputación
    9

    Predeterminado Re: WWE Royal Rumble 20 (2007) 480p DVDRip Dual Latino-Inglés (Wrestling. Sports)

    gracias

  6. #5
    Miembro Destacado
    Avatar de caspercito
    Fecha de ingreso
    28 ago, 12
    Mensajes
    3,419
    Última Actividad
    Ayer @ 22:55
    Nacionalidad
    Mexico

    Poder de reputación
    9

    Predeterminado Re: WWE Royal Rumble 20 (2007) 480p DVDRip Dual Latino-Inglés (Wrestling. Sports)


  7. #6
    Miembro VIP en Club-HD!
    Avatar de novatoxp
    Fecha de ingreso
    05 sep, 12
    Mensajes
    3,941
    Última Actividad
    19/07/2018 @ 15:26
    Nacionalidad
    Peru
    Sexo
    Hombre

    Poder de reputación
    10

    Predeterminado Re: WWE Royal Rumble 20 (2007) 480p DVDRip Dual Latino-Inglés (Wrestling. Sports)


  8. #7
    Miembro Destacado
    Avatar de vladyspy
    Fecha de ingreso
    28 ago, 12
    Mensajes
    1,614
    Última Actividad
    05/06/2018 @ 01:25
    Nacionalidad
    Bolivia

    Poder de reputación
    7

    Predeterminado Re: WWE Royal Rumble 20 (2007) 480p DVDRip Dual Latino-Inglés (Wrestling. Sports)

    Gracias

  9. #8
    Gran Miembro
    Avatar de cases
    Fecha de ingreso
    24 ago, 14
    Edad
    42
    Mensajes
    457
    Última Actividad
    02/05/2018 @ 17:20
    Nacionalidad
    Chile
    Sexo
    Hombre

    Poder de reputación
    4

    Predeterminado Re: WWE Royal Rumble 20 (2007) 480p DVDRip Dual Latino-Inglés (Wrestling. Sports)

    Muchas Gracias

Información de tema

Usuarios viendo este tema

Actualmente hay 1 usuarios viendo este tema. (0 miembros y 1 visitantes)

Temas similares

  1. WWF Royal Rumble 3 (1990) 480p DVDRip Inglés (Wrestling. Sports)
    Por Brady en el foro Películas, series, animes, etc... en 480p
    Respuestas: 13
    Último mensaje: 15/12/2017, 19:12
  2. WWF Royal Rumble 2 (1989) 480p DVDRip Inglés (Wrestling. Sports)
    Por Brady en el foro Películas, series, animes, etc... en 480p
    Respuestas: 13
    Último mensaje: 15/12/2017, 18:49
  3. WWF Royal Rumble 12 (1999) 480p DVDRip Inglés (Wrestling. Sports)
    Por Brady en el foro Películas, series, animes, etc... en 480p
    Respuestas: 13
    Último mensaje: 14/11/2017, 01:12
  4. WWF Royal Rumble 10 (1997) 480p DVDRip Inglés (Wrestling. Sports)
    Por Brady en el foro Películas, series, animes, etc... en 480p
    Respuestas: 12
    Último mensaje: 14/11/2017, 00:58
  5. WWF Royal Rumble 8 (1995) 480p DVDRip Inglés (Wrestling. Sports)
    Por Brady en el foro Películas, series, animes, etc... en 480p
    Respuestas: 12
    Último mensaje: 14/11/2017, 00:56

Miembros que han leído este tema: 22

Marcadores

Permisos de publicación

  • No puedes crear nuevos temas
  • No puedes responder temas
  • No puedes subir archivos adjuntos
  • No puedes editar tus mensajes
  •